#VERSION:0.83;
#TITLE:SAMBISTA;
#SUBTITLE:;
#ARTIST:DOT96;
#TITLETRANSLIT:;
#SUBTITLETRANSLIT:;
#ARTISTTRANSLIT:;
#GENRE:HARD DANCE;
#ORIGIN:;
#CREDIT:;
#BANNER:SAMBISTA.png;
#BACKGROUND:SAMBISTA-bg.png;
#PREVIEWVID:;
#JACKET:SAMBISTA-jacket.png;
#CDIMAGE:;
#DISCIMAGE:;
#LYRICSPATH:;
#CDTITLE:cdtitle.png;
#MUSIC:SAMBISTA.ogg;
#OFFSET:-0.215000;
#SAMPLESTART:61.792999;
#SAMPLELENGTH:15.000000;
#SELECTABLE:YES;
#BPMS:0.000=152.000;
#STOPS:;
#DELAYS:;
#WARPS:;
#TIMESIGNATURES:0.000=4=4;
#TICKCOUNTS:0.000=4;
#COMBOS:0.000=1;
#SPEEDS:0.000=1.000=0.000=0;
#SCROLLS:0.000=1.000;
#FAKES:;
#LABELS:0.000=Song Start;
#BGCHANGES:-0.500=SAMBISTA.avi=1.000=0=0=0=StretchNoLoop==CrossFade_Fastest==,
99999=-nosongbg-=1.000=0=0=0 // don't automatically add -songbackground-
;
#KEYSOUNDS:;
#ATTACKS:
;

//---------------dance-single - Daff_4K----------------
#NOTEDATA:;
#CHARTNAME:Daff_4K;
#STEPSTYPE:dance-single;
#DESCRIPTION:Daff_4K;
#CHARTSTYLE:;
#DIFFICULTY:Beginner;
#METER:4;
#RADARVALUES:0.203449,0.269837,0.187387,0.000000,0.000000,152.000000,132.000000,20.000000,0.000000,0.000000,0.000000,0.000000,0.000000,0.000000,0.203449,0.269837,0.187387,0.000000,0.000000,152.000000,132.000000,20.000000,0.000000,0.000000,0.000000,0.000000,0.000000,0.000000;
#CREDIT:Daff_4K;
#NOTES:
0000
0000
0000
0000
,
0000
0000
0000
0000
,
0000
0000
0000
0000
,
0000
0000
0000
0000
,
1001
0000
0000
0000
,
1001
0000
0000
0000
,
0010
0000
0100
0000
,
0010
0000
0000
0000
,
1000
0000
0001
0000
,
1000
0000
0001
0000
,
0010
0000
0100
0000
,
0010
0000
0100
0000
,
1000
0000
0001
0000
,
1000
0000
0001
0000
,
0100
0000
0010
0000
,
0100
0100
0100
0000
,
0001
0000
0001
0000
,
1000
0000
0100
0000
,
0010
0000
0001
0000
,
0100
0000
0010
0000
,
1000
0000
1000
0000
,
0001
0000
0100
0000
,
0010
0000
1000
0000
,
0100
0000
0000
0000
,
1001
0000
1000
0000
,
0100
0000
0010
0000
,
1001
0000
0001
0000
,
0100
0000
0010
0000
,
1001
0000
1000
0000
,
0100
0100
0100
0000
,
1001
0000
0001
0000
,
0100
0100
0100
0000
,
0110
0000
1000
0000
,
0001
0001
0001
0000
,
0110
0000
0001
0000
,
1000
1000
1000
0000
,
0110
0000
1001
0000
,
0010
0010
0010
0000
,
0110
0000
1001
0000
,
0010
0010
0010
0000
,
1000
1000
1000
0000
,
0001
0001
0001
0000
,
0100
0100
0100
0000
,
0010
0000
1000
0000
,
0001
0000
0010
0000
,
0100
0000
1000
0000
,
0010
0010
0010
0000
,
0100
0100
0100
0000
,
1001
0000
0000
0000
,
0001
0000
1000
0000
,
0100
0100
0100
0000
,
0010
0010
0010
0000
,
1001
0000
0000
0000
,
1000
0000
0001
0000
,
0100
0100
0100
0000
,
0010
0010
0010
0000
,
0110
0000
0100
0000
,
0001
0001
0001
0000
,
1000
1000
1000
0000
,
0100
0000
0010
0000
,
0110
0000
0000
0000
,
1001
0000
0000
0000
,
0110
0000
0110
0000
,
0100
0100
0100
0000
,
1001
0000
0000
0000
;

//---------------dance-single - Daff_4K----------------
#NOTEDATA:;
#CHARTNAME:Daff_4K;
#STEPSTYPE:dance-single;
#DESCRIPTION:Daff_4K;
#CHARTSTYLE:;
#DIFFICULTY:Easy;
#METER:6;
#RADARVALUES:0.311865,0.419747,0.187387,0.309189,0.000000,233.000000,213.000000,20.000000,33.000000,0.000000,0.000000,0.000000,0.000000,0.000000,0.311865,0.419747,0.187387,0.309189,0.000000,233.000000,213.000000,20.000000,33.000000,0.000000,0.000000,0.000000,0.000000,0.000000;
#CREDIT:Daff_4K;
#NOTES:
0000
0000
0000
0000
,
0000
0000
0000
0000
,
0000
0000
0000
0000
,
0000
0000
0000
0000
,
1001
0000
0000
0000
,
0110
0000
0000
0000
,
1001
0000
0110
0000
,
2002
0000
0000
3003
,
1000
1000
0100
0100
,
1000
0010
0100
0001
,
0010
0010
0100
0100
,
1000
0010
0100
0000
,
0001
0001
0100
0100
,
0001
0010
0100
1000
,
0010
0010
0100
0100
,
0002
1000
1000
1003
,
0001
0100
0010
0100
,
0001
1000
0001
0010
,
0100
0010
0001
1000
,
0001
0100
0010
0010
,
1000
0100
0010
0100
,
1000
0001
1000
0010
,
0100
0010
1000
0001
,
2002
0000
0000
3003
,
2000
0100
3100
1000
,
0002
0100
0103
0001
,
0020
0000
0130
1000
,
0020
0000
0130
0001
,
2000
0010
3010
1000
,
0002
0010
0013
0001
,
0020
0100
0130
1000
,
0020
0100
0130
0001
,
1000
1000
0100
0010
,
0001
0001
0100
0010
,
1000
0001
0010
0011
,
0001
1000
0010
1010
,
2000
3200
0320
0031
,
0002
0203
0320
1030
,
0200
0320
0032
1003
,
2002
0000
0000
3003
,
1000
0010
0001
0100
,
0001
0010
1000
0100
,
1000
0010
0100
0001
,
0001
0010
0100
1000
,
0002
0103
0002
1003
,
2000
3100
2000
3001
,
0002
0203
0320
1030
,
2002
0000
0000
3003
,
0001
0010
0100
0010
,
0001
0100
1000
0100
,
0001
0001
1000
1000
,
0100
0100
0010
0001
,
1000
0010
0100
0010
,
1000
0100
0001
0100
,
1000
1000
0001
0001
,
0100
0100
0010
1000
,
1001
0000
0001
0010
,
1000
0010
0001
0100
,
0010
1000
0100
0010
,
0001
0001
1000
1000
,
1001
0000
0010
0100
,
0110
0000
0001
1000
,
1001
0000
0110
0000
,
1001
0110
1001
0110
,
1001
0000
0000
0000
;

//---------------dance-single - Daff_4K----------------
#NOTEDATA:;
#CHARTNAME:Daff_4K;
#STEPSTYPE:dance-single;
#DESCRIPTION:Daff_4K;
#CHARTSTYLE:;
#DIFFICULTY:Medium;
#METER:10;
#RADARVALUES:0.496576,0.509693,0.421621,0.178018,0.121802,371.000000,326.000000,45.000000,19.000000,0.000000,0.000000,0.000000,0.000000,0.000000,0.496576,0.509693,0.421621,0.178018,0.121802,371.000000,326.000000,45.000000,19.000000,0.000000,0.000000,0.000000,0.000000,0.000000;
#CREDIT:Daff_4K;
#NOTES:
0000
0000
0000
0000
,
0000
0000
0000
0000
,
0000
0000
0000
0000
,
0000
0000
0000
0000
,
0110
0000
0000
0000
0000
0000
0000
0000
0000
0000
1000
0000
0000
0001
0000
0000
,
1001
0000
0000
0000
0000
0000
0000
0000
0000
0000
1000
0000
0000
0100
0000
0000
,
0001
0000
0000
0100
0000
0000
1000
0000
0001
0000
0000
0100
0000
0000
0010
0000
,
2002
0000
0000
3003
,
1010
0000
0101
0000
0001
1000
0100
0000
,
0010
0001
1000
0000
0010
0010
0100
0000
,
0101
0000
1010
0000
1000
0001
0010
0000
,
0100
1000
0001
0000
2002
0000
3003
0000
,
0011
0000
1100
0000
1000
0001
0100
0000
,
0010
1000
0001
0000
0010
0010
0100
0000
,
1100
0000
0011
0000
0001
1000
0010
0000
,
0110
1001
0110
1001
,
1000
0010
1000
0000
0010
0001
0010
0000
,
0001
0100
0001
0000
0100
1000
0100
0000
,
1000
0010
0100
0000
0001
0010
0100
0000
,
1000
0001
0100
0010
1000
0000
1001
0000
,
0001
0010
0001
0000
0010
1000
0010
0000
,
1000
0100
1000
0000
0100
0001
0100
0000
,
0001
0010
0100
0000
1000
0010
0100
0000
,
2002
0000
0000
3003
,
1000
0000
0000
0100
0000
0000
1000
0000
0001
0000
0000
0010
0000
0000
0001
0000
,
0100
0000
0000
0010
0000
0000
1000
0000
0100
0000
0010
0000
0001
0000
0000
0000
,
0002
0000
0103
0020
0000
1030
0001
1000
,
0200
0000
0000
0010
0000
0000
0310
0000
0001
0000
1000
0000
0001
0000
0000
0000
,
1000
0010
0010
0100
0001
0001
0010
0100
,
1000
0010
0001
0010
1000
0100
0010
0000
,
0001
0000
0000
0010
0000
0000
0100
0000
1000
0000
1000
0000
0010
0000
0000
0100
,
0000
0001
0010
1000
0010
0001
1000
0000
,
0001
0100
0010
0100
1000
0100
0001
0001
,
1000
1000
0100
0010
0001
0010
0100
0000
,
1000
0100
0010
0100
0001
0100
2000
0000
,
3001
0100
0010
1000
0010
0100
0001
0000
,
0011
1100
0011
1100
,
1000
0010
0100
0001
0010
0100
1000
0000
,
1010
0101
1010
0101
,
0001
0010
0100
1000
0010
0100
0001
0000
,
1000
0000
0010
0000
0100
0000
0010
0000
1000
0000
0000
1000
0000
0000
1000
0000
,
0001
0000
0010
0000
0100
0000
0010
0000
0001
0000
0000
0001
0000
0000
0001
0000
,
1000
0000
0010
0000
0100
0000
0001
0000
0010
0000
0000
0010
0000
0000
0010
0000
,
0100
0000
0000
0100
0000
0000
0100
0000
1000
0000
0000
1000
0000
0000
1000
0000
,
0001
0000
0000
0001
0000
0000
0001
0000
0100
0000
0000
0100
0000
0000
0100
0000
,
0010
0000
0000
0010
0000
0000
0010
0000
1000
0000
0000
0100
0000
0000
0010
0000
,
0000
0001
0000
0000
0100
0000
0000
0010
0000
0000
1000
0000
0000
0001
0000
0000
,
2002
0000
0000
3003
,
1100
0000
0011
0000
1001
0000
1000
0010
,
0000
0100
0001
1000
0000
0001
1000
0100
,
0000
0010
0001
0010
0100
1000
0001
0000
,
0101
1010
2002
3003
,
0101
0000
1010
0000
1001
0000
0001
0010
,
0000
0100
1000
0001
0000
1000
0001
0100
,
0000
0010
1000
0010
0100
0001
1000
0000
,
1100
0011
2002
3003
,
1010
0000
1000
0001
1000
0100
0010
0000
,
0010
0001
1000
0002
0000
0103
0010
1000
,
0100
0000
0010
0001
0100
0000
0010
1000
,
0001
0110
2002
3003
,
0110
0000
0000
0000
0000
0000
0000
0000
0000
0000
0001
0000
0000
1000
0000
0000
,
1001
0000
0000
0000
0000
0000
0000
0000
0000
0000
0001
0000
0000
0100
0000
0000
,
1000
0000
0000
0100
0000
0000
0001
0000
1000
0000
0000
0100
0000
0000
0010
0000
,
0001
0100
0010
1000
0100
0010
0001
0000
,
1001
0000
0000
0000
;

//---------------dance-single - Daff_4K----------------
#NOTEDATA:;
#CHARTNAME:Daff_4K;
#STEPSTYPE:dance-single;
#DESCRIPTION:Daff_4K;
#CHARTSTYLE:;
#DIFFICULTY:Hard;
#METER:13;
#RADARVALUES:0.614362,0.629620,0.346666,0.252972,0.459098,459.000000,422.000000,37.000000,27.000000,0.000000,0.000000,0.000000,0.000000,0.000000,0.614362,0.629620,0.346666,0.252972,0.459098,459.000000,422.000000,37.000000,27.000000,0.000000,0.000000,0.000000,0.000000,0.000000;
#CREDIT:Daff_4K;
#NOTES:
0000
0000
0000
0000
,
0000
0000
0000
0000
,
0000
0000
0000
0000
,
0000
0000
0000
0000
,
1001
0000
0000
0000
0000
0000
0000
0000
0000
0000
1010
0000
0000
0101
0000
0000
,
1001
0000
0000
0000
0000
0000
0000
0000
0000
0000
0011
0000
0000
1100
0000
0000
,
1001
0000
0000
0001
0000
0000
0100
0000
0110
0000
0000
0010
0000
0000
1000
0000
,
2002
0000
0000
3003
,
0011
0000
0000
0000
1100
0000
0000
1000
0010
0000
0100
0000
0001
0000
0000
0001
,
0010
0100
1000
0010
0001
0010
1000
0000
,
0110
0000
0000
0000
1001
0000
0000
0001
0100
0000
0010
0000
1000
0000
0000
1000
,
0001
0010
0100
1000
0001
0000
1001
0000
,
1010
0000
0000
0000
0101
0000
0000
0001
0010
0000
0100
0000
1000
0000
0000
1000
,
0010
0100
0001
0010
1000
0010
0001
0000
,
0110
0000
0000
0000
1001
0000
0000
1000
0100
0000
0010
0000
0001
0000
1000
0000
,
0010
0100
0000
0010
0000
1000
0000
0001
1000
0000
0000
0110
0000
0000
1001
0000
,
0001
0100
1000
0100
0001
0100
1000
0100
,
0001
0010
0100
0010
0001
0010
0100
1000
,
0010
0001
0010
1000
0010
0001
0010
1000
,
0100
0010
0100
1000
0100
0010
0001
1001
,
1000
0100
0001
0100
1000
0100
0001
0100
,
1000
0010
0100
0010
1000
0010
0100
0001
,
0010
1000
0010
0001
0010
1000
0010
0001
,
0100
0010
1000
0100
0010
0001
1000
0000
,
0002
0000
0000
0100
0000
0000
0103
0000
0020
0000
0000
1000
0000
0000
1030
0000
,
0002
0000
0000
0010
0000
0000
0013
0000
0100
0000
1000
0000
0001
0000
0000
0000
,
2000
0000
0000
0010
0000
0000
3010
0000
0100
0000
0001
0000
1000
0000
0001
0000
,
2000
0000
0000
0100
0000
0000
3100
0000
0010
0000
0001
0000
2000
0000
0000
0000
,
3001
0000
0100
0000
0010
1000
0000
0001
0000
1000
0000
0000
0100
0000
0010
0000
,
0001
0000
1000
0000
0010
0100
0000
0010
0000
0000
1000
0000
0001
0000
0000
0000
,
1000
0000
0100
0000
0010
0000
0002
0000
0000
0000
1003
0000
0001
0000
0100
0010
,
0000
0000
1000
0000
0001
0000
0010
0000
0100
0010
0000
0000
0002
0000
0000
0000
,
1003
0010
0000
0100
0010
0000
1000
0000
0001
0000
0100
0000
0010
0000
1000
0000
,
0100
0010
0000
0100
1000
0000
0001
0000
0010
0000
0100
0000
1000
0000
0000
0000
,
0001
0000
0010
0100
0010
0000
0001
0000
1000
0000
0100
0000
0020
0000
0000
0000
,
0031
0000
0100
0010
0100
0000
0001
0000
0010
0000
0100
0000
1000
0000
0000
1000
,
0010
0000
0000
0010
0001
0000
0000
0001
0100
0000
0000
0100
1000
0000
0000
1000
,
0010
0000
0100
0000
0001
0000
0100
0000
0010
0000
1000
0000
0001
0000
0000
0001
,
0010
0000
0000
0010
1000
0000
0000
1000
0100
0000
0000
0100
0001
0000
0000
0001
,
1000
0100
0000
1000
0000
0001
0000
0100
0001
0000
0000
0010
0000
0000
0100
0000
,
1000
0010
0000
0100
0000
0010
0000
1000
0002
0000
0000
0010
0000
0000
0013
0000
,
0001
0100
0000
0010
0000
0100
0000
0001
2000
0000
0000
0100
0000
0000
3100
0000
,
0010
0001
0000
1000
0000
0001
0000
1000
0020
0000
0000
0100
0000
0000
0130
0000
,
0002
0000
0000
0010
0000
0000
1000
0000
2003
0000
0000
0010
0000
0000
0001
0000
,
3002
0000
0000
0100
0000
0000
0010
0000
2003
0000
0000
0100
0000
0000
0010
0000
,
3020
0000
0000
0001
0000
0000
1000
0000
2030
0000
0000
0100
0000
0000
3002
0000
,
0000
0100
0000
0000
2003
0000
0000
0010
0000
0000
3002
0000
0000
0010
0000
0000
,
0203
0000
0000
0320
0000
0000
2030
0000
0000
3002
0000
0000
1003
0000
0000
0000
,
1001
0000
0000
0001
0010
0000
0100
0000
1000
0000
0000
1000
0001
0000
0100
0000
,
0010
1000
0100
0001
1000
0010
0001
0100
,
0010
0100
0010
0000
1000
0000
0001
0000
1000
0000
0100
0010
0100
0000
0010
0000
,
0001
0100
1000
0100
0001
0010
0100
0000
,
1001
0000
0000
1000
0010
0000
0100
0000
0001
0000
0000
0001
1000
0000
0100
0000
,
0010
0001
0100
1000
0100
0001
0001
1000
,
1000
0000
0100
0000
0010
0000
0001
0000
1000
0000
0010
0100
0010
0000
0100
0000
,
0001
0010
0000
0000
0010
1000
0000
0000
1000
0100
0000
0000
0100
0001
0000
0000
,
1001
0000
0000
1000
0100
0000
0010
0000
0100
0000
1000
0000
0001
0000
0100
0000
,
1000
0000
0001
0000
0010
0000
1000
0000
0100
0000
0000
1000
0010
0000
0100
0000
,
0001
0000
0000
0001
0010
0000
0100
0000
1000
0000
0000
0010
0100
0000
0001
0000
,
0011
1100
1010
0101
,
1001
0000
0000
0000
0000
0000
0000
0000
0000
0000
1100
0000
0000
0011
0000
0000
,
1001
0000
0000
0000
0000
0000
0000
0000
0000
0000
0101
0000
0000
1010
0000
0000
,
1001
0000
0000
0001
0010
0000
0100
0000
1100
0000
0000
1000
0010
0000
0100
0000
,
0001
1000
0000
0100
0000
0010
0000
0001
0100
0000
0010
0000
1000
0000
0001
0000
,
1001
0000
0000
0000
;

//---------------dance-single - Daff_4K----------------
#NOTEDATA:;
#CHARTNAME:Daff_4K;
#STEPSTYPE:dance-single;
#DESCRIPTION:Daff_4K;
#CHARTSTYLE:;
#DIFFICULTY:Challenge;
#METER:16;
#RADARVALUES:0.812456,0.959421,0.337297,0.121802,0.936935,607.000000,571.000000,36.000000,13.000000,0.000000,0.000000,0.000000,0.000000,0.000000,0.812456,0.959421,0.337297,0.121802,0.936935,607.000000,571.000000,36.000000,13.000000,0.000000,0.000000,0.000000,0.000000,0.000000;
#CREDIT:Daff_4K;
#NOTES:
// measure 0
0000
0000
0000
0000
,  // measure 1
0000
0000
0000
0000
,  // measure 2
0000
0000
0000
0000
,  // measure 3
0000
0000
0000
0000
,  // measure 4
1001
0000
0000
0000
0000
0000
0000
0000
0000
0000
1100
0000
0000
0101
0000
0000
,  // measure 5
1001
0000
0000
0000
0000
0000
0000
0000
0000
0000
1000
0010
0000
1000
0000
0000
,  // measure 6
0001
0010
0000
0001
0000
0000
0100
0000
0010
0000
1000
0001
1000
0000
0001
0000
,  // measure 7
0020
0100
0000
0100
0000
0100
0000
0130
0010
0000
0000
1001
0000
0000
0110
0000
,  // measure 8
1001
0000
0000
1000
0100
0000
0100
0010
0001
0000
0001
1000
0010
0000
0100
0000
,  // measure 9
0001
0000
0010
0100
0010
0000
0001
0000
0100
0000
1000
0000
0100
0000
0001
0000
,  // measure 10
1000
0000
0100
0010
0001
0000
0001
1000
0010
0000
0010
0100
0001
0000
1000
0000
,  // measure 11
0100
0000
0000
0000
0000
0000
0010
0000
0000
0100
0000
0000
0010
0000
0000
0000
0000
0000
0001
0000
0000
1000
0000
0000
0001
0000
0000
0000
0000
0000
0100
0000
0010
0000
0100
0000
0010
0000
0000
0000
0000
0000
1000
0000
0000
0000
0000
0000
,  // measure 12
1001
0000
0000
0001
0100
0000
0100
0010
1000
0000
1000
0001
0010
0000
0100
0000
,  // measure 13
1000
0000
0010
0100
0010
0000
1000
0000
0100
0000
0001
0000
0100
0000
1000
0000
,  // measure 14
0001
0000
0100
0010
1000
0000
1000
0001
0010
0000
0010
0100
1000
0000
0001
0000
,  // measure 15
0200
0010
0000
0010
0000
0010
0000
0310
1000
0000
0100
0010
0000
0001
1000
0000
,  // measure 16
1001
0001
0100
1000
0100
0001
0010
1000
,  // measure 17
0010
0100
0000
0010
0000
0001
0000
1000
0001
0000
0100
0010
0000
0010
1000
0000
,  // measure 18
0100
0010
0000
0100
0000
0001
0000
0100
1000
0000
0010
0100
0000
0100
0001
0000
,  // measure 19
1000
0100
0000
0010
0000
0001
0000
0100
0010
0000
1000
0001
1000
0000
0001
0000
,  // measure 20
1001
1000
0100
0001
0100
1000
0010
0001
,  // measure 21
0010
0100
0000
0010
0000
1000
0000
0001
1000
0000
0100
0010
0000
0010
0001
0000
,  // measure 22
0100
0010
0000
0100
0000
1000
0000
0100
0001
0000
0010
0100
0000
0100
1000
0000
,  // measure 23
0001
0100
0010
1000
0100
0010
0001
0000
,  // measure 24
2001
0000
0000
0010
0000
0000
3100
0000
0201
0000
0000
0010
0000
0000
1300
0000
,  // measure 25
1002
0000
0000
0100
0000
0000
0013
0000
0100
0000
1000
0000
0001
0000
0000
0000
,  // measure 26
1002
0000
0000
0013
0000
0000
0201
0000
0000
0000
1300
0000
0100
0000
0001
0000
,  // measure 27
2001
0000
0000
3100
0000
0000
1020
0000
0000
0000
0031
0000
0010
0000
1000
0000
,  // measure 28
0001
0000
0010
0000
1000
0001
0000
0100
0000
1000
0000
0010
0100
0000
0010
0000
,  // measure 29
0001
0000
0010
0000
1000
0001
0000
0010
0000
0100
0010
0000
0001
1000
0001
0000
,  // measure 30
1000
0000
0010
0000
0001
0000
2000
0000
0000
0000
3100
0000
0001
0000
0010
0100
,  // measure 31
0010
0000
1000
0000
0010
0000
0001
0000
0100
0010
0100
0000
0020
0000
0000
0000
,  // measure 32
1030
0100
0000
0010
0100
0000
1000
0000
0001
0000
0010
0100
0000
0010
0001
0000
,  // measure 33
1000
0010
0000
0100
0001
0000
1000
0100
0000
0010
0000
0001
1000
0010
0100
0000
,  // measure 34
0001
0000
0100
0010
0100
0000
0001
0000
1000
0000
0010
0100
0010
0000
1000
0000
,  // measure 35
0001
0000
0000
0000
0000
0000
0010
0000
0000
0100
0000
0000
1000
0000
0000
0000
0000
0000
0001
0000
0000
0000
0000
0000
1000
0000
0000
0010
0000
0000
0100
0000
0000
0000
0000
0000
0001
0000
0000
0000
0000
0000
1000
0000
0100
0000
1000
0000
,  // measure 36
0100
0000
0000
0000
0000
0000
0010
0000
0001
0000
0010
0000
0001
0000
0000
0000
0000
0000
1000
0000
0010
0000
1000
0000
0010
0000
0000
0000
0000
0000
0100
0000
0000
0001
0000
0000
1000
0000
0000
0001
0000
0000
0010
0000
0000
0000
0000
0000
,  // measure 37
0001
0000
0000
0100
0000
0000
0000
0000
0000
0010
0000
0000
1000
0000
0000
0001
0000
0000
1000
0000
0000
0100
0000
0000
0000
0000
0000
0010
0000
0000
0001
0000
0000
0000
0000
0000
1000
0000
0000
0000
0000
0000
0001
0000
0100
0000
0001
0000
,  // measure 38
0100
0000
0000
0000
0000
0000
0010
0000
1000
0000
0010
0000
1000
0000
0000
0000
0000
0000
0001
0000
0010
0000
0001
0000
0010
0000
0000
0000
0000
0000
0100
0000
0000
1000
0000
0000
0001
0000
0000
1000
0000
0000
0010
0000
0000
0000
0000
0000
,  // measure 39
0200
0010
0000
0010
0000
0010
0000
0310
1000
0000
0100
0010
0000
0001
1000
0000
,  // measure 40
0001
0100
0000
0010
1000
0001
1000
0001
0010
0000
0100
1000
0000
1000
0001
0000
,  // measure 41
1000
0100
0000
0010
0001
1000
0001
1000
0010
0000
0100
0001
0000
0001
1000
0000
,  // measure 42
0001
1000
0000
0100
0010
0001
1000
0001
1000
0000
0010
0100
0000
0010
1000
0000
,  // measure 43
0001
0000
0010
0100
0000
1000
0001
0000
1000
0000
0010
0100
0000
0001
1000
0000
,  // measure 44
1001
0000
0001
0010
0000
0100
1000
0000
1001
0000
0001
0100
0000
0010
1000
0000
,  // measure 45
1001
0000
1000
0100
0000
0010
0001
0000
1001
0000
1000
0010
0000
0100
0001
0000
,  // measure 46
0010
0100
0000
0010
0001
0000
1000
0010
0000
0100
0010
0000
1000
0001
0000
0010
,  // measure 47
0200
0000
0000
1000
0000
0000
0001
0000
0000
1000
0000
0000
0310
0000
0001
0000
,  // measure 48
1001
0000
0000
1000
0010
0000
0100
0000
0001
0000
1000
0001
1000
0000
0100
0000
,  // measure 49
0001
0010
0001
0100
1000
0010
0001
1000
,  // measure 50
0100
0010
0100
0000
0001
0000
0010
0000
1000
0000
0010
0100
0010
0000
0001
0000
,  // measure 51
1000
0000
1010
0000
0001
0000
0011
0000
0100
0000
0010
0100
0010
0000
1000
0000
,  // measure 52
1001
0000
0000
0001
0010
0000
0100
0000
1000
0000
0001
1000
0001
0000
0100
0000
,  // measure 53
1000
0000
0010
0000
1000
0000
0100
0000
0001
0000
1000
0100
0010
0000
0001
0100
,  // measure 54
0010
0000
1000
0000
0010
0000
0001
0000
0010
0000
1000
0001
1000
0000
0100
0000
,  // measure 55
0010
0001
0100
0000
0010
1000
0100
0000
0010
0000
0001
1000
0001
0000
1000
0000
,  // measure 56
1001
0000
0000
0001
0010
0000
0100
1000
0100
0000
1000
0001
1000
0000
0001
0000
,  // measure 57
0100
0000
1000
0000
0100
0000
0001
0000
0010
0000
0100
0000
1000
0001
1000
0000
,  // measure 58
0010
0000
0100
0000
0001
1000
0001
0000
0010
0000
0100
0000
1000
0010
0100
0000
,  // measure 59
0001
0010
0100
0000
1000
0000
0001
0000
0100
0010
0100
0000
0010
0000
1000
0000
,  // measure 60
1100
0000
0000
0000
0011
0000
0000
0001
1000
0000
1010
0000
0000
0110
0000
0000
,  // measure 61
0101
0000
0000
0000
1010
0000
0000
1000
0001
0000
0010
0100
0000
0010
0100
0000
,  // measure 62
1000
0000
0001
0000
1000
0000
0001
0000
0000
0010
0000
0000
0000
0000
0000
0100
0000
0000
0010
0000
0000
0100
0000
0000
1000
0000
0000
0000
0000
0000
0001
0000
1000
0000
0001
0000
1000
0000
0000
0010
0000
0000
0100
0000
0000
0010
0000
0000
,  // measure 63
0100
0001
0000
1001
0000
0110
0000
1001
0000
1000
0001
0100
0010
1000
0001
0000
,  // measure 64
1001
0000
0000
0000
;
