#VERSION:0.83;
#TITLE:S.N.U.F.F.Y;
#SUBTITLE:;
#ARTIST:METAROOM;
#TITLETRANSLIT:;
#SUBTITLETRANSLIT:;
#ARTISTTRANSLIT:;
#GENRE:;
#ORIGIN:;
#CREDIT:;
#BANNER:S.N.U.F.F.Y.png;
#BACKGROUND:S.N.U.F.F.Y-bg.png;
#PREVIEWVID:;
#JACKET:S.N.U.F.F.Y-jacket.png;
#CDIMAGE:;
#DISCIMAGE:;
#LYRICSPATH:;
#CDTITLE:;
#MUSIC:S.N.U.F.F.Y.ogg;
#OFFSET:2.400000;
#SAMPLESTART:28.800001;
#SAMPLELENGTH:19.250000;
#SELECTABLE:YES;
#BPMS:0.000=100.000;
#STOPS:;
#DELAYS:;
#WARPS:;
#TIMESIGNATURES:0.000=4=4;
#TICKCOUNTS:0.000=4;
#COMBOS:0.000=1;
#SPEEDS:0.000=1.000=0.000=0;
#SCROLLS:0.000=1.000,
116.000=0.500,
119.000=1.000;
#FAKES:;
#LABELS:0.000=Song Start;
#BGCHANGES:;
#KEYSOUNDS:;
#ATTACKS:
;

//---------------dance-single - ----------------
#NOTEDATA:;
#CHARTNAME:;
#STEPSTYPE:dance-single;
#DESCRIPTION:;
#CHARTSTYLE:;
#DIFFICULTY:Hard;
#METER:13;
#RADARVALUES:0.590463,0.633756,0.254209,0.564908,0.626106,439.000000,412.000000,27.000000,60.000000,0.000000,0.000000,0.000000,0.000000,0.000000,0.590463,0.633756,0.254209,0.564908,0.626106,439.000000,412.000000,27.000000,60.000000,0.000000,0.000000,0.000000,0.000000,0.000000;
#CREDIT:Kekkle;
#NOTES:
// measure 0
0000
0000
0000
0000
,  // measure 1
0000
0000
0000
0000
,  // measure 2
0000
0000
0000
0000
,  // measure 3
0000
0000
0000
0000
,  // measure 4
0000
0000
0000
0000
,  // measure 5
0001
1000
0100
0010
1000
0010
0002
0000
1000
0000
0000
0000
0103
0010
1000
0010
,  // measure 6
0100
0001
1000
0100
0000
0010
0100
0010
0000
0010
0000
0010
1002
0000
0000
0000
,  // measure 7
1003
0001
0100
0010
0001
0010
2000
0000
0000
0000
0000
3001
0100
0001
1000
0001
,  // measure 8
0010
0100
1000
0100
0010
0000
0011
0000
0001
1000
0010
0000
0110
0000
1001
0000
,  // measure 9
0001
0100
0010
0100
1000
0100
0002
0000
1000
0000
0000
0000
0013
0100
1000
0001
,  // measure 10
0102
1003
2100
3001
0012
1003
2010
3001
,  // measure 11
1000
0010
0100
0010
0001
0010
0200
0000
1000
0000
0000
0310
1000
0001
1000
0000
,  // measure 12
1002
0000
1003
0100
0002
0000
1003
0010
0002
0000
1003
0010
0002
0000
0013
1000
,  // measure 13
1002
0000
0100
0000
1003
0000
0001
0000
0010
0000
0100
1000
0002
0000
0000
0000
,  // measure 14
1003
0000
0001
0100
1000
0000
0100
0000
0001
0000
1000
0100
0001
0000
0100
0000
,  // measure 15
2000
0000
0010
0000
3001
0000
0100
0000
0010
0000
1000
0001
0010
0000
0100
0000
,  // measure 16
2100
0000
3001
0000
0102
0000
1003
0000
2010
0000
3001
0000
1000
0100
0010
0001
,  // measure 17
1002
0000
0010
0000
1003
0000
0010
0000
0100
0000
0001
1000
0020
0000
0000
0000
,  // measure 18
1030
0000
0001
0010
1000
0000
0010
0000
0001
0000
1000
0010
0001
0000
0010
0000
,  // measure 19
2000
0000
0100
0000
3001
0000
0100
0000
0010
0000
1000
0001
0010
0000
0100
0000
,  // measure 20
2100
3001
0102
1003
2010
3001
0012
1000
,  // measure 21
0203
0000
0000
1300
0000
0000
0200
0000
0000
0301
0000
0000
0100
0010
1000
0001
,  // measure 22
0020
0130
2000
3001
0200
0310
2000
3001
,  // measure 23
0020
0000
0000
1030
0000
0000
0020
0000
0000
0031
0000
0000
0010
0100
1000
0001
,  // measure 24
0100
0000
1000
0000
0100
0000
0001
0000
0010
0000
1000
0000
0010
0100
0010
0000
,  // measure 25
0200
0000
0000
0301
0000
0000
0200
0000
0000
1300
0000
0000
0100
0010
0001
1000
,  // measure 26
0020
0130
0002
1003
0200
0310
0002
1003
,  // measure 27
0020
0000
0000
0031
0000
0000
0020
0000
0000
1030
0000
0000
0001
0010
0100
0000
,  // measure 28
2000
0000
3001
0100
2000
0000
3001
0010
2000
0000
3001
0010
2000
0000
3010
0001
,  // measure 29
2002
0000
0000
3003
,  // measure 30
1000
0000
0001
0100
1000
0000
0100
0000
0001
0000
1000
0100
0001
0100
0010
0001
,  // measure 31
0020
0000
1000
0000
0031
0000
1000
0000
0010
0000
0100
0010
1000
0001
1000
0100
,  // measure 32
2100
0000
3001
0000
0102
0000
1003
0000
2010
0000
3001
0000
1000
0100
0001
0100
,  // measure 33
0120
0000
1000
0000
0031
0000
1000
0000
0010
0000
0100
0001
1000
0001
0010
0001
,  // measure 34
1000
0000
0001
0010
1000
0000
0010
0000
0001
0000
1000
0010
0001
0010
0100
0001
,  // measure 35
0200
0000
1000
0000
0301
0000
1000
0000
0100
0000
0010
0001
1000
0010
0100
0010
,  // measure 36
2010
0000
3001
0000
0012
0000
1003
0000
2100
0000
3001
0000
1000
1000
0001
0001
,  // measure 37
0100
0010
1000
0000
0010
0001
0000
0010
1000
0010
0100
1000
0100
0010
1000
0001
,  // measure 38
1000
0100
0010
0000
0100
0001
0000
0100
1000
0001
0100
1000
0100
0100
0010
0010
,  // measure 39
1000
0001
0010
0000
0100
0001
0000
0100
1000
0001
0010
1000
0010
0100
1000
0001
,  // measure 40
0010
0001
1000
0010
0100
0000
0100
0000
1000
0100
0001
1000
0001
0010
1000
0000
,  // measure 41
0010
0001
1000
0010
0001
0010
0200
0000
1000
0000
0010
0000
0301
1000
0100
1000
,  // measure 42
0001
1000
0010
0100
0000
0010
0100
0010
0000
0010
0000
0010
1000
1000
0001
0001
,  // measure 43
0010
0100
1000
0100
0001
0100
0020
0000
1000
0000
0000
1030
0010
0001
1000
0001
,  // measure 44
0100
0010
1000
0001
0010
0000
1100
0000
1000
0001
0200
0000
1000
0000
0301
0000
;

//---------------dance-double - ----------------
#NOTEDATA:;
#CHARTNAME:;
#STEPSTYPE:dance-double;
#DESCRIPTION:;
#CHARTSTYLE:;
#DIFFICULTY:Hard;
#METER:14;
#RADARVALUES:0.566253,0.612631,0.075321,0.555493,0.621399,421.000000,413.000000,8.000000,59.000000,0.000000,0.000000,0.000000,0.000000,0.000000,0.566253,0.612631,0.075321,0.555493,0.621399,421.000000,413.000000,8.000000,59.000000,0.000000,0.000000,0.000000,0.000000,0.000000;
#CREDIT:Kekkle;
#NOTES:
00000000
00000000
00000000
00000000
,
00000000
00000000
00000000
00000000
,
00000000
00000000
00000000
00000000
,
00000000
00000000
00000000
00000000
,
00000000
00000000
00000000
00000000
,
10000000
00010000
01000000
00100000
00010000
00001000
00020000
00000000
00100000
00000000
00000000
00000000
00031000
01000000
00010000
01000000
,
00001000
00010000
00000010
00001000
00000000
00000001
00001000
00000001
00000000
00000001
00000000
00000001
00002001
00000000
00000000
00000000
,
00003001
00000010
00000100
00000010
00001000
00010000
00002000
00000000
00000000
00000000
00000000
00013000
00000010
00001000
00000001
00001000
,
00000010
00000100
00001000
00010000
00001000
00000000
00011000
00000000
00010000
01000000
10000000
00000000
10010000
00000000
01100000
00000000
,
10000000
00010000
00100000
01000000
00010000
00001000
00020000
00000000
01000000
00000000
00000000
00000000
00031000
00100000
00010000
00100000
,
00002000
00003100
00020000
01030000
00002000
00003010
00020000
00130000
,
00001000
00010000
00000010
00000100
00001000
00000100
00000002
00000000
00001000
00000000
00000000
00000013
00000100
00001000
00000001
00000100
,
00002000
00000000
00003001
00000010
00002000
00000000
00003001
00000010
00002000
00000000
00013000
01000000
20000000
00000000
30010000
01000000
,
01200000
00000000
10000000
00000000
00310000
00000000
00100000
00000000
01000000
00000000
00001000
00010000
00000100
00000000
00010000
00000000
,
00001000
00000000
00010000
01000000
10000000
00000000
00010000
00000000
01000000
00000000
00001000
00000100
00000001
00000000
00001000
00000000
,
00000200
00000000
00000001
00000000
00001300
00000000
00000010
00000000
00010000
00000000
00001000
00010000
00000010
00000000
00010000
00000000
,
00002000
00003100
00020000
01030000
00002000
00003010
00020000
00130000
,
02100000
00000000
00010000
00000000
13000000
00000000
00010000
00000000
00100000
00000000
00001000
00010000
00000010
00000000
00010000
00000000
,
00001000
00000000
00010000
00100000
10000000
00000000
00010000
00000000
00100000
00000000
00001000
00000010
00000001
00000000
00001000
00000000
,
00000020
00000000
00000001
00000000
00001030
00000000
00000001
00000000
00000100
00000000
00000010
00010000
00001000
00000000
00010000
00000000
,
00002000
00003010
00020000
00130000
00002000
00003100
00020000
01030000
,
00200000
00000000
00000000
10300000
00000000
00000000
00200000
00000000
00000000
00310000
00000000
00000000
00001000
00010000
00000100
00000010
,
00000002
00001003
00000020
00000130
00002000
00013000
00200000
01300000
,
00020000
00000000
00000000
10030000
00000000
00000000
00020000
00000000
00000000
00130000
00000000
00000000
00001000
00100000
00010000
10000000
,
00100000
00000000
00010000
00000000
00001000
00000000
00100000
00000000
01000000
00000000
00010000
00000000
00001000
00010000
00001000
00000000
,
00000020
00000000
00000000
00001030
00000000
00000000
00000020
00000000
00000000
00000031
00000000
00000000
00001000
00000001
00000100
00000010
,
00020000
00031000
00000020
00000031
00002000
00003010
00000200
00001300
,
00020000
00000000
00000000
00130000
00000000
00000000
00020000
00000000
00000000
00031000
00000000
00000000
01000000
00010000
10000000
01000000
,
00020000
00000000
10030000
00100000
00020000
00000000
10030000
00100000
00020000
00000000
00031000
00000100
00000002
00000000
00001003
00000100
,
00020200
00000000
00000000
00030300
,
00000100
00000000
00010000
01000000
10000000
00000000
00010000
00000000
01000000
00000000
00001000
00000100
00000001
00001000
00000100
00000010
,
00000200
00000000
00000001
00000000
00001300
00000000
00000001
00000000
00000100
00000000
00000010
00010000
00001000
01000000
00010000
10000000
,
00020000
00000000
00130000
00000000
00002000
00000000
00003100
00000000
00020000
00000000
01030000
00000000
00001000
00010000
01000000
00100000
,
02000000
00000000
00010000
00000000
13000000
00000000
00010000
00000000
00100000
00000000
00001000
00010000
00000100
00000010
00000100
00010000
,
00001000
00000000
00010000
00100000
10000000
00000000
00010000
00000000
00100000
00000000
00001000
00000010
00000001
00001000
00000010
00000100
,
00000020
00000000
00000001
00000000
00001030
00000000
00000001
00000000
00000010
00000000
00000100
00010000
00001000
00100000
00010000
01000000
,
00002000
00000000
00003100
00000000
00020000
00000000
00130000
00000000
00002000
00000000
00003010
00000000
00001000
00010000
00100000
01000000
,
00100000
10000000
00010000
00000000
00100000
01000000
00000000
00010000
00001000
00010000
01000000
00100000
00001000
00010000
00000010
00001000
,
00000010
00000100
00001000
00000000
00010000
00100000
00000000
00010000
00001000
00000100
00000010
00001000
00000001
00001000
00000100
00000010
,
00001000
00010000
00000100
00000000
00000001
00000100
00000000
00000010
00000001
00001000
00000010
00000100
00001000
00010000
00100000
01000000
,
00010000
10000000
00010000
00000000
01000000
00000000
00100000
00000000
00010000
00100000
10000000
00010000
10000000
01000000
00010000
00000000
,
01000000
00100000
00001000
00010000
00100000
00010000
00002000
00000000
00000010
00000000
00100000
00000000
00013000
00000100
00001000
00000100
,
00010000
00001000
00010000
01000000
00000000
10000000
00010000
10000000
00000000
10000000
00000000
10000000
00010000
00010000
00100000
00100000
,
00001000
00010000
00000010
00000100
00001000
00000100
00000002
00000000
00001000
00000000
00000000
00000013
00000100
00001000
00000001
00001000
,
00000010
00000100
00001000
00010000
00100000
00000000
01100000
00000000
10000000
00010000
00200000
00000000
10000000
00000000
00310000
00000000
;

//---------------dance-single - ----------------
#NOTEDATA:;
#CHARTNAME:;
#STEPSTYPE:dance-single;
#DESCRIPTION:;
#CHARTSTYLE:;
#DIFFICULTY:Medium;
#METER:10;
#RADARVALUES:0.411576,0.422504,0.282454,0.320114,0.145935,306.000000,276.000000,30.000000,34.000000,0.000000,0.000000,0.000000,0.000000,0.000000,0.411576,0.422504,0.282454,0.320114,0.145935,306.000000,276.000000,30.000000,34.000000,0.000000,0.000000,0.000000,0.000000,0.000000;
#CREDIT:Kekkle;
#NOTES:
0000
0000
0000
0000
,
0000
0000
0000
0000
,
0000
0000
0000
0000
,
0000
0000
0000
0000
,
0000
0000
0000
0000
,
0001
0100
0010
2000
0001
0000
3100
0010
,
0001
1000
0001
1000
0000
0010
0000
0010
0000
0010
0000
0010
0200
0000
0000
0000
,
0301
1000
0100
0020
0000
0000
0031
1000
,
0010
0000
0100
0000
1001
0000
1001
0000
1000
0001
1000
0000
0001
0000
0001
0000
,
1000
0100
0010
0002
1000
0000
0103
0010
,
2000
0001
3002
0010
0023
0100
0230
1000
,
1300
0001
0100
0020
0001
0000
1030
0001
,
1001
0110
1001
0110
,
0002
1000
1003
0000
0100
0010
1001
0000
,
0001
0100
1000
0001
1000
0100
0001
0000
,
2000
0001
3001
0000
0010
0100
1001
0000
,
2000
0000
0001
0000
3002
0000
0100
0000
0203
0000
0010
0000
0310
0100
0010
0000
,
1002
1000
1003
0000
0100
0010
1001
0000
,
0001
0010
1000
0001
1000
0010
0001
0000
,
2000
0001
3001
0000
0010
0100
1001
0000
,
0002
1000
2003
0010
3020
0100
0230
0001
,
0301
0000
0000
0001
0000
0000
1000
0000
0000
1000
0000
0000
0100
0000
0010
0000
,
0011
1010
1100
0101
,
0001
0000
0000
0001
0000
0000
1000
0000
0000
1000
0000
0000
0010
0000
0100
0000
,
0001
0000
0001
0000
1000
0000
1000
0000
0100
0000
0010
0000
0001
1000
0001
0000
,
1000
0000
0000
0010
0000
0000
0100
0000
0000
0001
0000
0000
1000
0000
0001
0000
,
0011
1100
0101
1010
,
1000
0000
0000
0001
0000
0000
0010
0000
0000
0100
0000
0000
1000
0000
0001
0000
,
1001
0110
1001
0110
,
2002
0000
0000
3003
,
0001
0010
1000
0001
1000
0010
0001
1000
,
0020
0100
0130
0001
1000
0100
0110
0000
,
0020
0000
0001
0000
0032
0000
1000
0000
2003
0000
0010
0000
3010
0100
0010
0000
,
1002
1000
1003
0001
0010
0100
0110
0000
,
0001
0100
1000
0001
1000
0100
0001
1000
,
0200
0010
0310
0001
1000
0010
0110
0000
,
2000
0000
0001
0000
3002
0000
0010
0000
0023
0000
0100
0000
0130
1000
0100
0000
,
1000
0000
0001
0000
0000
0001
0000
0000
0001
0000
0100
0000
1000
0000
0100
0000
,
0001
0000
1000
0000
0000
1000
0000
0000
1000
0000
0100
0000
0010
0100
0010
0000
,
0001
0000
1000
0000
0000
1000
0000
0000
1000
0000
0010
0000
0001
0000
0010
0000
,
1000
0000
0000
0000
0001
0000
0001
0000
0010
0000
0100
0000
1000
0001
1000
0000
,
0001
0100
0010
2000
0001
0000
3100
0010
,
0001
1000
0001
1000
0000
0010
0000
0010
0000
0010
0000
0010
0100
0010
0100
0000
,
0001
1000
0100
0020
0001
0000
0130
1000
,
0001
0100
0110
0110
0010
2000
0001
3100
;

//---------------dance-double - ----------------
#NOTEDATA:;
#CHARTNAME:;
#STEPSTYPE:dance-double;
#DESCRIPTION:;
#CHARTSTYLE:;
#DIFFICULTY:Medium;
#METER:10;
#RADARVALUES:0.406196,0.401379,0.263624,0.188303,0.136519,302.000000,274.000000,28.000000,20.000000,0.000000,0.000000,0.000000,0.000000,0.000000,0.406196,0.401379,0.263624,0.188303,0.136519,302.000000,274.000000,28.000000,20.000000,0.000000,0.000000,0.000000,0.000000,0.000000;
#CREDIT:Kekkle;
#NOTES:
00000000
00000000
00000000
00000000
,
00000000
00000000
00000000
00000000
,
00000000
00000000
00000000
00000000
,
00000000
00000000
00000000
00000000
,
00000000
00000000
00000000
00000000
,
10000000
00100000
01000000
00002000
00010000
00000000
00103000
00001000
,
00010000
00000000
00000010
00000100
00000000
00000001
00000000
00000001
00000000
00000001
00000000
00000001
00002000
00000000
00000000
00000000
,
00003001
00000100
00000010
00020000
00000000
00000000
00030010
00010000
,
00001000
00000000
00100000
00000000
10010000
00000000
10010000
00000000
10000000
00010000
10000000
00000000
00010000
00000000
00010000
00000000
,
10000000
01000000
00100000
00002000
00010000
00000000
01003000
00010000
,
20000000
01000000
32000000
00010000
03020000
00001000
00032000
00000100
,
00003100
00000001
00001000
00000200
00000001
00000000
00001300
00000001
,
00001001
00010010
00101000
10010000
,
20000000
00010000
30010000
00000000
00100000
00001000
00011000
00000000
,
00010000
00100000
10000000
00010000
10000000
01000000
00010000
00000000
,
00000020
00000100
00000130
00000000
00000010
00010000
00011000
00000000
,
00001000
00000100
00001000
00010000
01000000
00010000
00001000
00000010
,
00000002
00001000
00001003
00000000
00000010
00010000
00011000
00000000
,
00001000
00000100
00000001
00001000
00000001
00000010
00001000
00000000
,
00200000
01000000
01300000
00000000
00100000
00001000
00011000
00000000
,
00010000
00100000
00010000
00001000
00000010
00001000
00010000
01000000
,
10000000
00000000
00000000
10000000
00000000
00000000
00010000
00000000
00000000
00010000
00000000
00000000
01000000
00000000
00010000
00000000
,
10010000
01001000
00010100
00001001
,
00000001
00000000
00000000
00000001
00000000
00000000
00001000
00000000
00000000
00001000
00000000
00000000
00000010
00000000
00000100
00000000
,
00001000
00000000
00001000
00000000
00010000
00000000
00010000
00000000
00100000
00000000
01000000
00000000
00010000
10000000
00010000
00000000
,
10000000
00000000
00000000
10000000
00000000
00000000
00010000
00000000
00000000
00010000
00000000
00000000
00100000
00000000
00010000
00000000
,
10010000
00101000
00010010
00001001
,
00000001
00000000
00000000
00000001
00000000
00000000
00001000
00000000
00000000
00001000
00000000
00000000
00000010
00000000
00001000
00000000
,
00001001
00010010
00101000
10010000
,
02200000
00000000
00000000
03300000
,
00010000
01000000
10000000
00010000
10000000
01000000
00010000
10000000
,
00020000
00100000
00130000
01000000
00010000
00001000
00011000
00000000
,
00010000
00000000
00100000
00000000
00010000
00000000
00001000
00000000
00000010
00000000
00001000
00000000
00010000
00001000
00010000
00000000
,
00000200
00001000
00001300
00000001
00000100
00000010
00000110
00000000
,
00000001
00000100
00001000
00000001
00001000
00000100
00000001
00001000
,
00000200
00000010
00000310
00001000
00010000
00001000
00011000
00000000
,
00010000
00000000
01000000
00000000
00010000
00000000
00001000
00000000
00000100
00000000
00001000
00000000
00010000
00001000
00010000
00000000
,
00001000
00000000
01000000
00000000
00000000
01000000
00000000
00000000
00100000
00000000
10000000
00000000
00010000
00000000
00100000
00000000
,
01000000
00000000
00010000
00000000
00000000
00010000
00000000
00000000
00001000
00000000
00000010
00000000
00000001
00001000
00000001
00000000
,
00001000
00000000
00000010
00000000
00000000
00000010
00000000
00000000
00000100
00000000
00001000
00000000
00010000
00000000
00100000
00000000
,
01000000
00000000
00000000
00000000
00010000
00000000
00010000
00000000
10000000
00000000
01000000
00000000
00100000
01000000
00100000
00000000
,
00010000
10000000
00100000
02000000
00001000
00000000
03010000
10000000
,
01000000
00100000
01000000
00100000
00000000
00001000
00000000
00001000
00000000
00001000
00000000
00001000
00010000
00001000
00010000
00000000
,
00000100
00000010
00000001
00002000
00000010
00000000
00003001
00000010
,
00000100
00001000
00001001
00001001
00000001
00000100
00001000
00010000
;

//---------------dance-single - ----------------
#NOTEDATA:;
#CHARTNAME:;
#STEPSTYPE:dance-single;
#DESCRIPTION:;
#CHARTSTYLE:;
#DIFFICULTY:Easy;
#METER:7;
#RADARVALUES:0.295904,0.316878,0.225963,0.141227,0.000000,220.000000,196.000000,24.000000,15.000000,0.000000,0.000000,0.000000,0.000000,0.000000,0.295904,0.316878,0.225963,0.141227,0.000000,220.000000,196.000000,24.000000,15.000000,0.000000,0.000000,0.000000,0.000000,0.000000;
#CREDIT:Kekkle;
#NOTES:
0000
0000
0000
0000
,
0000
0000
0000
0000
,
0000
0000
0000
0000
,
0000
0000
0000
0000
,
0000
0000
0000
0000
,
0001
0000
1000
0001
0010
0000
0100
0000
,
1000
0001
0000
1000
0000
1000
1001
0000
,
0001
0000
1000
0001
0000
0000
1000
0000
,
0100
0000
0010
0001
1000
0000
0001
0001
,
1000
0000
0010
1000
0001
0000
1000
0000
,
1001
0110
1001
0110
,
0001
0000
0100
0010
0001
0000
0010
0000
,
1001
0110
1001
0110
,
0002
0000
1003
0000
0001
1000
0001
0000
,
0200
0000
1300
0000
0100
0010
0001
0000
,
0020
0000
0130
0000
0001
1000
0001
0000
,
1000
0000
0100
0000
0001
0010
1000
0000
,
1002
0000
1003
0000
0100
0010
0100
0000
,
0020
0000
1030
0000
0010
0100
0001
0000
,
0200
0000
1300
0000
0001
1000
0001
0000
,
1000
0000
0010
0000
0001
0100
1000
0000
,
0002
1003
0001
0001
,
0110
0110
1001
1001
,
2000
3001
1000
1000
,
0001
0000
0100
0000
1000
0010
0001
0000
,
2000
3001
0010
0010
,
1001
1001
0110
0110
,
0002
1003
0010
0010
,
1001
0110
1001
0110
,
2002
0000
0000
3003
,
0001
0100
1000
0000
0100
0010
0001
0000
,
0020
0000
1030
0000
0001
1000
0001
0000
,
1000
0000
0100
0000
0001
0010
1000
0000
,
2001
0000
3001
0000
1000
0001
1000
0000
,
0001
0010
1000
0000
0010
0100
0001
0000
,
0200
0000
0310
0000
0001
1000
0001
0000
,
1000
0000
0010
0000
0001
0100
1000
0000
,
0001
0000
0001
1000
0000
1000
0100
0100
,
0010
0000
0010
0001
0000
0001
1000
1000
,
0010
0000
0100
0001
0000
0001
1000
1000
,
0100
0000
0100
0010
0001
0000
1000
1000
,
0001
0000
0100
0001
1000
0000
0001
0000
,
0010
0100
0000
0100
0000
0100
0010
0010
,
0001
0000
1000
0001
0100
0000
0010
0000
,
1000
0000
0001
0001
1000
0100
0010
0010
;

//---------------dance-double - ----------------
#NOTEDATA:;
#CHARTNAME:;
#STEPSTYPE:dance-double;
#DESCRIPTION:;
#CHARTSTYLE:;
#DIFFICULTY:Easy;
#METER:8;
#RADARVALUES:0.309354,0.316878,0.225963,0.028245,0.000000,230.000000,206.000000,24.000000,3.000000,0.000000,0.000000,0.000000,0.000000,0.000000,0.309354,0.316878,0.225963,0.028245,0.000000,230.000000,206.000000,24.000000,3.000000,0.000000,0.000000,0.000000,0.000000,0.000000;
#CREDIT:Kekkle;
#NOTES:
00000000
00000000
00000000
00000000
,
00000000
00000000
00000000
00000000
,
00000000
00000000
00000000
00000000
,
00000000
00000000
00000000
00000000
,
00000000
00000000
00000000
00000000
,
00000001
00000000
00001000
00000001
00000100
00000000
00000010
00000000
,
00010000
00001000
00000000
00001000
00000000
00001000
00011000
00000000
,
00010000
00000000
00001000
00100000
00000000
00000000
00001000
00000000
,
01000000
00010000
10000000
00000000
00010000
00000000
00100000
00100000
,
01000000
00000000
10000000
00010000
01000000
00000000
00001000
00000000
,
00011000
00011000
00011000
00011000
,
00010000
00000000
00000100
00000010
00000001
00000000
00001000
00000000
,
00001001
00001001
00001001
00001001
,
00000001
00000000
00000100
00000000
00001000
00010000
00001000
00000000
,
01000000
00000000
10000000
00000000
01000000
00100000
00010000
00000000
,
00100000
00000000
10000000
00000000
00010000
10000000
00010000
00000000
,
00100000
00100000
00001000
00001000
00010000
00000000
00001000
00000000
,
00011000
00000000
00010000
00000000
00000010
00000100
00000010
00000000
,
00000100
00000000
00001000
00000000
00000100
00000010
00000001
00000000
,
00000010
00000000
00010000
00000000
00001000
00010000
00001000
00000000
,
00100000
00100000
00010000
00010000
10000000
00000000
00010000
00000000
,
00200000
00000000
01300000
00000000
10000000
00010000
10000000
00000000
,
10010000
10010000
01100000
01100000
,
10000000
00000000
00010000
00000000
00100000
00001000
00100000
00000000
,
00001000
00000000
00001000
00000000
00010000
00001000
00010000
00000000
,
00000010
00000000
00000010
00000000
00001000
00000001
00001000
00000000
,
00001001
00001001
00000110
00000110
,
00000001
00000000
00001000
00000000
00000100
00010000
00000100
00000000
,
00011000
00011000
00011000
00011000
,
00022000
00000000
00000000
00033000
,
00001000
00010000
00100000
00000000
01000000
00100000
00010000
00000000
,
00100000
00000000
10000000
00000000
00010000
10000000
01000000
00000000
,
00100000
00100000
00001000
00001000
00010000
00010000
00001000
00000000
,
00011000
00000000
00010000
00000000
00000010
00001000
00000001
00000000
,
00000010
00001000
00010000
00000000
00000010
00000100
00000001
00000000
,
00001000
00000000
00000010
00000000
00010000
00001000
00100000
00000000
,
00010000
00010000
10000000
10000000
00100000
00100000
01000000
00000000
,
00010000
00000000
00010000
10000000
00000000
10000000
01000000
01000000
,
00100000
00000000
00100000
00001000
00010000
00010000
00001000
00000000
,
00010000
00000000
00000010
00001000
00000000
00001000
00000001
00000001
,
00000010
00000000
00000100
00010000
00001000
00010000
00001000
00000000
,
00010000
00000000
00100000
10000000
00010000
00000000
10000000
00000000
,
01000000
00010000
00000000
00010000
00000000
00010000
00001000
00001000
,
00010000
00000000
00000010
00001000
00000001
00000000
00001000
00000000
,
00000100
00000000
00000010
00001000
00010000
00010000
00001000
00001000
;

//---------------dance-single - ----------------
#NOTEDATA:;
#CHARTNAME:;
#STEPSTYPE:dance-single;
#DESCRIPTION:;
#CHARTSTYLE:;
#DIFFICULTY:Beginner;
#METER:3;
#RADARVALUES:0.184268,0.189597,0.037661,0.018830,0.000000,137.000000,133.000000,4.000000,2.000000,0.000000,0.000000,0.000000,0.000000,0.000000,0.184268,0.189597,0.037661,0.018830,0.000000,137.000000,133.000000,4.000000,2.000000,0.000000,0.000000,0.000000,0.000000,0.000000;
#CREDIT:Kekkle;
#NOTES:
0000
0000
0000
0000
,
0000
0000
0000
0000
,
0000
0000
0000
0000
,
0000
0000
0000
0000
,
0000
0000
0000
0000
,
0001
0000
1000
0100
,
0010
0000
0001
1001
,
1000
0000
0001
0100
,
0010
1000
0001
0001
,
1000
0000
0100
0010
,
0001
0001
0001
0001
,
0001
0000
1000
0010
,
0100
0100
0100
0100
,
1001
0000
0001
1000
,
0001
0100
1000
0010
,
0001
0000
1000
0001
,
1000
0100
0001
0010
,
1000
0000
0001
1000
,
0001
0100
1000
0010
,
0001
0000
1000
0001
,
1000
0100
0001
0010
,
1000
0000
0001
1000
,
0010
0010
0010
0010
,
0100
0000
0001
1000
,
0001
0100
1000
0010
,
0001
0000
1000
0001
,
1000
1000
1000
1000
,
0100
0000
0010
0001
,
1000
1000
1000
1000
,
2002
0000
0000
3003
,
1000
0100
0001
0010
,
1000
0000
0001
1000
,
0001
0100
1000
0010
,
0001
0000
1000
0001
,
1000
0010
0001
0100
,
1000
0000
0001
1000
,
0001
0010
1000
0100
,
0001
0000
0000
1000
0000
0000
0010
0000
,
0100
0000
0000
0001
0000
0000
1000
0000
,
0100
0000
0000
0010
0000
0000
0001
0000
,
1000
0000
0010
0010
,
0100
0000
0001
1000
,
0100
0000
0010
0110
,
0100
0000
1000
0001
,
0100
0000
0010
0010
;
