#VERSION:0.83;
#TITLE:Raganu Nakts;
#SUBTITLE:;
#ARTIST:Tautumeitas;
#TITLETRANSLIT:;
#SUBTITLETRANSLIT:;
#ARTISTTRANSLIT:;
#GENRE:;
#ORIGIN:;
#CREDIT:;
#BANNER:Raganu Nakts.png;
#BACKGROUND:Raganu Nakts-bg.png;
#PREVIEWVID:;
#JACKET:Raganu Nakts-jacket.png;
#CDIMAGE:;
#DISCIMAGE:;
#LYRICSPATH:;
#CDTITLE:;
#MUSIC:Raganu Nakts.ogg;
#OFFSET:1.767000;
#SAMPLESTART:95.845001;
#SAMPLELENGTH:12.000000;
#SELECTABLE:YES;
#BPMS:0.000=134.000;
#STOPS:68.000=0.896,
70.000=0.896,
72.000=0.896;
#DELAYS:;
#WARPS:;
#TIMESIGNATURES:0.000=4=4;
#TICKCOUNTS:0.000=4;
#COMBOS:0.000=1;
#SPEEDS:0.000=1.000=0.000=0;
#SCROLLS:0.000=1.000;
#FAKES:;
#LABELS:0.000=Song Start;
#BGCHANGES:;
#KEYSOUNDS:;
#ATTACKS:
;

//---------------dance-single - ----------------
#NOTEDATA:;
#CHARTNAME:;
#STEPSTYPE:dance-single;
#DESCRIPTION:;
#CHARTSTYLE:;
#DIFFICULTY:Beginner;
#METER:4;
#RADARVALUES:0.116197,0.214135,0.141096,0.024899,0.000000,98.000000,81.000000,17.000000,3.000000,0.000000,0.000000,0.000000,0.000000,0.000000,0.116197,0.214135,0.141096,0.024899,0.000000,98.000000,81.000000,17.000000,3.000000,0.000000,0.000000,0.000000,0.000000,0.000000;
#CREDIT:;
#NOTES:
0000
0000
0000
0000
,
0000
0000
0000
0000
,
0000
0000
0000
0000
,
0000
0000
0000
0000
,
0000
0000
0000
0000
,
1000
0000
0000
0000
,
1000
0000
0000
0000
,
0001
0000
0000
0000
,
1001
0000
1001
0000
,
0000
0000
0000
0000
,
0000
0000
0000
0000
,
0100
0000
0000
0000
,
0100
0000
0000
0000
,
0100
0000
0000
0000
,
0100
0000
0000
0000
,
0010
0000
0000
0000
,
0010
0000
0000
0000
,
0110
0000
0110
0000
,
0110
0000
0100
0000
,
0100
0000
0010
0000
,
0010
0000
1000
0000
,
1000
0000
0001
0000
,
0001
0000
2000
0000
,
0000
0000
0000
0000
,
0000
0000
3002
0000
,
0000
0000
0000
0000
,
0000
0000
0203
0000
,
0000
0000
0000
0300
,
0010
0000
0000
0000
,
0010
0000
0000
0000
,
1000
0000
0000
0000
,
1000
0000
0000
0000
,
0100
0000
0000
0000
,
0100
0000
0010
0000
,
0000
0000
0010
0000
,
0000
0000
0001
0000
,
0000
0000
0001
0000
,
0000
0000
0100
0000
,
0000
0000
0100
0000
,
1001
0000
0000
0000
,
0100
0000
0100
0000
,
0001
0000
0000
0000
,
0010
0000
0010
0000
,
1000
0000
0000
0000
,
0010
0000
0000
0000
,
1001
0000
0000
0000
,
1001
0000
0000
0000
,
1001
0000
0000
0000
,
1001
0000
0000
0000
,
0110
0000
0000
0000
,
0110
0000
0000
0000
,
0110
0000
0000
0000
,
0110
0000
0000
0000
,
1000
0000
1000
0000
,
1000
1000
1000
0000
,
0001
0000
0001
0000
,
0001
0001
0001
0000
,
0010
0000
0010
0000
,
0010
0010
0100
0000
,
0100
0000
0100
0100
,
0100
0000
0001
0000
,
0001
0000
0001
0001
,
0001
0000
1001
0000
,
0000
0000
1001
0000
,
0010
0000
0110
0000
;

//---------------dance-single - ----------------
#NOTEDATA:;
#CHARTNAME:;
#STEPSTYPE:dance-single;
#DESCRIPTION:;
#CHARTSTYLE:;
#DIFFICULTY:Easy;
#METER:9;
#RADARVALUES:0.285750,0.374735,0.066398,0.539486,0.000000,241.000000,233.000000,8.000000,65.000000,0.000000,0.000000,0.000000,0.000000,0.000000,0.285750,0.374735,0.066398,0.539486,0.000000,241.000000,233.000000,8.000000,65.000000,0.000000,0.000000,0.000000,0.000000,0.000000;
#CREDIT:;
#NOTES:
0000
0000
0000
0000
,
0000
0000
0000
0000
,
0000
0000
0000
0000
,
0000
0000
0000
0000
,
0000
0000
0000
0000
,
1000
0000
0000
0000
,
1000
0000
0000
0000
,
0001
0000
0000
0000
,
0001
0000
0001
0000
,
0110
0000
0000
0000
0000
0000
0000
0100
,
0110
0000
0000
0000
0000
0000
0000
0100
,
0110
0001
0100
0010
,
1000
0010
0100
0001
,
0010
0001
1000
0010
,
0100
0001
1000
0100
,
0010
0001
1000
0100
,
1000
0010
0100
0001
,
1001
0000
1001
0000
,
1001
0000
0100
0100
,
0100
0100
1000
1000
,
1000
1000
0010
0010
,
0010
0010
0100
0100
,
0100
0100
0002
0000
,
0000
0000
0023
0032
,
0203
0320
2030
0000
,
0000
0000
3200
2300
,
3020
0230
0302
0000
,
0000
0000
0023
0032
,
1003
1000
2000
0000
,
3020
2030
3200
0320
,
0031
0001
0002
0000
,
0023
0032
0203
0320
,
1030
1000
2000
0000
,
3200
0000
0320
0000
0031
0000
0100
0010
,
0100
0000
0001
1000
0020
0000
2030
0000
,
3200
0000
2300
3000
1000
0000
0010
0100
,
0010
0000
1000
0001
0020
0000
0032
0000
,
0203
0000
0302
0003
0001
0000
0010
0100
,
0010
0000
0001
1000
0020
0000
0230
0000
,
0302
0000
0000
0000
,
0203
0302
2003
3200
,
1300
0001
1000
0000
0010
0100
0010
0000
,
2000
3200
0320
0032
,
0103
0010
0100
0000
0001
1000
0001
0000
,
0020
0130
0000
0000
,
1000
0100
0010
0001
,
1000
0100
0010
0001
,
0001
0010
0100
1000
,
0001
0010
0100
1000
,
0100
1000
0001
0100
,
0001
1000
0010
0100
,
0001
0000
0010
0000
0100
1000
0001
0000
,
1000
0000
0010
0000
0100
0001
0010
0000
,
0100
0000
1000
0010
1000
0000
0001
0010
,
0002
0203
0320
2030
,
3010
0000
1000
0100
1000
0000
0001
0100
,
0002
0023
0230
2300
,
3001
0010
0100
1000
0010
0000
0010
0100
,
0002
0000
2003
0000
3010
1000
0100
0010
,
0001
0000
0001
1000
0020
0000
2030
0000
,
3002
0000
0023
0000
0130
1000
0010
0100
,
0001
0010
0100
1000
0020
0000
2030
0000
,
3002
0000
0023
0000
0130
0010
0001
0100
,
0010
1000
0100
0010
0002
0000
1003
0000
,
1001
0000
1001
0000
;

//---------------dance-single - ----------------
#NOTEDATA:;
#CHARTNAME:;
#STEPSTYPE:dance-single;
#DESCRIPTION:;
#CHARTSTYLE:;
#DIFFICULTY:Medium;
#METER:14;
#RADARVALUES:0.566757,0.776238,0.107897,0.564386,0.431589,478.000000,465.000000,13.000000,68.000000,0.000000,0.000000,0.000000,0.000000,0.000000,0.566757,0.776238,0.107897,0.564386,0.431589,478.000000,465.000000,13.000000,68.000000,0.000000,0.000000,0.000000,0.000000,0.000000;
#CREDIT:;
#NOTES:
0000
0000
0000
0000
,
0000
0000
0000
0000
,
0000
0000
0000
0000
,
0000
0000
0000
0000
,
0000
0000
0000
0000
,
1000
0000
0000
1000
0000
0000
1000
0000
0000
0000
0001
0000
0001
0000
0000
0000
,
1000
0000
0000
1000
0000
0000
1000
0000
0000
0001
0000
0001
0100
0000
0000
0000
,
0001
0000
0000
0001
0000
0000
0001
0000
0000
0000
0010
0000
0010
0000
0000
0000
,
0010
0001
0010
0100
1000
0010
0110
0000
0000
0000
0000
0000
,
1000
0000
0000
1000
0000
0000
1000
0000
0000
1000
0001
0000
0100
0000
0100
0000
,
0001
0000
0000
0001
0000
0000
0001
0000
0000
0001
1000
0000
0100
0000
0010
0000
,
0001
0000
0001
1000
0010
0000
0001
0000
0010
0000
1000
0000
0100
0000
0000
0000
,
1000
0000
1000
0001
0010
0000
1000
0000
0010
0001
0100
0000
0010
0000
0000
0000
,
0100
0000
0001
0010
0001
0000
0100
0000
0010
1000
0100
0001
0100
0000
0000
0000
,
0010
0000
0001
1000
0000
1000
0001
0000
0100
0010
0100
0000
1001
0000
0000
0000
,
0001
0000
0100
0000
0010
0000
1000
0000
0100
0010
0100
0000
0100
0000
0000
0000
,
1000
0000
0001
0100
0010
0000
0001
0000
0010
1000
0100
0000
0010
0000
0010
0001
,
1000
1001
0110
0000
0110
0110
1001
0000
,
1001
0000
1001
0000
0110
0000
0000
0000
1000
0010
1000
0000
0001
0010
0001
0000
,
0100
0001
0100
0000
0001
0000
0000
0000
1000
0000
0100
1000
0100
0010
0001
0000
,
0100
1000
0100
0000
0010
0000
0000
0000
1000
0000
0100
0010
0001
0000
0100
0010
,
1000
0100
1000
0100
1000
0000
0000
0000
0010
0100
0010
0100
0001
0010
0001
0010
,
0100
1000
0100
1000
0010
0000
0000
0000
2002
0000
0000
0000
0000
0000
0000
0000
,
0000
3003
2000
3200
,
2300
3020
0130
0010
,
0100
0001
0010
0000
0002
0000
0203
0000
,
0302
0000
0023
0000
0130
1000
0010
0100
,
0001
0000
0010
0000
1000
0000
0010
0000
0002
0000
0000
0000
0103
0010
0000
0000
,
0200
0000
0300
0100
0001
0000
0000
0000
0010
0000
0001
0000
0100
0000
0000
0000
,
0020
0000
0000
0000
1030
0200
0000
0000
0320
0000
0000
0000
0031
0200
0000
0000
,
0310
0010
1000
0000
0100
1000
0010
0000
,
0200
0000
0000
0000
0301
0020
0000
0000
0230
0000
0000
0000
1300
0020
0000
0000
,
0130
0100
0001
0001
1000
1000
0100
0100
,
0020
0000
0000
0000
0031
0100
0000
0000
0020
0000
0000
0130
0010
0000
1000
0000
,
0100
0000
0100
0000
0010
0000
0001
0000
0200
0000
0000
0000
0301
2000
0000
0000
,
3200
0000
0000
0000
1300
0002
0000
0000
0103
0000
0001
0000
0010
0000
1000
0000
,
0001
0000
0100
0000
1000
0000
0001
0000
0020
0000
0000
0000
0031
2000
0000
0000
,
3020
0000
0000
0000
1030
0002
0000
0000
0103
0000
1000
0000
0001
0000
0010
0000
,
1000
0000
0100
0000
0001
0000
0100
0000
2000
0000
0000
0000
3001
0100
0000
0000
,
2020
0000
0000
3030
,
2000
3100
0002
0103
,
0001
1000
0100
0010
0001
0100
0010
1000
,
0200
0000
0000
0000
1300
0020
0000
0000
0230
0000
0000
0000
0301
0020
0000
0000
,
1030
0010
0001
0100
1000
0100
0001
1000
,
0010
0000
0000
0000
0000
0000
0000
0000
0000
0000
0000
0000
1000
0000
0000
0200
0000
0000
0000
0000
0000
0000
0000
0000
0310
0000
0000
0000
0010
0000
0000
0000
0010
0000
0000
0000
0000
0000
0000
0000
0100
0000
0000
0000
0100
0000
0000
0000
,
1000
0000
0010
0000
0100
0000
0001
0000
0010
0100
0010
0000
0001
0000
0100
0000
,
0001
0000
0010
0100
0010
0000
0001
0000
0100
0010
0100
0000
0001
0000
1000
0000
,
0001
0000
0001
0100
0010
0000
1000
0000
0100
0010
0100
0010
0001
0000
0100
0010
,
1000
0000
0100
0010
0100
0000
1000
0000
0010
0100
0010
0100
0001
0000
0001
1000
,
0100
0000
1000
0001
0100
0000
0100
0000
0001
1000
0010
0100
0010
0000
1000
0100
,
0010
0000
0010
0001
0100
0000
0100
0000
0100
0001
0010
0100
1000
0000
0010
0100
,
0001
0010
0001
0000
1000
0010
1000
0000
0001
0100
0001
0000
1000
0100
1000
0000
,
0010
1000
0010
1000
0100
0010
0100
0010
0001
0100
0001
0100
0010
1000
0100
0010
,
0002
0000
0000
0013
0100
0000
1000
0000
0001
0000
0100
0000
1000
0000
0100
0000
,
0020
2030
3200
0000
0320
0032
0203
0000
,
0301
0001
1000
1000
0100
0100
0010
0010
,
0200
2300
3020
0000
0230
0302
0023
0000
,
0130
0001
1000
0010
0001
0100
1000
0100
,
0002
0000
0000
0000
1003
0000
0000
0000
0200
0000
0000
0310
0100
0000
1000
0000
,
0010
0000
0100
0000
0001
0000
1000
0000
0200
0000
0302
0000
0103
1000
0020
0000
,
0230
0000
2300
0000
3100
0001
0020
0000
0130
0000
0100
0000
1000
0000
1000
0000
,
0001
0000
0001
0000
0100
0000
0010
0000
0200
0000
2300
0000
3100
0001
0020
0000
,
0230
0000
0302
0000
0103
1000
0020
0000
0130
0000
1000
0000
0001
0000
0010
0000
,
1000
0000
0100
0000
0001
0000
0100
0000
2000
0000
0000
0000
3001
0100
0000
0000
,
0010
0010
0010
0000
1000
1000
1100
0000
0000
0000
0000
0000
;

//---------------dance-single - ----------------
#NOTEDATA:;
#CHARTNAME:;
#STEPSTYPE:dance-single;
#DESCRIPTION:;
#CHARTSTYLE:;
#DIFFICULTY:Hard;
#METER:16;
#RADARVALUES:0.660426,0.963606,0.174296,0.589285,0.688882,557.000000,536.000000,21.000000,71.000000,0.000000,0.000000,0.000000,0.000000,0.000000,0.660426,0.963606,0.174296,0.589285,0.688882,557.000000,536.000000,21.000000,71.000000,0.000000,0.000000,0.000000,0.000000,0.000000;
#CREDIT:;
#NOTES:
// measure 0
0000
0000
0000
0000
,  // measure 1
0000
0000
0000
0000
,  // measure 2
0000
0000
0000
0000
,  // measure 3
0000
0000
0000
0000
,  // measure 4
0000
0000
0000
0000
,  // measure 5
0001
0000
0000
0001
0000
0000
0001
0000
0000
0000
0100
0000
0100
0000
0010
0000
,  // measure 6
1000
0000
0000
1000
0000
0000
1000
0000
0000
0100
0000
0100
0010
0000
0001
0100
,  // measure 7
0001
0000
0000
0001
0000
0000
0001
0000
0000
0000
0010
0000
0010
0000
0100
0000
,  // measure 8
1000
0010
0001
1000
0100
0001
1001
0000
0000
0000
0000
0000
,  // measure 9
1000
0000
0000
0000
0000
0000
0000
0000
0000
1000
0000
0000
0000
0000
0000
0000
0000
0000
1000
0000
0000
0000
0000
0000
0000
0000
0000
1000
0000
0000
0100
0000
0000
0000
0000
0000
0100
0000
0000
0000
0000
0000
1000
0000
0010
0000
0100
0000
,  // measure 10
0001
0000
0000
0000
0000
0000
0000
0000
0000
0001
0000
0000
0000
0000
0000
0000
0000
0000
0001
0000
0000
0000
0000
0000
0000
0000
0000
0001
0000
0000
0100
0000
0000
0000
0000
0000
0100
0000
0000
0000
0000
0000
0001
0000
0010
0000
0100
0000
,  // measure 11
1000
0000
1000
0001
0100
0000
0100
0000
0100
0001
0010
1000
0001
0000
1000
0010
,  // measure 12
0001
0000
0000
0000
0000
0000
0100
0000
0000
0010
0000
0000
1000
0000
0000
0100
0000
0000
0001
0000
0000
0000
0000
0000
0100
0000
0000
0010
0000
0000
0001
0000
0000
0100
0000
0000
0010
0000
0000
0000
0000
0000
0100
0000
0001
0000
0010
0000
,  // measure 13
0100
0000
1000
0010
1000
0000
0100
0000
0010
0001
0100
1000
0001
0000
1000
0100
,  // measure 14
0001
0000
1000
0001
0000
0001
1000
0000
0100
1000
0001
0100
1000
0000
0100
0001
,  // measure 15
0010
0000
0100
1000
0000
1000
0100
0000
0010
0001
0100
1000
0001
0000
1000
0100
,  // measure 16
0001
0000
0000
0000
0000
0000
0010
0000
0000
0001
0000
0000
0000
0000
0000
0001
0000
0000
0100
0000
0000
0010
0000
0000
0100
0000
0000
1000
0000
0000
0001
0000
0010
0000
1000
0000
0100
0000
0000
0010
0000
0000
0001
0000
0000
1000
0000
0000
,  // measure 17
0010
0110
1001
1001
0110
1001
0110
0110
,  // measure 18
1001
0000
0000
0000
0000
0000
0110
0000
0000
0000
0000
0000
1001
0000
0000
0000
0000
0000
1000
0000
0100
0000
0010
0000
0001
0000
0000
0100
0000
0000
0001
0000
0000
0100
0000
0000
0010
0000
0000
1000
0000
0000
0010
0000
0000
1000
0000
0000
,  // measure 19
0100
0000
0000
1000
0000
0000
0100
0000
0000
1000
0000
0000
0001
0000
0000
0000
0000
0000
0001
0000
0010
0000
0100
0000
1000
0000
0000
0000
0000
0000
1000
0000
0000
0100
0000
0000
1000
0000
0000
0010
0000
0000
1000
0000
0000
0100
0000
0000
,  // measure 20
1000
0000
0100
0000
0001
0000
0100
0000
0000
1000
0000
0000
0010
0000
0000
0000
0000
0000
1000
0000
0010
0000
0100
0000
0001
0000
0000
0000
0000
0000
0010
0000
0000
0100
0000
0000
1000
0000
0000
0010
0000
0000
1000
0000
0000
0100
0000
0000
,  // measure 21
0010
0000
0000
1000
0000
0000
0010
0000
0000
0001
0000
0000
0100
0000
0000
0000
0000
0000
0001
0000
0100
0000
0010
0000
1000
0000
0000
0100
0000
0000
1000
0000
0000
0100
0000
0000
0010
0000
0000
0001
0000
0000
0010
0000
0000
0001
0000
0000
,  // measure 22
0100
0010
0100
0000
0110
0000
0000
0000
2002
0000
0000
0000
0000
0000
0000
0000
,  // measure 23
0000
0000
0000
0000
3003
0000
0000
0000
2000
0000
0000
0000
3001
0020
0000
0000
,  // measure 24
0032
0000
0000
0000
1003
0020
0000
0000
0130
0000
0001
0000
0010
0000
0000
0000
,  // measure 25
0100
0000
1000
0000
0010
0000
0000
0000
2000
0000
0000
0000
3001
0020
0000
0000
,  // measure 26
0032
0000
0000
0000
1003
0020
0000
0000
0130
0000
0010
0000
1000
0000
0000
0000
,  // measure 27
0100
0000
0010
0000
0001
0000
0000
0000
0200
0000
0000
0000
0301
1000
0000
0000
,  // measure 28
1001
0000
0000
0001
0010
0000
0100
0000
1000
0000
0001
0000
0010
0000
0000
0000
,  // measure 29
0200
0000
0000
0000
1300
0002
0000
0000
0203
0000
0000
0000
0301
2000
0000
0000
,  // measure 30
3001
0010
1000
0010
0001
0100
0010
0000
,  // measure 31
0200
0000
0000
0000
0301
2000
0000
0000
3200
0000
0000
0000
1300
0002
0000
0000
,  // measure 32
0103
0100
0010
0010
0001
0001
0010
0010
,  // measure 33
0200
0000
0000
0000
0301
1000
0000
0000
0200
0000
0000
0310
0100
0000
1000
0000
,  // measure 34
0100
0000
0100
0000
0010
0000
0001
0000
0200
0000
0000
0000
0301
2000
0000
0000
,  // measure 35
3200
0000
0000
0000
1300
0002
0000
0000
0103
0000
0001
0000
0010
0000
1000
0000
,  // measure 36
0001
0000
0100
0000
1000
0000
0001
0000
0020
0000
0000
0000
0031
2000
0000
0000
,  // measure 37
3020
0000
0000
0000
1030
0002
0000
0000
0103
0000
0001
0000
1000
0000
0100
0000
,  // measure 38
0001
0000
0100
0000
1000
0000
0010
0000
0200
0000
0000
0000
0301
1000
0000
0000
,  // measure 39
2002
0000
0000
3003
,  // measure 40
0200
0000
0000
0000
0301
2000
0000
0000
3200
0000
0000
0000
1300
0002
0000
0000
,  // measure 41
0013
0100
0001
0100
1000
0010
0001
0010
,  // measure 42
0200
0000
0000
0000
0301
2000
0000
0000
3200
0000
0000
0000
1300
0002
0000
0000
,  // measure 43
0103
1000
0001
0010
1000
0100
0001
0100
,  // measure 44
0020
0000
0000
0000
0000
0000
0000
0000
0000
0000
0000
0000
0031
0000
0000
2000
0000
0000
0000
0000
0000
0000
0000
0000
3010
0000
0000
0000
0010
0000
0000
0000
0010
0000
0000
0000
0000
0000
0000
0000
0100
0000
0000
0000
0100
0000
0000
0000
,  // measure 45
0101
0000
0001
1000
0100
0000
1100
0000
1000
0100
0001
0100
1000
0000
0010
0100
,  // measure 46
0001
0000
0000
0000
0000
0000
1000
0000
0000
0010
0000
0000
0000
0000
0000
0000
0000
0000
1010
0000
0000
0000
0000
0000
1000
0000
0000
0001
0000
0000
0010
0000
0000
0100
0000
0000
0001
0000
0000
0000
0000
0000
0100
0000
0010
0000
0001
0000
,  // measure 47
0100
0000
0001
0010
0000
0000
1010
0000
0001
0010
0100
0010
0001
0000
0100
0010
,  // measure 48
0100
0000
0001
0010
0000
0001
0100
0000
0010
1000
0100
1000
0100
0000
0001
0000
,  // measure 49
0100
0000
1000
0001
0000
0000
0100
0000
0010
0100
0001
1000
0010
0000
0100
1000
,  // measure 50
0100
0000
0000
0000
0000
0000
0010
0000
0000
1000
0000
0000
0000
0000
0000
0000
0000
0000
1100
0000
0000
0000
0000
0000
0100
0000
0000
1000
0000
0000
0010
0000
0000
0001
0000
0000
0010
0000
0000
0000
0000
0000
0100
0000
0001
0000
0010
0000
,  // measure 51
0100
1000
0100
1000
0010
1000
0010
1000
0001
0010
0001
0010
0100
0010
0100
0010
,  // measure 52
0100
0000
1000
0000
0001
0000
0100
0000
0000
0010
0000
0000
0100
0000
0001
0000
1000
0000
0100
0000
0000
0010
0000
0000
0100
0000
1000
0000
0001
0000
0100
0000
0000
0010
0000
0000
0100
0000
0000
0000
0000
0000
0100
0000
0000
0001
0000
0000
,  // measure 53
0020
0000
0000
0130
0010
0000
0001
0000
0100
0000
0010
0000
1000
0000
0001
0000
,  // measure 54
0020
0000
0230
0000
1300
0002
0000
0000
0203
0000
0320
0000
1030
0002
0000
0000
,  // measure 55
0013
0010
0100
0100
1000
1000
0001
0010
,  // measure 56
0200
0000
0320
0000
0031
2000
0000
0000
3020
0000
0230
0000
0301
2000
0000
0000
,  // measure 57
3100
0001
1000
0010
0001
0100
1000
0100
,  // measure 58
0002
0000
0023
0000
0031
1000
0000
0000
0200
0000
0000
0310
0100
0000
1000
0000
,  // measure 59
0010
0000
0100
0000
0001
0000
1000
0000
0200
0000
0302
0000
0103
1000
0020
0000
,  // measure 60
0230
0000
2300
0000
3100
0001
0020
0000
0130
0000
0100
0000
1000
0000
1000
0000
,  // measure 61
0001
0000
0001
0000
0100
0000
0010
0000
0200
0000
2300
0000
3100
0001
0020
0000
,  // measure 62
0230
0000
0302
0000
0103
1000
0020
0000
0130
0000
1000
0000
0001
0000
0010
0000
,  // measure 63
1000
0000
0100
0000
0001
0000
0100
0000
0020
0000
0000
0000
0031
1000
0000
0000
,  // measure 64
0100
0100
0100
0000
1000
1000
1010
0000
0000
0000
0000
0000
;
