#VERSION:0.83;
#TITLE:RECONSTRUCTION_SEQUENCE\:act_two\:reidentification;
#SUBTITLE:;
#ARTIST:Z-I-v Sound Team "Karl with a K";
#TITLETRANSLIT:;
#SUBTITLETRANSLIT:;
#ARTISTTRANSLIT:;
#GENRE:;
#ORIGIN:;
#CREDIT:;
#BANNER:reconstruction_sequence_act_two_reidentification_banner.png;
#BACKGROUND:reconstruction_sequence_act_two_reidentification_bg.png;
#PREVIEWVID:;
#JACKET:;
#CDIMAGE:;
#DISCIMAGE:;
#LYRICSPATH:;
#CDTITLE:;
#MUSIC:reconstruction_sequence_act_two_reidentification.ogg;
#OFFSET:-0.025000;
#SAMPLESTART:99.983002;
#SAMPLELENGTH:12.000000;
#SELECTABLE:YES;
#BPMS:0.000=200.000,
265.000=100.000,
282.000=200.000;
#STOPS:;
#DELAYS:;
#WARPS:;
#TIMESIGNATURES:0.000=4=4;
#TICKCOUNTS:0.000=4;
#COMBOS:0.000=1;
#SPEEDS:0.000=1.000=0.000=0;
#SCROLLS:0.000=1.000;
#FAKES:;
#LABELS:0.000=Song Start;
#BGCHANGES:;
#KEYSOUNDS:;
#ATTACKS:
;

//---------------dance-single - XO DS- JA XMOD RH STR[6@150] JU-----------------
#NOTEDATA:;
#CHARTNAME:;
#STEPSTYPE:dance-single;
#DESCRIPTION:XO DS- JA XMOD RH STR[6@150] JU-;
#CHARTSTYLE:;
#DIFFICULTY:Challenge;
#METER:18;
#RADARVALUES:1.032673,1.075659,0.171601,0.100101,1.086809,1011.000000,987.000000,24.000000,14.000000,0.000000,0.000000,0.000000,0.000000,0.000000,1.032673,1.075659,0.171601,0.100101,1.086809,1011.000000,987.000000,24.000000,14.000000,0.000000,0.000000,0.000000,0.000000,0.000000;
#CREDIT:Karl with a K;
#NOTES:
0000
0000
0000
0000
,
0000
0000
0000
0000
,
0000
0000
0000
0000
,
0000
0000
0000
0000
,
0000
0000
0000
0000
,
0000
0000
0000
0000
,
0000
0000
0000
0000
,
1001
0000
1000
0000
0010
0000
1000
0000
0100
0000
0000
1000
0100
0000
1000
0000
,
0100
0000
1000
0000
0010
0000
1000
0000
0000
0001
1000
0000
0100
0000
0010
0000
,
0001
0000
1000
0000
0010
0000
0000
0100
0001
0000
1000
0000
0001
0000
1000
0000
,
0100
1000
0010
0010
1000
0001
1000
0001
,
1000
0000
0000
0100
1000
0000
0100
0000
1000
0000
0100
0000
1000
0000
0001
0000
,
0000
0100
0010
0000
0001
0000
0010
0000
0100
0000
0010
0000
0100
0000
0000
0001
,
0100
0000
0001
0000
1000
0000
0001
0000
0010
0000
0100
0000
1000
0000
1000
0100
,
0010
0000
0000
0000
0000
0000
0001
0000
0000
0000
0000
0000
0100
0000
0000
0000
0001
0000
0000
0000
0100
0000
0000
0000
0010
0000
0000
0000
0000
0000
1000
0000
0000
0001
0000
0000
0010
0000
0000
0000
0000
0000
0001
0000
0000
1000
0000
0000
,
0010
0100
0010
0000
1000
0010
1000
0010
0200
0000
0010
0000
0301
0000
0100
0001
,
0100
0000
0000
0001
0010
0000
0100
0000
1000
0001
1000
0001
1000
0000
0010
0000
,
0100
0000
1000
0000
0100
0010
2000
0000
3001
0000
0000
0001
1000
0000
0000
1000
,
0010
0000
1000
0010
1000
0001
0010
0000
0001
0000
1000
0100
1000
0100
0010
0001
,
0010
0000
0001
0000
1000
0000
0000
0000
0100
0000
0000
0000
0010
0000
0000
0100
0000
0000
0010
0000
0100
0000
0000
0000
0010
0000
0100
0000
0001
0000
0100
0000
,
0020
0000
0000
0000
0031
0000
1000
0010
,
0001
0010
0100
0000
0001
0100
0001
0010
,
0000
0001
0100
0001
0000
1000
0001
0000
0100
0000
0010
0000
0001
0000
0010
0000
,
0100
0010
0000
0010
1000
0000
0001
0100
0001
1000
0010
0000
0000
0000
0100
0000
,
0000
0001
0010
0001
1000
0000
0100
0000
0001
0000
0100
0000
0010
0100
0000
0100
,
1000
0000
0001
0000
0100
0001
0100
0000
0001
1000
0001
1000
0000
0100
0010
0000
,
0001
0000
0100
0000
1000
0000
0100
0000
0010
0000
0000
1000
0010
0000
0100
0010
,
1000
0010
0100
0000
0001
0000
0010
0000
1000
0000
0010
1000
0010
0000
0100
0000
,
0001
0100
0010
0000
0001
0001
1000
0100
,
1000
0001
0010
0001
1000
0001
0010
0000
0100
0000
0010
0000
1000
0000
0010
0000
,
0100
0010
0000
0010
0001
0000
0100
0010
0100
0010
1000
0000
0000
0000
1000
0000
,
0001
0010
0001
0010
0001
0000
0100
0000
1000
0000
0100
0000
0000
0000
0000
0000
,
0010
0000
1000
0000
0001
0000
1000
0000
0100
0000
0000
0000
0100
0010
0001
0000
,
0010
0000
1000
0000
0010
0000
0100
0000
0100
0000
1000
0100
1000
0000
1000
0000
,
0100
0010
0001
0000
0010
0000
0001
0000
1000
0000
0100
0000
0001
0000
0100
0000
,
0010
0001
0010
0001
1000
0000
1000
0000
0010
0000
0100
0000
0001
0000
0010
0001
,
1000
0010
1000
0000
1000
0000
0100
0000
0001
0000
0100
0000
0010
0100
0010
0100
,
1000
0000
1000
0000
0010
0000
0100
0000
0001
0000
1000
0001
0100
0001
0100
0000
,
0001
0000
0100
0000
1000
0000
0100
0000
0010
1000
0010
1000
0001
0000
0001
0000
,
0010
0000
0001
0000
1000
0000
0001
1000
0001
0010
0100
0000
0100
0000
0010
0000
,
1000
0000
0010
0000
0100
1000
0100
1000
0001
0000
0001
0000
0100
0000
0001
0000
,
1000
0000
0100
0010
0001
1000
0001
0000
0001
0000
0100
0000
1000
0000
0100
0000
,
0010
0000
0100
0001
1000
0000
1000
0000
0100
0000
0010
0000
0001
0000
0100
0001
,
1000
0001
0010
0000
0010
0000
1000
0000
0002
0000
0000
0000
0103
1000
0100
1000
,
0100
0000
0010
0000
0001
0000
1000
0000
0001
0000
0010
0100
1000
0010
0100
0000
,
0001
0000
0100
0000
1000
0000
0100
0000
0010
1000
0100
0010
0001
0000
1000
0000
,
0100
1000
0001
0100
0010
1000
0100
0001
,
0100
0000
0010
0100
0010
0001
0010
0000
0001
0000
0100
0000
0001
0000
1000
0100
,
0010
0001
0010
0100
2000
0000
0000
0000
0010
0000
0000
0000
0100
0000
0000
0000
,
0010
0000
3001
1000
0000
0010
0100
0000
0000
1001
0000
0000
,
0110
0000
0000
1001
0000
0000
1001
0000
0010
1000
0000
0000
,
1100
0000
0000
1010
0000
0000
1001
0000
0001
0010
0100
1000
,
0001
0000
0000
0000
1100
0000
0000
0000
1000
0100
0010
0001
1000
0100
0010
0001
,
1000
0000
0100
0010
0000
0100
1000
0000
0000
0001
0000
0010
,
0001
0000
0010
0100
0000
1000
0001
0000
0100
0010
0000
0000
,
1001
0000
0001
1000
0000
0010
1000
0000
0001
0010
0000
0100
,
1000
0000
1000
0001
0000
0001
0100
0000
0010
1000
0000
0010
,
1000
0000
0000
1000
0000
0010
0100
0000
0001
1000
0001
0010
,
0100
1000
0100
0010
0001
1000
0001
0100
0010
1000
0010
0100
,
0001
1000
0100
0010
0001
1000
0001
1000
0001
1000
0100
1000
,
0010
1000
0001
1000
0001
0100
0001
0010
0001
0100
0001
0100
,
0010
1000
0001
1000
0100
1000
0100
1000
0100
1000
0010
0100
,
0001
0100
0010
0001
0010
0100
0001
0010
0100
1000
0100
0010
,
0001
0010
0100
0001
0100
0010
0001
0100
0010
1000
0010
0100
,
0001
0010
0100
0001
0100
0010
0100
0010
0100
0001
0100
0010
,
0001
0100
0010
0001
0010
0100
0010
0100
0010
0001
0010
0100
,
0010
0000
0100
0000
0010
0000
2000
0000
0000
0000
0000
0000
0000
0000
0000
0000
0000
0000
0100
0000
0000
0100
0000
0000
,
3020
0100
0000
0230
,
0000
0000
0000
0000
0001
0000
0001
0000
0302
0100
0000
0000
0100
0000
0000
0100
,
0000
0100
0000
0100
,
0023
0000
0000
0000
0000
0000
0000
0000
0000
0000
0000
0000
0100
0000
0000
0000
0000
0000
0000
0000
0000
0000
0000
0000
0000
0000
0000
0000
0000
0000
0000
0000
0000
0000
0000
0000
1000
0000
0000
0000
0000
0000
0000
0000
0000
0000
0000
0000
1030
0000
0000
0000
0000
0000
0000
0000
0000
0000
0000
0000
0000
0000
0000
0000
0000
0000
0010
0000
0000
0000
0000
0000
0000
0000
0000
0000
0000
0000
0000
0000
0000
0000
0000
0000
0001
0000
0000
0000
0000
0000
0000
0000
0000
0000
0000
0000
0001
0000
0000
0000
0000
0000
0000
0000
0000
0000
0000
0000
0000
0000
0000
0000
0000
0000
0000
0000
0000
0000
0000
0000
0000
0000
0000
0000
0000
0000
0000
0000
0100
0000
0000
0000
0000
0000
0000
0000
0000
0000
0000
0000
0000
0000
0000
0000
0001
0000
0000
0000
0000
0000
0000
0000
0000
0000
0000
0000
0000
0000
0000
0000
0000
0000
0000
0000
0000
0000
0000
0000
0000
0000
0000
0000
0000
0000
0000
0000
0000
0000
0000
0000
0000
0000
0000
0000
0000
0000
0000
0000
0000
0000
0000
0000
,
0011
0101
1001
0110
,
1001
0000
0000
1000
0100
0010
0001
0000
0000
1001
0000
1000
,
0001
0000
0000
0011
0000
0000
0101
0000
0000
1001
0000
1000
,
0010
0000
0100
0010
0000
1000
0001
0000
0000
0001
0100
0010
,
1000
0000
0000
1001
0000
0010
0100
0000
0000
0011
0000
0001
,
1000
0000
0000
1100
0000
0100
0010
0000
0000
1001
0000
0001
,
0100
0000
0000
0000
0000
0000
0000
0000
0001
0000
0000
0000
0010
0000
0000
0001
0000
0000
0010
0000
0000
0001
0000
0000
1000
0000
0000
0010
0000
0000
1000
0000
0000
0010
0000
0000
0200
0000
0000
0000
0000
0000
0001
0000
0000
0000
0000
0000
,
0000
0000
0000
0000
0010
0000
0000
0000
0310
1000
0001
1000
0010
0000
1000
0000
,
0100
0000
0010
0000
0100
0000
1000
0100
0010
0100
0010
0000
0001
0000
0100
0000
,
0001
0000
1000
0001
1000
0010
0100
0000
0010
0000
1000
0000
0100
0000
1000
0000
,
0001
0100
0001
1000
0100
1000
0010
0000
1000
0000
0100
0000
1000
0000
0010
0100
,
0001
1000
0100
0000
0100
0000
1000
0000
0010
0000
1000
0000
0001
1000
0001
1000
,
0010
0000
0010
0000
1000
0000
0100
0000
0010
0000
0100
1000
0100
0010
0001
0000
,
0010
0000
0001
0000
0100
0000
0010
0000
0100
0001
1000
0001
0100
0000
0010
0000
,
1000
0000
0100
0000
0010
0000
0001
0100
0010
1000
0001
0000
1000
0000
0010
0000
,
0001
0000
1000
0000
0100
0000
0001
0000
0010
0000
0001
0000
0100
0000
0100
0010
,
1000
0010
1000
0000
0100
0000
1000
0000
0010
0000
0100
0000
0001
0000
0100
0001
,
1000
0001
0100
0000
0001
0000
0010
0000
0100
0010
0001
1000
0001
0010
0001
0000
,
0010
0000
0001
0000
0100
0000
0010
1000
0001
0000
0010
0001
0010
0001
1000
0000
,
0100
1000
0010
0000
1000
0000
0010
1000
0010
1000
0010
0000
1000
0000
0100
0000
,
0010
0000
0001
1000
0010
0100
0001
1000
0100
0000
0010
0000
0001
0000
1000
0000
,
0010
0100
0001
1000
0100
0000
0010
0000
0010
0000
0100
0000
1000
0001
0010
0100
,
1000
0001
0100
0000
0010
0000
1000
0000
0001
0000
0010
0100
1000
0001
0100
0000
,
0010
0000
0010
0000
0100
0000
0001
1000
0010
0100
0001
1000
0100
0000
0010
0000
,
0001
0000
1000
0000
0010
0100
0001
1000
0010
0000
1000
0000
0100
0000
1000
0000
,
0100
0010
0001
1000
0010
0000
1000
0000
0100
0000
1000
0000
0100
0010
0001
0000
,
2001
0000
0000
0000
3100
0000
0100
0000
0010
0100
1000
0001
1000
0000
0100
0000
,
0100
0000
0100
0000
1000
0100
0001
0100
1000
0000
0010
0000
0001
0000
0010
0000
,
0100
0001
0100
0001
1000
0010
1000
0000
0100
0000
0001
0000
0100
0000
0010
0001
,
1000
0010
1000
0001
1000
0000
0100
0000
0001
0000
0100
0000
0010
0100
0010
0100
,
1000
0001
1000
0000
0010
0000
0001
0000
0010
0000
0100
0001
0100
0001
0100
0001
,
1000
0000
0010
0000
0001
0000
0010
0000
0100
0010
1000
0010
0100
0001
0010
0000
,
0100
0010
0100
0010
0001
1000
0001
1000
0010
0000
0001
0000
0010
0000
1000
0000
,
0001
0100
0001
0100
0001
1000
0010
0000
0100
0000
0100
0000
0001
0000
0100
0000
,
0100
0000
0001
0000
0010
0000
0001
0000
0010
0001
0010
0000
0001
0000
1000
0000
,
0010
0000
0100
0001
1000
0001
0010
0001
1000
0000
0100
0000
0001
0000
0100
0000
,
0010
0000
0100
0000
1000
0010
0100
0000
0100
0000
0001
0000
1000
0000
0010
0100
,
0001
0100
0010
1000
0001
0000
0100
0000
1000
0000
0100
0000
0010
1000
0100
0010
,
0001
1000
0002
0000
0000
0000
0013
0000
0001
0000
0100
0000
0010
0100
0010
0000
,
0001
0000
0010
0000
0100
0000
0001
0010
0001
1000
0010
1000
0002
0000
0013
0000
,
0100
0000
0001
0100
0010
0100
0001
0100
0000
0000
0000
0000
0000
0000
0000
0000
;

//---------------dance-single - ----------------
#NOTEDATA:;
#CHARTNAME:;
#STEPSTYPE:dance-single;
#DESCRIPTION:;
#CHARTSTYLE:;
#DIFFICULTY:Hard;
#METER:15;
#RADARVALUES:0.784464,0.756945,0.178751,0.042900,0.318178,768.000000,743.000000,25.000000,6.000000,0.000000,0.000000,0.000000,0.000000,0.000000,0.784464,0.756945,0.178751,0.042900,0.318178,768.000000,743.000000,25.000000,6.000000,0.000000,0.000000,0.000000,0.000000,0.000000;
#CREDIT:Karl with a K;
#NOTES:
// measure 0
0000
0000
0000
0000
,  // measure 1
0000
0000
0000
0000
,  // measure 2
0000
0000
0000
0000
,  // measure 3
0000
0000
0000
0000
,  // measure 4
0000
0000
0000
0000
,  // measure 5
0000
0000
0000
0000
,  // measure 6
0000
0000
0000
0000
,  // measure 7
1000
0000
0001
0000
0010
0000
0100
0000
1000
0000
0000
1000
0100
0000
0010
0000
,  // measure 8
0001
0000
1000
0000
0010
0000
0100
0000
0000
0001
1000
0000
0100
0000
0010
0000
,  // measure 9
0001
0000
1000
0000
0001
0000
0000
1000
0010
0000
1000
0000
0100
0000
0010
0000
,  // measure 10
0001
1000
1000
1000
0100
1000
0100
1000
,  // measure 11
0010
0000
0000
0100
0001
0000
0100
0000
0001
0000
0100
0000
0001
0000
0010
0000
,  // measure 12
0000
0100
0010
0000
1000
0000
0000
0000
0010
0000
0100
0000
1000
0000
0010
0000
,  // measure 13
0100
1000
0000
0100
0010
1000
0001
0001
,  // measure 14
1000
0000
0001
0000
0100
0000
0010
0000
1000
0000
0000
1000
0010
0000
0100
0000
,  // measure 15
0001
1000
0100
0010
0002
1000
1003
0100
,  // measure 16
0100
1000
0001
1000
0100
0100
0010
0001
,  // measure 17
0100
0001
1000
1000
0010
1000
0010
1000
,  // measure 18
0100
0000
0010
0001
0010
0000
0010
0000
0001
0000
0010
0000
0001
0000
0100
0000
,  // measure 19
0100
0010
1000
0100
0010
1000
0001
0100
,  // measure 20
0110
0000
0000
0000
0000
0000
1000
0010
,  // measure 21
0100
0010
1000
0000
1001
0001
0010
0001
,  // measure 22
0000
0010
0100
0000
0000
1000
0001
0000
0100
0000
0010
0000
1000
0000
0001
0000
,  // measure 23
0100
0000
0000
0100
0010
0000
1000
0000
1000
0000
0100
0000
0000
0000
0010
0000
,  // measure 24
0000
0001
1000
0000
1000
0000
0010
0000
0100
0000
0001
0000
0010
0000
0000
0100
,  // measure 25
1000
0000
0100
0000
0000
0010
0100
0000
1000
0000
0010
0000
0000
0100
0010
0000
,  // measure 26
1000
0000
0100
0000
0010
0000
0100
0000
1000
0000
0000
0010
0100
0000
0001
0000
,  // measure 27
0001
0000
0010
0000
0000
0000
0100
0000
1000
0000
0001
1000
0001
0000
0010
0000
,  // measure 28
0100
0010
0001
0000
1000
0010
0001
1000
,  // measure 29
0100
0001
0001
1000
1000
0010
0100
0001
,  // measure 30
0010
0000
0000
0100
0010
0000
0001
0000
0010
0000
1000
0000
0001
0000
0100
0000
,  // measure 31
1000
1000
1000
0010
0100
0001
0000
0000
,  // measure 32
0100
1000
0001
0010
1000
0000
0010
0010
,  // measure 33
1000
0001
0010
0100
0100
0001
0100
0001
,  // measure 34
1000
0010
0001
0100
0001
0010
0100
0010
,  // measure 35
0001
0100
0010
1000
0100
1000
0100
0010
,  // measure 36
0001
1000
0010
0100
0001
1000
0100
0010
,  // measure 37
0001
1000
0001
0100
0010
1000
0100
0001
,  // measure 38
1000
0001
0100
1000
0010
0100
0001
0100
,  // measure 39
0010
0100
0001
0010
0100
0010
1000
0010
,  // measure 40
0100
0010
0001
0100
0010
1000
0010
0100
,  // measure 41
0010
0000
0100
0000
0001
0000
1000
0001
1000
0000
0010
0000
0100
0000
0010
0000
,  // measure 42
1000
0010
0001
1000
0100
0001
1000
0100
,  // measure 43
1000
0100
0001
0100
0010
0000
0001
0100
,  // measure 44
0010
1000
0010
0001
1000
0100
0001
0010
,  // measure 45
0001
0010
0100
1000
0010
1000
0100
0001
,  // measure 46
1000
0010
0001
0100
0010
0100
0001
1000
,  // measure 47
0010
0100
0100
1000
0100
1000
0001
0010
,  // measure 48
1000
0100
0010
0000
1001
0000
1001
0000
,  // measure 49
1100
1010
1001
0110
,  // measure 50
0110
1001
1010
1100
,  // measure 51
1010
1100
0011
0101
,  // measure 52
1010
1010
1000
1001
,  // measure 53
1001
0000
0001
0010
0000
0010
0100
0000
0000
1000
0000
1000
,  // measure 54
0010
0000
0010
0100
0000
0100
0001
0000
0001
1000
0000
0000
,  // measure 55
0100
0000
0100
0010
0000
0010
0001
0000
0001
1000
0000
1000
,  // measure 56
0001
0000
0001
1000
0000
1000
0100
0000
0100
1000
0000
1000
,  // measure 57
0010
0000
0000
1000
0000
1000
0001
0000
0001
1000
0000
1000
,  // measure 58
0100
0000
0100
0010
0000
0010
0001
0000
0001
0100
0000
0100
,  // measure 59
0010
0000
0010
1000
0000
1000
0001
0000
0001
0100
0000
0100
,  // measure 60
0010
0000
0010
1000
0000
1000
0100
0000
0100
1000
0000
1000
,  // measure 61
0001
0000
0001
1000
0000
1000
0100
0000
0100
1000
0000
1000
,  // measure 62
0001
0000
0001
0010
0000
0010
1000
0000
1000
0001
0000
0001
,  // measure 63
0100
0000
0100
1000
0000
1000
0010
0000
0010
0001
0000
0001
,  // measure 64
1000
0000
1000
0100
0000
0001
0000
0100
0000
0010
0000
1000
,  // measure 65
0000
0010
0000
1000
0000
0100
0000
1000
0000
0010
0000
0001
,  // measure 66
0000
0010
0000
2000
0000
0000
0000
0000
0000
0000
0000
0000
,  // measure 67
3200
0000
0000
0320
,  // measure 68
0000
0000
0032
0000
,  // measure 69
0000
0000
0000
0000
,  // measure 70
0203
0000
0000
0000
0000
0000
0000
0000
0301
0000
0000
0001
0000
0000
0001
0000
1000
0000
0000
0000
0000
0000
0000
0000
0010
0000
0000
0000
0000
0000
0000
0000
,  // measure 71
0010
1000
0010
1000
,  // measure 72
0100
0000
0000
1000
0000
0100
1000
0000
0000
0001
0000
0000
,  // measure 73
0010
0010
0001
0010
,  // measure 74
0001
0000
0000
0100
0000
0001
0100
0000
0000
0001
0000
0000
,  // measure 75
1000
0000
0000
0100
0000
0100
0001
0000
0000
1000
0000
1000
,  // measure 76
0010
0000
0000
0001
0000
0001
0100
0000
0000
1000
0000
1000
,  // measure 77
0001
0000
0010
1000
0001
0000
1001
0000
,  // measure 78
0110
0000
1001
0000
0110
0000
1000
0100
,  // measure 79
0010
0000
0001
1000
1000
0001
0010
0001
,  // measure 80
0000
0100
0100
0001
0010
0100
1000
0000
,  // measure 81
0100
0010
0010
0001
0100
0010
0000
0010
,  // measure 82
1000
1000
0001
0010
0100
0000
0010
0100
,  // measure 83
0100
0010
0001
0100
0000
0010
0010
0010
,  // measure 84
1000
0100
0010
0000
0100
0010
0010
0001
,  // measure 85
0100
1000
0100
0001
0010
1000
0001
0100
,  // measure 86
1000
0010
0001
0010
0100
0001
0000
1000
,  // measure 87
0010
0000
0100
0001
0100
0000
0001
0000
1000
0000
0000
0000
0100
0000
0010
0000
,  // measure 88
0001
0010
0001
0000
0100
0000
0010
0000
0000
0000
1000
0000
0100
0000
0010
0001
,  // measure 89
0010
0000
0100
0000
0010
0000
0000
0000
0100
0000
1000
0001
1000
0000
0100
0000
,  // measure 90
1000
0100
1000
0010
0000
0010
1000
0010
,  // measure 91
1000
0001
0010
0100
0100
0001
0100
1000
,  // measure 92
0010
0001
0010
1000
0100
1000
0001
0100
,  // measure 93
0010
0010
0001
0010
1000
0100
0001
0100
,  // measure 94
1000
0010
1000
0001
0010
0100
0100
0001
,  // measure 95
0100
1000
0010
0001
0010
1000
0100
0001
,  // measure 96
0100
1000
0100
1000
0010
0001
0010
1000
,  // measure 97
0010
0001
1000
0100
0001
0010
1000
0001
,  // measure 98
0100
1000
1100
0000
0001
0010
0100
0010
,  // measure 99
0001
0000
1000
0001
1000
0000
0001
0000
0010
0000
0001
0000
0010
0000
0100
0000
,  // measure 100
0000
0000
0010
0000
0100
0000
1000
0000
0001
0000
1000
0000
0010
0000
0100
0010
,  // measure 101
0100
0001
0010
0100
0010
0000
0001
1000
,  // measure 102
0010
0000
0100
0000
1000
0000
0100
0000
0010
0000
0100
0001
0100
0000
0010
0000
,  // measure 103
0100
0000
0100
0000
0001
0000
1000
0100
1000
0000
0100
0000
0010
0000
0100
0000
,  // measure 104
1000
0000
0000
1000
0010
0000
1000
0000
0001
0000
0010
0000
0001
0000
0100
0000
,  // measure 105
0010
0100
0001
0001
0001
0001
0100
0001
,  // measure 106
0100
0010
1000
0001
0010
0100
1000
0001
,  // measure 107
0100
0010
0010
1000
0100
0010
0100
0001
,  // measure 108
0100
0000
0100
0000
1000
0000
0010
0000
0100
0000
0001
0000
0100
0000
0010
1000
,  // measure 109
0010
0000
0100
0000
0010
0000
0010
0000
1000
0000
0001
0010
0001
0000
0010
0000
,  // measure 110
0100
0010
1000
0010
0100
1000
0001
0100
,  // measure 111
0001
0000
0010
0000
0100
0010
0100
0010
0000
0000
0000
0000
0000
0000
0000
0000
;

//---------------dance-single - ----------------
#NOTEDATA:;
#CHARTNAME:;
#STEPSTYPE:dance-single;
#DESCRIPTION:;
#CHARTSTYLE:;
#DIFFICULTY:Medium;
#METER:13;
#RADARVALUES:0.520933,0.637070,0.057200,0.135851,0.064351,510.000000,502.000000,8.000000,19.000000,0.000000,0.000000,0.000000,0.000000,0.000000,0.520933,0.637070,0.057200,0.135851,0.064351,510.000000,502.000000,8.000000,19.000000,0.000000,0.000000,0.000000,0.000000,0.000000;
#CREDIT:Karl with a K;
#NOTES:
0000
0000
0000
0000
,
0000
0000
0000
0000
,
0000
0000
0000
0000
,
0000
0000
0000
0000
,
0000
0000
0000
0000
,
0000
0000
0000
0000
,
0000
0000
0000
0000
,
0001
0000
0010
0000
0100
0000
1000
1000
,
0000
0100
0000
0010
0000
0001
0100
0000
,
0010
0000
1000
0000
0001
0010
0000
0100
,
0000
1000
0001
0001
1000
0000
0010
0000
,
1000
0000
0001
1000
0000
0100
0000
0010
,
0000
0010
1000
0000
0010
0000
0100
0000
,
1000
0001
0000
0100
0000
0010
0000
0010
,
0001
0000
0010
0000
0100
0000
0001
1000
,
0000
0100
0000
0010
0000
1000
0010
0000
,
0001
0000
1000
0000
0001
0100
0000
0010
,
0000
1000
0100
0010
1000
0000
0010
0000
,
0001
0000
0100
1000
0000
0100
0000
0010
,
0000
0001
0000
0010
0000
0100
0000
0001
,
0010
0000
0000
0001
,
0100
0000
0010
0000
0000
1000
0000
0010
,
0000
0100
0000
0000
0010
0000
0100
0000
,
0001
0000
0000
0010
0000
0100
0000
1000
,
0000
1000
0100
1000
,
0000
1000
0000
0100
0000
0010
0000
0000
,
0001
0000
0100
0000
0010
0000
0000
0001
,
0000
0010
0000
0100
0000
0010
1000
0000
,
0100
0000
0010
0000
0000
0001
0001
0100
,
0100
0000
0010
1000
,
0001
0000
0000
0010
0010
0100
0100
0000
,
0000
1000
0100
0001
,
0000
0100
0100
1000
1000
0000
0000
0001
,
0000
0100
0000
1000
0000
0000
0100
0100
,
0001
0001
0000
0000
1000
0000
0100
0000
,
0010
0001
0010
0001
0000
0010
0000
0100
,
1000
0100
1000
0000
0010
0000
0100
0001
,
0100
0010
0000
0100
0000
0001
1000
0001
,
1000
0000
0010
0000
1000
0100
1000
0001
,
0000
0100
0000
0010
0100
0001
1000
0000
,
0100
0000
0010
0100
0010
0001
0000
0100
,
0000
0010
0100
0001
1000
0000
0100
0000
,
0010
0001
0100
0001
0000
0100
0000
0010
,
0100
0010
1000
0000
0100
0000
0010
0001
,
0010
0001
0000
0010
0000
0100
1000
0100
,
1000
0000
0010
0000
0100
0001
0100
0010
,
0000
0000
1000
0000
0001
0001
0000
0010
,
0000
0100
0010
0100
1000
0000
0100
0000
,
0010
0002
1000
1000
,
1000
1000
0100
0100
,
0100
0100
0100
0010
,
0010
0010
0010
1000
,
1000
1000
1000
1003
,
2000
0001
0001
0100
,
0001
0100
0100
0100
,
0001
0100
0010
0010
,
0010
0010
0001
0001
,
0001
0100
3001
1000
,
0010
0000
0000
0010
0000
0000
0100
0000
0100
0001
0000
0000
,
0010
0000
0000
0100
0000
0000
1000
0000
1000
0001
0000
0000
,
0011
0000
0000
0010
0000
0000
0010
0000
0000
0100
0000
0100
,
1000
0000
0000
0010
0000
0000
0010
0000
0000
0100
0000
0100
,
0001
1100
0100
0010
,
0001
0101
0100
0010
,
1000
0000
0000
0010
0000
0010
0000
0010
0000
0010
0000
0010
,
0000
0010
0000
0100
0000
0100
0000
0100
0000
0100
0000
0100
,
0000
0100
0000
1001
0000
0000
0000
0000
0000
0000
0000
0000
,
1000
0000
0000
0100
,
0000
0000
0010
0000
,
0000
0000
0000
0000
,
0001
0000
0011
0010
,
0100
1000
0010
0110
,
0001
0000
0000
0010
0000
0010
0100
0000
0000
1001
0000
0000
,
1000
0000
0000
0010
0000
0000
1000
0000
0000
0010
0000
0010
,
0100
0000
0100
0001
0000
0001
1000
0000
0000
0001
0000
0001
,
1000
0000
0000
0010
0000
0010
1000
0000
0000
2000
0000
0000
,
3020
0230
0302
0023
,
0230
2300
3002
2003
,
0010
0001
3100
1001
,
0100
0000
0010
0001
0010
0001
0000
0100
,
0000
0010
0100
0010
1000
0000
0100
0000
,
0010
0001
1000
0010
0000
0100
0000
0001
,
1000
0100
0001
0000
0100
0000
1000
0100
,
0010
0001
0000
1000
0000
1000
1000
1000
,
0001
0000
0010
0000
0100
1000
0010
0020
,
0000
0230
0000
1300
0100
0001
1000
0001
,
1000
0001
1000
0001
0000
0010
0000
0100
,
0010
0100
0001
0000
0100
0000
0010
0001
,
1000
0010
0000
0100
0000
0001
1000
0010
,
0001
0000
0010
0000
1000
0010
0100
0001
,
0000
0010
0000
1000
0010
0001
0000
0100
,
0000
0010
0000
1000
0200
0000
0320
0000
,
1030
0010
0001
0000
0010
0000
0100
0000
,
1000
0020
0000
0230
0000
1300
0100
0001
,
0000
0100
0000
0010
0000
1000
0200
0000
,
0320
0000
1030
0010
0001
0000
0001
0100
,
1000
0000
1000
0000
1000
0100
0001
0000
,
0001
0010
1000
0010
0001
1000
0001
0100
,
1000
0100
0001
1000
0001
0000
0100
0000
,
0010
1000
0010
1000
0000
0100
0000
0010
,
0100
0010
0001
0000
0100
0000
0001
0100
,
0001
0010
0000
0100
0000
0001
0100
1000
,
1000
0000
0100
0000
1000
0010
0100
0001
,
0000
0010
0000
0100
0001
0000
0100
0000
,
0010
0100
0010
0001
0000
0100
0000
0010
,
0000
0100
1000
0000
0001
0010
0000
0010
,
0000
0100
0010
0100
0001
0000
0010
0000
,
0001
0010
0001
0100
0000
0010
0000
0001
,
0010
1000
1000
0000
0010
0000
1000
0100
,
0010
0001
0000
0100
0000
0001
0000
0010
,
0000
0100
0010
0100
1000
0001
0010
0001
,
0100
0001
0010
1000
0000
0000
0000
0000
;

//---------------dance-single - ----------------
#NOTEDATA:;
#CHARTNAME:;
#STEPSTYPE:dance-single;
#DESCRIPTION:;
#CHARTSTYLE:;
#DIFFICULTY:Easy;
#METER:10;
#RADARVALUES:0.358524,0.557436,0.064351,0.021450,0.000000,351.000000,342.000000,9.000000,3.000000,0.000000,0.000000,0.000000,0.000000,0.000000,0.358524,0.557436,0.064351,0.021450,0.000000,351.000000,342.000000,9.000000,3.000000,0.000000,0.000000,0.000000,0.000000,0.000000;
#CREDIT:Karl with a K;
#NOTES:
0000
0000
0000
0000
,
0000
0000
0000
0000
,
0000
0000
0000
0000
,
0000
0000
0000
0000
,
0000
0000
0000
0000
,
0000
0000
0000
0000
,
0000
0000
0000
0000
,
1000
0000
0000
0000
,
0000
0000
0000
0001
0000
0000
0000
0000
,
0000
0000
0000
0000
0000
1000
0000
0000
,
0000
0000
0000
0000
,
0001
0000
0000
0000
,
0000
0100
0000
0000
,
0000
1000
0000
0000
0000
0100
0000
0000
,
0001
0000
0000
0000
0001
0000
0000
0001
,
0000
0000
0000
0001
0000
0001
1000
0000
,
0000
0000
1000
0000
0000
1000
0000
0000
,
0000
0001
0000
0000
0001
0000
0000
0000
,
0010
0000
0000
0100
0000
0000
1000
0000
,
0000
1000
0000
0000
0000
1001
0000
0000
,
0110
0000
0000
1000
,
0000
0010
0000
0000
0000
0000
0010
0000
,
0000
0000
0000
0000
0100
0000
0000
0010
,
0000
0000
0000
0001
0000
0000
0000
0010
,
0000
0000
0010
0000
0000
1000
0000
0000
,
0000
0100
0000
0000
,
1000
0000
0000
0001
0000
0000
0000
0010
,
0000
0010
0000
0001
,
0000
0010
0000
0000
0000
0010
0000
0010
,
0000
0000
0000
0000
0100
0000
0000
0010
,
0000
0000
0000
1000
0000
1000
0000
0000
,
0000
0000
0010
0000
0000
0001
0000
0000
,
0000
0100
0000
0100
0000
0000
0000
0010
,
0000
0001
0000
0010
,
0010
0000
1000
1000
,
1000
0000
1000
0100
0000
0100
0000
0100
,
0000
0100
0001
0000
0001
0000
0001
0000
,
0001
0100
0000
0100
0000
0100
0000
0100
,
1000
0000
1000
0000
1000
0000
1000
0010
,
0000
0010
0000
0010
0000
0010
0001
0000
,
0001
0000
0001
0000
0001
0010
0000
0010
,
0000
0010
0000
0010
1000
0000
0001
0000
,
0001
0000
0001
0010
0000
0010
0000
0010
,
0000
0010
1000
0000
1000
0000
1000
0000
,
1000
0010
0000
0010
0000
0010
0000
0010
,
0001
0000
0001
0000
0001
0000
0001
0100
,
0000
0100
0000
0100
0000
1000
0000
1000
,
0000
1000
0000
1000
0100
0000
0100
0000
,
0100
0002
0000
0000
,
0100
0000
0100
0000
,
0000
0100
0000
0100
,
0000
0100
0000
0100
,
0000
0000
1000
1003
,
2000
0000
0000
0100
,
0000
0100
0000
0000
,
0100
0000
0100
0000
,
0100
0000
0100
0000
,
0000
0100
3000
1000
,
0000
0010
0010
0000
,
0001
0000
0010
0000
,
1000
0000
0100
0100
,
0000
0001
0000
0100
,
0000
1000
0000
0001
,
0000
0010
0000
1000
,
0000
0010
0000
0001
,
0000
0100
0000
1000
,
0000
0110
0000
0000
,
0010
0000
0000
0010
,
0000
0000
0010
0000
,
0000
0000
0000
0000
,
0010
0000
1000
1000
,
1000
1000
1000
1000
,
1000
1000
0000
0001
,
0001
0001
0001
0001
,
0000
0001
0000
0001
,
0000
0100
0000
0010
,
0000
0110
0000
0010
,
0100
0010
0100
0020
,
1000
1000
1030
1000
,
1000
0000
0100
0000
0010
0010
0000
0010
,
0000
0001
0000
0001
0001
0000
0001
0000
,
0100
0000
0100
0010
0000
0010
0000
1000
,
0000
1000
1000
0000
0100
0000
0010
0000
,
0001
0001
0000
0100
0000
0010
0000
1000
,
1000
0000
0010
0000
0100
0000
0001
0001
,
0000
1000
0001
1000
0000
0000
1001
0000
,
0000
1001
0000
1000
0000
0001
0000
1000
,
0000
1000
0010
0000
0100
0000
0010
0000
,
0010
0001
0000
1000
0000
0100
0000
0100
,
0001
0000
1000
0000
0001
0000
1000
0010
,
0000
0100
0000
0010
1000
0010
0000
1000
,
0000
0001
0000
1000
0010
0000
0100
0000
,
0010
0001
0010
1000
,
0001
1000
0000
0010
0000
0001
0000
0010
,
0000
1000
0000
1000
0001
0000
1000
0000
,
0100
0001
0100
1000
,
0100
1000
0100
0010
,
0001
0100
0010
1010
,
0010
0101
1001
1000
,
1000
0001
1000
0001
0000
0001
0000
0001
,
0010
0001
0010
0000
0010
0000
0010
0100
,
0010
0100
0000
0100
0000
0100
0010
0100
,
0010
0000
0010
0000
0010
0100
0010
0100
,
0000
0100
1000
0100
1000
0000
1000
0000
,
1000
0010
1000
0010
0000
0010
0000
0010
,
0100
0010
0001
0010
0100
0001
0000
0001
,
0000
0001
0100
0001
0100
0000
0100
0000
,
0100
0010
0100
0010
0000
0010
0000
0010
,
0100
0010
0100
0000
0100
0000
0100
0001
,
0010
0000
0010
0000
0010
1000
0010
1000
,
0000
1000
0000
0010
0001
0100
0000
0100
,
0000
0100
0000
1000
0000
0000
0000
0000
;

//---------------dance-single - ----------------
#NOTEDATA:;
#CHARTNAME:;
#STEPSTYPE:dance-single;
#DESCRIPTION:;
#CHARTSTYLE:;
#DIFFICULTY:Beginner;
#METER:7;
#RADARVALUES:0.202245,0.476730,0.064351,0.042900,0.000000,198.000000,189.000000,9.000000,6.000000,0.000000,0.000000,0.000000,0.000000,0.000000,0.202245,0.476730,0.064351,0.042900,0.000000,198.000000,189.000000,9.000000,6.000000,0.000000,0.000000,0.000000,0.000000,0.000000;
#CREDIT:Karl with a K;
#NOTES:
0000
0000
0000
0000
,
0000
0000
0000
0000
,
0000
0000
0000
0000
,
0000
0000
0000
0000
,
0000
0000
0000
0000
,
0000
0000
0000
0000
,
0000
0000
0000
0000
,
1000
0000
0000
0000
,
0000
0000
0000
1000
,
0000
0000
0000
0000
,
0000
0000
1000
0000
,
0000
0000
0000
0000
,
0000
0100
0000
0000
,
0000
0000
0000
0000
,
0001
0000
0000
0000
,
0001
0000
0000
0001
,
0000
0000
0000
0001
,
0000
0000
0001
0000
,
0000
0000
0001
0000
,
0000
0001
0000
0000
,
1001
0000
0000
1000
,
0000
0000
0000
0000
,
0000
0000
0010
0000
,
0000
0000
0000
0000
,
0000
0100
0000
0000
,
0000
0000
0000
0000
,
0001
0000
0000
0000
,
0000
0000
0000
0001
,
0000
0000
0000
0000
,
0000
0000
0010
0000
,
0000
0000
0000
0000
,
0000
0100
0000
0000
,
0000
0000
0000
0000
0000
0000
0000
1000
,
0000
0000
0000
0000
,
0000
0000
1000
0000
,
0000
0000
0000
0010
0000
0000
0000
0010
,
0000
0100
0000
0000
,
0000
0001
0000
0000
0000
0001
0000
0000
,
0010
0000
0000
0000
0000
0000
0000
0100
,
0000
0000
0000
0100
0000
0000
1000
0000
,
0000
0000
0000
0000
0000
0010
0000
0000
,
0000
0100
0000
0000
0001
0000
0000
0000
,
0000
0000
0000
0010
0000
0000
0000
0010
,
0000
0100
0000
0000
,
0000
1000
0000
0000
0000
1000
0000
0000
,
0010
0000
0000
0000
0000
0000
0000
0100
,
0000
0000
0100
0000
0000
1000
0000
0000
,
0000
0000
0000
0000
0010
0000
0000
0100
,
0000
0020
0000
0000
,
0000
0000
0000
0000
,
0000
0000
0000
0000
,
0000
0000
0000
0000
,
0000
0000
0030
0000
,
0002
0000
0000
0000
,
0000
0000
0000
0000
,
0000
0000
0000
0000
,
0000
0000
0000
0000
,
0000
0000
0003
1000
,
1000
1000
1000
0000
,
0100
0100
0100
0000
,
0001
0001
0001
0001
,
0000
0010
0010
0010
,
0000
1000
0000
0010
,
0000
0001
0000
0100
,
0000
1000
0000
0010
,
0000
0001
0000
0100
,
0000
1001
0000
0000
,
0000
0000
0000
0000
,
0000
0000
0000
0000
,
0000
0000
0000
0000
,
0000
0000
2000
0000
,
0000
0000
3000
0020
,
0000
0000
0030
0002
,
0000
0000
0003
2000
,
0000
0000
3000
0100
,
0000
0001
0000
0010
,
0000
1000
0000
0100
,
0000
0001
0000
0110
,
0000
0000
0000
1000
,
1000
0000
1000
0000
0000
0010
0000
0010
,
0000
0010
0000
0000
0100
0000
0100
0000
,
0100
0000
0000
0001
0000
0001
0000
0001
,
0000
0010
0010
0010
,
0000
0100
0000
0100
0000
0100
0000
0000
,
0010
0000
0010
0000
0010
0000
0000
0001
,
0000
0001
0000
0001
0000
0000
1001
0000
,
1001
0000
0000
1001
0000
1000
0000
1000
,
0000
1000
0100
0000
0100
0000
0100
0000
,
0100
0010
0000
0010
0000
0001
0000
0001
,
1000
0000
1000
0000
1000
0000
1000
0010
,
0000
0010
0000
0010
0000
0100
0000
0100
,
0000
0100
0000
0100
0001
0000
0001
0000
,
0001
0010
0010
0010
,
0010
0001
0000
0001
0000
0001
0000
1000
,
0000
1000
0000
1000
0000
1000
0001
0000
,
0001
0001
1000
0010
,
1000
0001
0010
0001
,
1000
0010
0001
0010
,
1000
1001
0001
0000
,
0001
0000
0000
0010
0000
0000
0000
0010
,
0000
0100
0000
0100
,
0000
1000
0000
0000
0000
1000
0000
0000
,
0010
0000
0000
0000
0010
0000
0000
0100
,
0000
0100
0001
0000
,
0001
0000
0000
0010
0000
0000
0000
0100
,
0000
0000
1100
0000
0000
1001
0000
0000
,
0000
0010
0000
0000
0010
0000
0000
0000
,
0100
0000
0000
0001
0000
0000
0000
0001
,
0000
0010
0000
0010
,
0000
0100
0000
0000
0100
0000
0000
0001
,
0000
0100
0000
0010
,
0000
0100
0000
0000
0000
0000
0000
0000
;
