#VERSION:0.83;
#TITLE:Punching Down;
#SUBTITLE:;
#ARTIST:Masayoshi Iimori;
#TITLETRANSLIT:;
#SUBTITLETRANSLIT:;
#ARTISTTRANSLIT:;
#GENRE:;
#ORIGIN:;
#CREDIT:;
#BANNER:Punching Down.png;
#BACKGROUND:Punching Down-bg.png;
#PREVIEWVID:;
#JACKET:Punching Down-jacket.png;
#CDIMAGE:;
#DISCIMAGE:;
#LYRICSPATH:;
#CDTITLE:;
#MUSIC:Punching Down.ogg;
#OFFSET:0.602000;
#SAMPLESTART:24.998001;
#SAMPLELENGTH:14.400000;
#SELECTABLE:YES;
#DISPLAYBPM:128.000000:150.000000;
#BPMS:0.000=150.000,
64.000=300.000,
66.000=150.000,
67.000=300.000,
68.000=150.000,
136.000=149.000,
140.000=148.000,
144.000=147.000,
148.000=142.000,
152.000=141.000,
156.000=140.000,
160.000=138.000,
164.000=136.000,
168.000=134.000,
172.000=132.000,
176.000=256.000,
178.000=128.000,
179.000=256.000,
180.000=128.000;
#STOPS:64.000=0.200,
65.000=0.200,
67.000=0.200,
176.000=0.234,
177.000=0.234,
179.000=0.234;
#DELAYS:;
#WARPS:;
#TIMESIGNATURES:0.000=4=4;
#TICKCOUNTS:0.000=4;
#COMBOS:0.000=1;
#SPEEDS:0.000=1.000=0.000=0;
#SCROLLS:0.000=1.000;
#FAKES:;
#LABELS:0.000=Song Start;
#BGCHANGES:;
#KEYSOUNDS:;
#ATTACKS:
;

//---------------dance-single - ----------------
#NOTEDATA:;
#CHARTNAME:;
#STEPSTYPE:dance-single;
#DESCRIPTION:;
#CHARTSTYLE:;
#DIFFICULTY:Easy;
#METER:11;
#RADARVALUES:0.457998,0.476028,0.495102,0.284075,0.008116,395.000000,334.000000,61.000000,35.000000,0.000000,0.000000,0.000000,0.000000,0.000000,0.457998,0.476028,0.495102,0.284075,0.008116,395.000000,334.000000,61.000000,35.000000,0.000000,0.000000,0.000000,0.000000,0.000000;
#CREDIT:;
#DISPLAYBPM:128.000000:150.000000;
#NOTES:
0000
0000
0000
0000
,
0000
0000
0000
0000
,
0000
0000
0000
0000
,
0000
0000
0000
0000
,
0000
0000
0000
0000
,
1000
0001
0010
0010
,
1000
0001
0010
0010
,
0001
1000
0100
0100
,
1000
0001
0100
0110
,
1000
0100
0010
0000
2000
0000
3010
0000
,
0001
0100
0010
0000
0002
0000
0013
0000
,
1000
0100
0001
0000
0200
0000
1300
0000
,
0001
0100
1000
0000
0200
0000
0301
0000
,
0011
0000
1000
0000
0100
0000
0000
0000
0010
0000
0000
0010
0000
0000
0010
0000
,
1100
0000
0001
0000
0010
0000
0000
0000
0100
0000
0000
0100
0000
0000
0100
0000
,
1000
0010
0100
0001
1000
0100
0010
0001
,
0000
0000
0000
0000
,
1001
0000
1001
0000
2000
0000
3010
0001
,
2000
0000
3100
0001
2000
0000
3010
0000
,
0101
0000
1100
0000
0002
0000
0013
1000
,
0001
0100
1000
0100
0020
0000
0000
0000
,
0031
1000
0010
0010
0002
0000
0013
1000
,
0002
0000
0103
0010
1000
0001
1000
0000
,
0002
0000
0000
2003
0000
0000
3010
0000
,
0100
0001
0000
1000
0010
0100
0110
0000
,
1001
0000
1001
0000
0002
0013
0100
0100
,
2000
3100
0010
0010
0002
1003
0010
0000
,
1001
0000
0110
0000
2000
3010
0001
0010
,
1000
0010
0001
0010
2000
0000
0000
0000
,
3010
1000
0100
0100
0002
0103
0010
0001
,
2000
3010
0100
1000
0001
0010
1000
0000
,
1001
0000
1000
0100
0001
0100
0010
0000
,
0002
0000
0000
2003
0000
0000
3000
0000
,
0011
1001
0101
0100
,
1010
1001
1100
0100
,
0110
1100
0011
0001
,
0110
0101
1010
1000
,
0011
0110
1100
0001
,
1010
0110
0101
1000
,
1100
0101
1100
0010
,
0101
1100
0101
0010
,
1100
0000
0110
0000
0011
0000
1000
0001
,
0101
0000
0110
0000
1010
0000
0001
1000
,
0100
0010
0001
1000
0010
0100
0001
1000
,
0000
0000
0000
0000
,
1001
0000
0110
0001
1000
0100
0002
0003
,
1000
0010
0002
0003
1000
0010
0100
0010
,
1000
0000
1001
0000
0001
0010
0100
0010
,
0001
0100
0010
0100
0002
0000
1003
0000
,
1000
0001
0110
1000
0001
0010
2000
3000
,
0001
0100
2000
3000
0001
0010
0100
0010
,
0001
0001
0100
0010
0000
0010
1000
0100
,
0001
0100
1000
0010
0100
0001
1000
0000
,
0001
1000
0110
0001
0010
0001
0200
0300
,
0010
1000
0200
0300
0010
0001
1000
0010
,
0101
0000
1010
0000
0010
1000
0100
0010
,
0100
1000
0100
0001
0100
0000
0011
0000
,
1000
0001
0100
0010
0001
0010
2000
3000
,
1000
0100
0002
0003
0100
0010
1001
0000
,
0110
0001
1000
0010
0001
0010
1000
0000
,
2000
0000
0000
3002
0000
0000
0003
0000
,
0010
0000
0100
1000
0100
0000
1010
0000
,
0010
0000
0100
0001
0100
0000
0011
0000
,
1000
0000
0100
0010
0100
0000
1001
0000
,
0001
0000
0100
0010
0100
0000
1001
0000
,
0001
0000
0010
0100
1000
0000
0101
0000
,
1000
0000
0010
0100
0001
0000
1100
0000
,
0001
0000
0010
0100
1000
0000
0110
0000
,
2002
0000
0000
0000
0000
0000
3003
0010
,
0100
0000
0000
0000
;

//---------------dance-single - ----------------
#NOTEDATA:;
#CHARTNAME:;
#STEPSTYPE:dance-single;
#DESCRIPTION:;
#CHARTSTYLE:;
#DIFFICULTY:Medium;
#METER:13;
#RADARVALUES:0.635400,0.700041,0.600615,0.495102,0.361181,548.000000,474.000000,74.000000,61.000000,0.000000,0.000000,0.000000,0.000000,0.000000,0.635400,0.700041,0.600615,0.495102,0.361181,548.000000,474.000000,74.000000,61.000000,0.000000,0.000000,0.000000,0.000000,0.000000;
#CREDIT:;
#DISPLAYBPM:128.000000:150.000000;
#NOTES:
0000
0000
0000
0000
,
0000
0000
0000
0000
,
0000
0000
0000
0000
,
0000
0000
0000
0000
,
0000
0000
0000
0000
,
1000
0200
0010
0000
0001
0000
1300
0000
,
0001
0200
0010
0000
1000
0000
0301
0000
,
1000
0020
0100
0000
0001
0000
1030
0000
,
0001
0020
0100
0000
1000
0000
0031
0001
,
1100
0000
0000
0000
0001
0000
1000
0000
0010
0000
0000
0100
0001
0000
0100
0000
,
0010
0000
1000
0000
0100
0000
1000
0000
0010
0000
0000
1000
0001
0000
1000
0000
,
0101
0000
0000
0000
1000
0000
0001
0000
0010
0000
0000
0100
1000
0000
0100
0000
,
0010
0000
0001
0000
0100
0000
0001
0000
0010
0000
0000
0100
1000
0000
0010
0000
,
0101
0000
0000
0000
0110
0000
0000
0000
1100
0000
0000
0001
1000
0000
0001
0000
,
1010
0000
0000
0000
0110
0000
0000
0000
0011
0000
0000
1000
0001
0000
1000
0000
,
0010
0000
0100
0000
0001
0000
1000
0000
0100
0010
0100
0010
0100
0010
0100
0010
,
0002
0003
0000
0000
2000
3000
0000
0000
0020
0030
0200
0300
2002
3003
0000
0000
,
0001
1000
0000
0000
0001
1000
0000
0000
0002
0000
0003
0100
0010
0000
0010
0000
,
0002
0000
0003
0010
0100
0000
0100
0000
0002
0000
0003
1000
0010
0000
0000
0000
,
0101
0000
0000
0000
1100
0000
0000
0000
0002
0000
0003
0010
0100
0000
0001
0000
,
0100
0000
1000
0000
0100
0000
0010
0000
0002
1000
0000
0000
0000
0000
0003
0000
,
0100
0000
0010
0100
0010
0100
0010
0000
2000
0000
3000
0010
0100
0000
0100
0000
,
2000
0000
3000
0100
0010
0000
0010
0000
2000
0000
3000
0001
0100
0000
0001
0000
,
1000
0000
0100
0000
0010
0000
1000
0000
0010
0000
0001
0000
0100
0000
0001
0010
,
0001
0000
0100
0000
0010
1000
0010
0000
1000
0100
0010
0000
1001
0000
0000
0000
,
1000
0001
0000
0000
1000
0001
0000
0000
2000
0000
3010
0000
0100
0010
0100
0000
,
0002
0000
0013
0000
0100
0010
0100
0000
2000
0000
3010
0000
0100
0000
0100
0000
,
0011
0000
0000
0000
1010
0000
0000
0000
0002
0000
0013
0000
0100
0010
0100
0000
,
0010
0000
0001
0000
0100
0000
1000
0000
0200
0010
0000
0000
0000
0000
0300
0000
,
0001
0000
0010
0100
0010
0100
0010
0000
0002
0000
0103
0000
0010
0100
0010
0000
,
2000
0000
3100
0000
0010
0100
0010
0000
0002
0000
1003
0000
0010
0000
0000
0000
,
1001
0000
1000
0000
0010
0100
0001
0000
0010
0000
0100
0000
1000
0000
0000
0000
,
0002
0000
0000
2000
0000
3003
0000
0000
,
0011
0000
0100
0000
1001
0000
0000
0000
1200
0000
0000
0310
0001
0000
1000
0000
,
1010
0000
0100
0000
1001
0000
0000
0000
0201
0000
0000
0310
1000
0000
0001
0000
,
1010
0000
0001
0000
1100
0000
0000
0000
2001
0000
0000
3100
0010
0000
0001
0000
,
0011
0000
0100
0000
1001
0000
0000
0000
0102
0000
0000
0013
0100
0000
1000
0000
,
1100
0000
0100
0000
0001
0000
0100
0000
2000
0000
0000
3001
0100
0000
0100
0000
,
0011
0000
0010
0000
1000
0000
0010
0000
0002
0000
0000
1003
0010
0000
0010
0000
,
0101
0000
0100
0000
1000
0000
0100
0000
0002
0000
0000
1003
0010
0000
0010
0000
,
1010
0000
0010
0000
0001
0000
0010
0000
2000
0000
0000
3001
0010
0000
0010
0000
,
1100
0000
0001
0000
0110
0000
0000
0000
0011
0000
0000
1000
0010
0000
0100
0000
,
0101
0000
1000
0000
0110
0000
0000
0000
1010
0000
0000
0001
0010
0000
0100
0000
,
1000
1000
0010
0010
0100
0100
0001
0001
,
2000
0000
3000
0000
0002
0000
0003
0000
0020
0030
0200
0300
2002
0000
3003
0000
,
0001
0010
0100
0000
1001
0000
1000
0000
0010
0100
0000
0100
0002
0000
0003
0000
,
0010
0100
0000
0100
2000
0000
3000
0000
0010
0100
0000
0100
0002
0000
0003
0000
,
1010
0000
0000
0000
0101
0000
0000
0000
1100
0000
0000
0100
0010
0000
0001
0000
,
0100
1000
0100
0000
0010
1000
0010
1000
0002
0000
0003
0000
0020
0000
0030
0000
,
0100
1000
0001
0100
0010
0000
1000
0000
0001
0010
0000
0010
0200
0000
0300
0000
,
1000
0010
0000
0010
0200
0000
0300
0000
0001
0010
0000
0010
0100
0000
0000
0000
,
1000
0000
0001
0000
0100
0000
0010
0000
0001
0000
0010
0000
1000
0000
0001
0010
,
0001
0000
0010
0100
0010
0000
0100
1000
0010
0100
0001
0010
0001
0000
0000
0000
,
0001
1000
0100
0000
0011
0000
1000
0000
0010
0100
0010
1000
0200
0000
0300
0000
,
0010
0100
0010
0001
0200
0000
0300
0000
0010
0100
0010
1000
0200
0000
0300
0000
,
0011
0000
0000
0000
1100
0000
0000
0000
0001
0000
0100
0010
0100
0000
1000
0000
,
0100
0001
0010
1000
0002
0003
0200
0300
,
0010
0001
0010
0100
1000
0000
0010
0000
0100
0010
0100
0001
2000
0000
3000
0000
,
0100
0010
0100
1000
0002
0000
0003
0000
0100
0010
0100
0001
2000
0000
3000
0000
,
0101
0000
0100
0000
0010
0001
0010
0100
0001
0000
1000
0000
0010
0000
0000
0000
,
2000
0000
0000
0002
0000
0000
3003
0000
,
1100
0001
0110
0001
1010
0000
1001
0000
,
0101
1000
0110
1000
0011
0000
1001
0000
,
1100
0010
1001
0010
0101
0000
0110
0000
,
0011
0100
1001
0100
1010
0000
0110
0000
,
0011
1000
1100
0001
0011
0000
0110
0000
,
1010
0001
0101
1000
1010
0000
0110
0000
,
0101
0010
0110
0100
1010
0000
1001
0000
,
2000
0000
0000
0000
0000
0000
0002
0000
3003
0000
1000
0001
1000
0000
0010
0000
,
0100
0000
0000
0000
;

//---------------dance-single - ----------------
#NOTEDATA:;
#CHARTNAME:;
#STEPSTYPE:dance-single;
#DESCRIPTION:;
#CHARTSTYLE:;
#DIFFICULTY:Hard;
#METER:16;
#RADARVALUES:0.737435,0.812048,0.633081,0.584382,0.657430,636.000000,558.000000,78.000000,72.000000,0.000000,0.000000,0.000000,0.000000,0.000000,0.737435,0.812048,0.633081,0.584382,0.657430,636.000000,558.000000,78.000000,72.000000,0.000000,0.000000,0.000000,0.000000,0.000000;
#CREDIT:;
#DISPLAYBPM:128.000000:150.000000;
#NOTES:
// measure 0
0000
0000
0000
0000
,  // measure 1
0000
0000
0000
0000
,  // measure 2
0000
0000
0000
0000
,  // measure 3
0000
0000
0000
0000
,  // measure 4
0000
0000
0000
0000
,  // measure 5
1000
0200
0001
0000
1300
0000
1000
0000
,  // measure 6
0001
0200
1000
0000
0301
0000
0001
0000
,  // measure 7
1000
0020
0001
0000
1030
0000
1000
0000
,  // measure 8
0001
0020
1000
0000
0031
0000
1001
0010
,  // measure 9
0101
0000
1000
0000
0100
0000
0001
0000
0200
0000
0000
1300
0001
0000
0001
0000
,  // measure 10
1100
0000
0001
0000
0100
0000
1000
0000
0200
0000
0000
0301
1000
0000
1000
0000
,  // measure 11
0110
0000
1000
0000
0010
0000
0001
0000
0020
0000
0000
1030
0001
0000
0001
0000
,  // measure 12
0110
0000
0001
0000
0010
0000
1000
0000
0020
0000
0000
0031
1000
0000
1000
0000
,  // measure 13
0011
0000
1000
0000
0010
0000
0000
0000
1100
0000
0000
0001
1000
0000
0010
0000
,  // measure 14
1010
0000
0001
0000
0010
0000
0000
0000
1100
0000
0001
1000
0100
0000
0010
0000
,  // measure 15
0001
1000
0001
1000
0010
0100
0010
0100
0001
1000
0100
0010
0001
0100
0010
1000
,  // measure 16
0002
0003
0000
0000
2000
3000
0000
0000
0020
0030
0200
0300
2002
0000
3003
0000
,  // measure 17
0001
1000
0000
0000
1000
0001
0000
0000
2100
0000
3000
0001
0010
0100
0010
0100
,  // measure 18
2000
0000
3000
0001
0100
0010
0100
0010
2000
0000
3000
0100
0010
0000
0000
0000
,  // measure 19
0021
0000
0000
0130
1000
0000
0000
0000
1001
0000
0000
1000
0001
0100
0010
1000
,  // measure 20
0100
0010
2000
0000
3010
0100
0010
0001
0200
0010
0000
0000
0000
0000
0000
0000
,  // measure 21
1300
0000
1000
0100
0010
0100
0001
0010
0200
0000
0000
1300
0001
0010
0001
0010
,  // measure 22
0200
0000
0000
1300
0001
0100
0001
0100
0020
0000
1030
0000
0001
0000
0001
1000
,  // measure 23
0001
0000
0010
0000
1000
0000
0010
0100
0010
0000
0001
0000
0100
0010
0100
0001
,  // measure 24
1000
0000
0100
0010
0100
1000
0001
0000
1000
0010
0100
0001
0020
0000
0000
0000
,  // measure 25
0031
1000
0000
0000
1000
0001
0000
0000
2000
0000
3100
0010
0001
1000
0001
1000
,  // measure 26
0002
0000
0103
0010
1000
0001
1000
0001
0010
0100
2000
0000
0002
0000
3003
0000
,  // measure 27
1020
0000
0000
0130
0001
0000
0000
0000
0011
0000
0001
1000
0100
0010
0100
1000
,  // measure 28
0001
0100
0010
0100
0001
0010
0100
0010
0200
1000
0000
0000
0000
0000
0000
0000
,  // measure 29
0301
0000
0001
0100
0010
0001
1000
0010
0200
0000
0301
1000
0010
1000
0010
1000
,  // measure 30
0200
0000
1300
0001
0010
0001
0010
0001
0100
0010
1000
0000
1001
0000
0000
0000
,  // measure 31
1100
0000
0001
1000
0010
1000
0100
1000
0001
0100
0010
0000
1000
0000
0001
0000
,  // measure 32
2000
0000
0000
0000
0000
0000
0000
0000
0000
0002
0000
0000
3003
0000
0000
1000
0001
1000
0001
0000
0000
0100
0000
0000
,  // measure 33
1010
0000
0100
0000
0011
0000
0100
0000
1001
0000
0000
1000
0001
0000
1000
0000
,  // measure 34
0011
0000
0100
0000
1010
0000
0100
0000
1001
0000
0000
0001
1000
0000
0001
0000
,  // measure 35
1100
0000
0010
0000
0101
0000
0010
0000
1001
0000
0000
1000
0001
0000
1000
0000
,  // measure 36
0101
0000
0010
0000
1100
0000
0010
0000
1001
0000
0000
0001
1000
0000
0001
0000
,  // measure 37
1010
0000
0001
0000
1100
0000
0001
0000
1010
0000
0000
1000
0100
0000
0010
0000
,  // measure 38
0101
0000
1000
0000
0011
0000
1000
0000
0101
0000
0000
0001
0100
0000
0010
0000
,  // measure 39
1001
0000
0010
0000
1100
0000
0010
0000
1001
0000
0000
1000
0010
0000
0100
0000
,  // measure 40
1001
0000
0010
0000
0101
0000
0010
0000
1001
0000
0000
0001
0010
0000
0100
0000
,  // measure 41
1100
0000
1000
0000
0101
0000
0000
0000
0011
0000
0000
0001
1000
0000
0010
0000
,  // measure 42
1010
0000
1000
0000
0011
0000
0000
0000
0101
0000
0000
0001
1000
0000
0010
0000
,  // measure 43
0101
1000
0001
0010
0100
1000
0010
0100
,  // measure 44
0002
0003
0000
0000
2000
3000
0000
0000
0020
0030
0200
0300
2002
3003
0000
0000
,  // measure 45
1000
0100
0001
0000
0110
0000
0001
1000
0001
0010
0000
0100
0002
0000
0003
0000
,  // measure 46
1000
0010
0000
0100
2000
0000
3000
0000
0001
0100
0000
0010
2000
0000
3000
0000
,  // measure 47
1200
0000
0000
0310
0002
0000
0000
0003
2000
0000
3010
0100
0001
0010
0100
0010
,  // measure 48
0001
1000
0020
0000
0130
0001
1000
0010
0200
0000
0000
0000
0001
0000
0000
0000
,  // measure 49
1300
0000
0000
0000
0000
0000
0000
0000
0000
0000
0000
0000
0000
0000
0001
0000
0000
0000
0000
0000
0000
0000
0000
0000
0010
0000
0000
0000
0000
0000
0000
0000
0000
0000
0000
0000
0000
0000
0100
0000
0000
0000
0000
0000
0000
0000
0000
0000
0001
0000
0000
0000
0000
0000
0000
0000
0000
0000
0000
0000
0000
0000
0000
0000
0000
0000
0000
0000
0000
0000
0000
0000
0010
0000
0000
0000
0000
0000
0000
0000
0000
0000
0000
0000
0000
0000
0000
0000
0000
0000
0000
0000
0000
0000
0000
0000
1000
0000
0000
0000
0000
0000
0000
0000
0000
0000
0000
0000
0010
0000
0000
0000
0000
0000
0000
0000
0000
0000
0000
0000
0000
0000
0000
0000
0000
0000
0000
0000
0000
0000
0000
0000
0100
0000
0000
0000
0000
0000
0000
0000
0000
0000
0000
0000
2000
0000
0000
0000
0000
0000
0000
0000
0000
0000
0000
0000
0000
0000
0000
0000
0000
0000
0000
0000
0000
0000
0000
0000
3000
0000
0000
0000
0000
0000
0000
0000
0000
0000
0000
0000
0000
0000
0000
0000
0000
0000
0000
0000
0000
0000
0000
0000
,  // measure 50
0001
0100
0000
0010
0002
0000
0003
0000
1000
0100
0000
0001
0020
0000
0030
0000
,  // measure 51
0100
0000
0100
0000
1001
0000
1000
0001
0100
0000
0010
0000
0010
0000
1000
0001
,  // measure 52
0100
0010
0100
0000
0001
0000
1000
0001
0010
0100
0010
0100
2000
0000
0000
0000
,  // measure 53
3010
0100
0010
0000
1001
0000
1000
0001
0010
1000
0010
0100
2000
0000
0000
0000
,  // measure 54
3010
0001
0010
0100
0002
0000
0000
0000
0013
1000
0010
0100
2000
0000
0000
0000
,  // measure 55
3020
0000
0000
0130
0002
0000
0000
0003
0010
1000
0010
0100
0010
0001
0100
0010
,  // measure 56
0100
0001
0010
0001
1000
0010
0100
0001
2000
0000
0000
0000
3002
0000
0000
0000
,  // measure 57
0013
0000
0000
0000
0000
0000
0000
0000
0000
0000
0000
0000
0000
0000
0100
0000
0000
0000
0000
0000
0000
0000
0000
0000
0010
0000
0000
0000
0000
0000
0000
0000
0000
0000
0000
0000
0000
0000
0001
0000
0000
0000
0000
0000
0000
0000
0000
0000
1000
0000
0000
0000
0000
0000
0000
0000
0000
0000
0000
0000
0000
0000
0000
0000
0000
0000
0000
0000
0000
0000
0000
0000
0010
0000
0000
0000
0000
0000
0000
0000
0000
0000
0000
0000
0000
0000
0000
0000
0000
0000
0000
0000
0000
0000
0000
0000
0001
0000
0000
0000
0000
0000
0000
0000
0000
0000
0000
0000
1000
0000
0000
0000
0000
0000
0000
0000
0000
0000
0000
0000
0100
0000
0000
0000
0000
0000
0000
0000
0000
0000
0000
0000
0001
0000
0000
0000
0000
0000
0000
0000
0000
0000
0000
0000
0020
0000
0000
0000
0000
0000
0000
0000
0000
0000
0000
0000
0000
0000
0000
0000
0000
0000
0000
0000
0000
0000
0000
0000
0000
0000
0000
0000
0000
0000
0000
0000
0000
0000
0000
0000
0000
0000
0000
0000
0000
0000
0000
0000
0000
0000
0000
0000
,  // measure 58
1030
0001
0100
1000
0020
0000
0000
0000
1030
0001
0100
0000
0002
0000
0000
0000
,  // measure 59
0023
0000
1030
0001
0100
0010
0100
1000
0010
0100
0010
0000
1000
0000
0001
0000
,  // measure 60
1100
0000
0000
0000
0000
0000
0000
0000
0000
0000
0000
0000
0011
0000
0000
0000
0000
0000
0000
0000
1000
0001
1000
0001
1000
0000
0000
0000
0010
0000
0000
0000
,  // measure 61
0101
0000
0100
0000
1200
0000
0000
0301
1000
0000
0000
0000
1001
0000
0000
0000
,  // measure 62
1100
0000
0100
0000
0201
0000
0000
1300
0001
0000
0000
0000
1001
0000
0000
0000
,  // measure 63
0011
0000
0010
0000
1020
0000
0000
0031
1000
0000
0000
0000
1001
0000
0000
0000
,  // measure 64
1010
0000
0010
0000
0021
0000
0000
1030
0001
0000
0000
0000
0110
0000
0000
0000
,  // measure 65
1100
0000
0001
0000
0021
0000
0030
0100
1000
0000
0000
0000
0110
0000
0000
0000
,  // measure 66
0101
0000
1000
0000
1020
0000
0030
0100
0001
0000
0000
0000
0110
0000
0000
0000
,  // measure 67
0011
0000
0010
0000
0210
0000
0000
1300
0001
0000
0000
0000
1001
0000
0000
0000
,  // measure 68
0220
0000
0000
0000
0000
0000
0000
0000
0330
0000
0000
0000
1001
0000
0000
0000
0000
0000
0000
0000
1000
0001
1000
0001
1000
0000
0000
0000
0010
0000
0000
0000
,  // measure 69
0100
0000
0000
0000
;
