#VERSION:0.83;
#TITLE:Planet Zero;
#SUBTITLE:;
#ARTIST:Hacktivist;
#TITLETRANSLIT:;
#SUBTITLETRANSLIT:;
#ARTISTTRANSLIT:;
#GENRE:;
#ORIGIN:;
#CREDIT:;
#BANNER:Planet Zero.png;
#BACKGROUND:Planet Zero-bg.png;
#PREVIEWVID:;
#JACKET:Planet Zero-jacket.png;
#CDIMAGE:;
#DISCIMAGE:;
#LYRICSPATH:;
#CDTITLE:;
#MUSIC:Planet Zero.ogg;
#OFFSET:-0.025000;
#SAMPLESTART:35.993000;
#SAMPLELENGTH:12.000000;
#SELECTABLE:YES;
#BPMS:0.000=320.000,
60.000=160.000,
62.000=320.000,
318.000=160.000,
322.000=320.000,
456.000=160.000,
486.000=320.000;
#STOPS:;
#DELAYS:;
#WARPS:;
#TIMESIGNATURES:0.000=4=4;
#TICKCOUNTS:0.000=4;
#COMBOS:0.000=1;
#SPEEDS:0.000=1.000=0.000=0;
#SCROLLS:0.000=1.000;
#FAKES:;
#LABELS:0.000=Song Start;
#BGCHANGES:-4.000=Planet Zero.avi=1.000=0=0=0=StretchNoLoop====,
99999=-nosongbg-=1.000=0=0=0 // don't automatically add -songbackground-
;
#KEYSOUNDS:;
#ATTACKS:
;

//---------------dance-single - ----------------
#NOTEDATA:;
#CHARTNAME:;
#STEPSTYPE:dance-single;
#DESCRIPTION:;
#CHARTSTYLE:;
#DIFFICULTY:Challenge;
#METER:18;
#RADARVALUES:0.971839,1.115444,0.461336,0.549209,0.065905,929.000000,866.000000,63.000000,75.000000,0.000000,0.000000,0.000000,0.000000,0.000000,0.971839,1.115444,0.461336,0.549209,0.065905,929.000000,866.000000,63.000000,75.000000,0.000000,0.000000,0.000000,0.000000,0.000000;
#CREDIT:Karl with a K;
#NOTES:
0000
0000
0000
0000
,
0000
0000
0000
0000
,
0000
0000
0000
0000
,
0000
0000
0000
0000
,
0000
0000
0000
0000
,
0000
0000
0000
0000
,
0000
0000
0000
0000
,
0000
0000
0000
0000
,
1000
0100
0020
0000
0130
0020
0000
0000
,
0031
0010
0100
0010
0100
1000
0010
0100
,
0010
1000
0001
0100
0001
2000
0000
0000
,
3001
0100
0020
0000
0130
0020
0000
0000
,
0130
0001
1000
0100
1000
0002
0000
0000
,
1003
0010
0100
0010
0001
0010
0100
0010
,
1000
0001
0010
0100
0001
0100
0010
0100
,
0110
0000
0000
0000
1000
0010
0100
0000
,
0010
0100
0001
0000
1001
0000
1000
0100
,
0010
0001
0010
0200
0000
0000
1300
0001
,
0100
0010
1000
0000
1001
0000
0001
0010
,
0001
2000
0000
0000
3001
0100
0000
0001
,
0010
0001
1000
0000
1001
0000
0001
0010
,
0001
0010
0100
0000
0010
0000
0100
1000
,
0001
0100
0001
0000
1001
0000
0001
1000
,
0000
1000
0001
0000
1000
0000
0100
0010
,
0000
0010
0001
0000
1001
0000
1000
0010
,
0100
0010
0100
0000
0010
0000
1000
0001
,
0010
0100
1000
0000
0001
0100
0000
0200
,
0000
0301
0100
0000
0001
1000
0000
1000
,
0000
0100
1000
0000
1001
0000
0001
0010
,
0001
0100
0010
0100
0001
0000
0010
0001
,
1000
0001
0010
0000
0100
0001
0000
0100
,
0010
1000
0010
0100
1000
0001
0100
0000
,
0100
0010
1000
0000
0001
1000
0001
0100
,
0000
0010
0100
0010
0100
0000
0001
1000
,
0100
0010
0001
0000
1001
0000
1000
0010
,
0000
0010
1000
0000
0001
0010
0000
0010
,
0000
0001
1000
0000
1000
0100
0010
0100
,
1000
0001
0100
0010
1000
0000
0100
1000
,
0001
0100
0010
0000
0100
0010
0000
0010
,
0000
0100
0001
0000
0001
0100
0010
0000
,
0100
0010
1000
0000
1001
0000
0001
0010
,
0100
0010
0100
0000
1200
0000
0000
0000
,
0001
0000
0000
0000
1300
0100
1000
0000
,
1000
0100
1000
0000
0100
1000
0001
0000
,
1000
0001
1000
0000
1001
0000
1000
0100
,
1000
0000
0000
0010
0000
0000
0100
0000
0000
0010
0000
0000
2000
0000
0000
0000
0000
0000
0000
0000
0001
0000
0000
0000
,
0000
0000
0000
0000
0100
0000
0000
0000
0000
0000
0000
0000
3010
0000
0000
1000
0000
0000
0100
0000
0000
0000
0000
0000
,
0010
0001
0100
0000
0001
0100
0010
0000
,
0100
0010
1000
0000
1000
0100
0010
0000
,
0100
0010
0001
0000
1000
0100
0010
0000
,
0100
0010
0001
0000
0001
0100
0010
0000
,
0100
0010
1000
0000
1000
0100
0010
0100
,
0010
0002
1000
0000
1003
0010
0100
0010
,
0100
0001
1000
0000
1010
0000
0101
0000
,
1010
1001
0011
1100
,
0022
0000
0033
0000
1000
0100
0010
0000
,
0100
0010
0001
0000
0001
0100
0010
0000
,
0100
0010
1000
0002
0000
0103
0010
0000
,
0100
0020
0000
0000
1030
0100
0010
0000
,
0100
0010
0001
0000
0001
0100
0010
0100
,
0010
2000
0001
0000
3001
0010
0100
0010
,
0100
1000
0001
0000
0011
0000
1100
0000
,
0011
1001
1010
0101
,
2020
0000
3030
0000
1000
0010
0100
0000
,
0010
0002
0000
0000
0013
0100
0001
1000
,
0100
0010
0100
0002
0000
0000
0103
0010
,
0100
0002
0000
0000
0103
0010
0001
0000
,
0100
2000
0000
0000
3100
0010
1000
0010
,
0100
2000
0000
0000
3100
0010
1000
0001
,
0010
0100
0010
2000
0000
0000
3010
0100
,
0010
2000
0000
0000
3010
0100
1000
0000
,
0010
0002
0000
0000
0013
0100
0001
0000
,
0010
2000
0000
0000
3010
0100
1000
0001
,
0100
0010
0100
2000
0000
0000
3100
0010
,
0100
2000
0000
0000
3100
0010
1000
0000
,
0001
0000
0000
0010
0000
0100
0000
0010
0000
0100
0000
0000
1000
0000
0000
0001
0000
0000
0000
0000
0000
0100
0000
0000
,
0010
0002
0000
0000
0013
0100
0001
1000
,
0100
0010
0100
0002
0000
0000
0103
0010
,
0100
0002
0000
0000
0103
0010
0001
0100
,
0010
1000
0100
0010
0000
0000
0000
0000
,
0000
0000
0000
0000
0001
0100
0001
0000
,
0000
0100
0001
0000
0100
0000
0010
0100
,
0000
0010
1000
0010
1000
0000
0000
0010
,
1000
0000
1001
0001
,
0010
0001
1000
0000
0000
0001
0010
0000
,
0001
1000
0001
0000
0100
0010
0100
0010
,
0000
0010
1000
0000
0000
0100
0010
0100
,
0000
1000
0001
0000
1001
0000
1000
0010
,
0000
1000
0100
0010
1000
0010
0100
1000
,
0100
0010
0110
0010
,
0000
0001
0100
0000
0000
0010
1000
0000
,
0001
0000
0000
1000
0000
0000
0100
0000
0000
0000
0000
0000
1000
0000
0000
0000
0100
0000
0000
0000
0010
0000
0000
0000
,
0002
0000
0103
0000
0000
0001
0010
0001
,
0000
1000
0001
0000
1001
0000
0001
0100
,
0000
0001
0100
0001
0000
0000
0000
0100
,
0010
0000
0110
0010
,
0000
0010
1000
0000
0010
0100
1000
0100
,
0000
0001
1000
0000
1001
0000
1000
0100
,
0000
1000
0100
0010
0001
0000
0000
1000
,
0001
1000
0000
0000
1001
0000
0001
0000
,
0000
0001
0010
0000
0000
0001
0100
0010
,
1000
0010
1000
0000
0100
0010
0001
0100
,
0000
0010
1000
0000
0000
0001
1000
0001
,
0000
0001
0010
0000
0011
0000
0010
0100
,
0000
1000
0100
0000
0000
0000
0000
0010
,
0001
0000
1001
0001
,
0000
0001
0100
0000
0000
0001
0100
0000
,
0010
1000
0010
0000
0100
0010
0100
0010
,
0000
0100
0001
0000
0000
0100
0010
0100
,
0000
0220
0330
0000
1001
0000
1000
0100
,
0000
0010
0100
0010
0000
1000
0000
0010
,
0100
0000
0000
0000
0000
0000
0110
0000
0000
0010
0000
0001
,
0000
0100
0000
0001
0000
0000
0002
0000
2000
0000
0003
0000
,
3001
1000
0001
0000
0001
1000
0000
0000
,
0000
0000
0000
0000
,
0001
0100
0001
0000
0100
0001
0000
0000
0000
0000
0000
0000
0000
0000
0000
0000
,
0000
0000
0000
0000
0000
0000
0000
0002
,
0013
0110
1100
1001
1010
0110
0102
0000
,
2003
0000
0000
3200
0000
0000
0000
0000
,
0320
1000
0100
0000
0032
0000
0000
0000
,
0203
0000
0000
0000
0320
0000
0000
0001
,
0130
0010
1000
0000
0000
0000
0000
0000
0001
0000
0010
0000
0100
0000
0000
0000
,
0010
0100
1000
0000
1001
0000
0001
0100
,
0010
0100
0010
0000
1020
0000
0000
0000
,
0001
0000
0000
0000
1030
0010
1000
0000
,
1000
0010
1000
0000
0010
1000
0001
0000
,
1000
0001
1000
0000
1001
0000
1000
0100
,
1000
0000
0000
0010
0000
0000
0100
0000
0000
0010
0000
0000
2000
0000
0000
0000
0000
0000
0000
0000
0001
0000
0000
0000
,
0000
0000
0000
0000
0010
0000
0000
0000
0000
0000
0000
0000
3100
0000
0000
1000
0000
0000
0100
0000
0000
0000
0000
0000
,
0010
0001
1000
0000
1000
0010
0100
0000
,
0010
0100
0001
0000
1001
0000
1000
0100
,
0010
0100
0010
0000
0021
0000
0000
0000
,
1000
0000
0000
0000
0031
0010
0001
0000
,
0001
0010
0001
0000
0010
0001
1000
0000
,
0001
1000
0001
0000
1001
0000
0001
0100
,
0001
0000
0000
0010
0000
0000
0100
0000
0000
0010
0000
0000
0002
0000
0000
0000
0000
0000
0000
0000
1000
0000
0000
0000
,
0000
0000
0000
0000
0010
0000
0000
0000
0000
0000
0000
0000
0103
0000
0000
0001
0000
0000
0010
0000
0000
0000
0000
0000
,
0100
1000
0010
0000
1000
0100
0010
0000
,
0100
0010
0001
0000
0001
0100
0010
0000
,
0100
0010
1000
0002
0000
0103
0010
0000
,
0100
0020
0000
0000
1030
0100
0010
0000
,
0100
0010
0001
0000
0001
0100
0010
0100
,
0010
2000
0001
0000
3001
0010
0100
0010
,
0100
1000
0001
0000
0011
0000
0101
0000
,
0011
1001
1010
1100
,
2020
0000
3030
0000
0001
0100
0010
0000
,
0100
0010
1000
0000
1000
0100
0010
0100
,
0010
0001
1000
0200
0000
0310
0100
0000
,
0100
0020
0000
0000
0031
0100
0010
0000
,
0100
0010
1000
0000
1000
0100
0010
0100
,
0010
0002
1000
0000
1003
0010
0100
0010
,
0100
0001
1000
0000
1010
0000
1100
0000
,
1010
1001
0011
0101
,
0022
0000
0033
0000
0001
0010
0001
0000
,
0010
2000
0000
0000
3010
0001
1000
0010
,
0100
0001
0100
2000
0000
0000
3100
1000
,
0001
0020
0000
0000
1030
0001
1000
0000
,
0100
0002
0000
0000
0103
1000
0001
1000
,
0100
0002
0000
0000
0103
1000
0001
1000
,
0001
1000
0100
0002
0000
0000
0103
0001
,
1000
0020
0000
0000
0031
0100
0001
0000
,
0100
2000
0000
0000
3100
0001
1000
0000
,
0100
0002
0000
0000
0103
1000
0001
0100
,
0010
1000
0010
0002
0000
0000
0013
0001
,
1000
0200
0000
0000
0301
0010
0001
0000
,
0010
2000
0000
0000
3010
0100
0000
1000
,
0100
0002
0000
0000
0103
1000
0001
0100
,
0001
1000
0100
0002
0000
0000
0103
0001
,
1000
0020
0000
0000
0031
0100
0001
0100
,
0010
0100
0010
0100
0000
0000
0000
0000
0000
0000
0000
0000
;

//---------------dance-single - ----------------
#NOTEDATA:;
#CHARTNAME:;
#STEPSTYPE:dance-single;
#DESCRIPTION:;
#CHARTSTYLE:;
#DIFFICULTY:Hard;
#METER:16;
#RADARVALUES:0.819106,0.867567,0.190393,0.571178,0.029291,783.000000,757.000000,26.000000,78.000000,0.000000,0.000000,0.000000,0.000000,0.000000,0.819106,0.867567,0.190393,0.571178,0.029291,783.000000,757.000000,26.000000,78.000000,0.000000,0.000000,0.000000,0.000000,0.000000;
#CREDIT:Karl with a K;
#NOTES:
0000
0000
0000
0000
,
0000
0000
0000
0000
,
0000
0000
0000
0000
,
0000
0000
0000
0000
,
0000
0000
0000
0000
,
0000
0000
0000
0000
,
0000
0000
0000
0000
,
0000
0000
0000
0000
,
1000
0010
1000
0000
0001
2000
0000
0000
,
3001
0010
0001
0000
0001
0010
0100
0000
,
1000
0100
1000
0000
0100
2000
0000
0000
,
3001
0100
0001
0000
0001
0100
0000
0000
,
0001
0010
0001
0000
0010
0002
0000
0000
,
1003
0010
1000
0000
1000
0010
1000
0010
,
0001
0000
0010
1000
0000
0100
0010
0000
,
0110
0000
1000
0010
,
0100
0000
0001
0000
0100
0000
0010
0100
,
0010
0000
0100
0010
1000
0000
0100
0010
,
0100
0000
0010
0000
0001
0000
0010
0100
,
0010
0100
1000
0010
,
0100
0001
0100
0000
0001
0000
0010
0100
,
0010
0100
0010
0000
0001
0000
0010
0100
,
0010
0000
0100
0000
1000
0000
0010
0100
,
0000
0010
0100
0010
1000
0000
0010
1000
,
0000
0010
1000
0000
0100
0000
0010
0001
,
0010
0001
0010
0000
0100
0000
0010
0000
,
0001
0010
0001
0000
0100
0001
0000
0100
,
0000
0010
1000
0000
0100
1000
0000
0100
,
0000
0010
0001
0000
0010
0001
0000
0010
,
0000
0100
1000
0100
1000
0000
0100
0000
,
0010
0000
0001
0000
0100
1000
0000
0000
,
0100
0010
0100
0010
1000
0000
0100
0000
,
0010
0000
0100
0000
0010
0001
0000
1000
,
0000
0010
1000
0000
0001
0000
0100
0000
,
0010
0000
0100
0000
0010
0000
1000
0001
,
0000
1000
0001
0000
0010
0001
0000
1000
,
0000
0001
1000
0000
0100
0000
1000
0001
,
0000
0001
1000
0001
0100
0000
0001
0000
,
0010
0001
0010
0000
0100
0010
0000
0100
,
0000
0010
0100
0000
0010
0000
0001
0000
,
0100
0010
1000
0100
,
0010
0100
1002
0000
,
0100
0000
0013
0000
,
0001
0010
0200
0000
,
1300
0000
1000
0000
0010
0000
0100
0010
,
0100
0000
0000
0010
0000
0000
0100
0000
0000
0000
0000
0000
1000
0000
0000
0000
0000
0000
0000
0000
0100
0000
0000
0000
,
0000
0000
0001
0000
0000
0000
0010
0000
0000
0000
0000
0000
,
0110
0000
0000
0000
0001
0100
0001
0000
,
0100
0001
0100
0000
0001
0000
0010
0000
,
0110
0000
0100
0000
1000
0100
1000
0000
,
0100
1000
0100
0000
1000
0000
0100
0000
,
0110
0000
0010
0000
0001
0100
0001
0000
,
0100
0001
0100
0000
0001
0000
0100
0000
,
0110
0010
2000
3020
,
0032
2003
3200
0302
,
2003
0000
0000
0000
3001
0010
0001
0000
,
0010
0001
0010
0000
0001
0000
0100
0000
,
0110
0000
0010
0000
1000
0010
1000
0000
,
0010
1000
0010
0000
1000
0000
0010
0000
,
0110
0000
0100
0000
0001
0010
0001
0000
,
0010
0001
0010
0000
0001
0000
0010
0000
,
0011
0001
0002
0023
,
2030
3002
0203
2300
,
3002
0000
0000
0000
0013
0001
0010
0000
,
0001
0200
0000
0000
0301
0100
0001
0100
,
0001
0100
0001
0020
0000
0000
0031
0010
,
0001
0200
0000
0000
0301
1000
0100
0000
,
1000
0020
0000
0000
1030
0010
0000
0100
,
0001
0020
0000
0000
0031
0010
0001
0010
,
0001
0010
0001
0200
0000
0000
0301
0100
,
0001
0020
0000
0000
0031
1000
0010
0000
,
1000
0200
0000
0000
1300
0100
1000
0000
,
1000
0020
0000
0000
1030
0010
1000
0010
,
1000
0010
1000
0200
0000
0000
1300
0100
,
1000
0020
0000
0000
1030
0001
0010
0000
,
0001
0200
0001
0000
0301
1000
0000
0100
,
1000
0020
0000
0000
1030
0010
1000
0010
,
1000
0010
1000
0200
0000
0000
1300
0100
,
1000
0020
0000
0000
0130
0010
0100
0010
,
0100
0010
0100
0010
0000
0000
0000
0000
,
0000
0000
0000
0000
,
1000
0000
0100
0000
1000
0000
0010
1000
,
0000
0010
0100
0001
0000
0000
0000
0001
,
0010
0001
0100
0001
,
0010
0001
0000
0000
0000
0001
0100
0000
,
0001
0100
0001
0000
0100
0000
0010
0000
,
0100
0010
1000
0000
0100
1000
0100
0000
,
0010
0100
0010
0001
,
0010
0001
0000
0000
0020
0000
0230
0000
,
0301
0100
1000
0010
,
1010
1000
0010
0100
,
0001
1000
0001
0010
,
0011
0000
0001
0000
0000
0010
0100
0010
,
0000
0100
0010
0000
0001
0000
0100
0010
,
0000
0100
0000
0000
0001
0000
0000
0001
,
1000
0100
0010
0100
,
1000
0010
0001
0010
,
1000
0010
0100
0001
,
0010
0000
0001
0000
1001
0000
0000
1000
,
0100
1000
0000
0000
1100
0000
0010
0000
,
0000
0001
0100
0000
0010
0000
0100
0010
,
0100
0010
0100
0000
0001
1000
0010
1000
,
0000
0001
0010
0000
0000
0001
0010
0001
,
0000
0100
0010
0000
1000
0000
0010
0000
,
1000
0100
1000
0000
0000
0000
0000
0100
,
0010
0000
0001
0100
,
0000
0100
0010
0000
0100
0010
0100
0000
,
0010
1000
0010
0000
1000
0100
1000
0100
,
0000
0100
1000
0000
0001
1000
0001
0000
,
2002
3003
1001
0000
,
0001
0000
0100
0000
1000
0000
0000
0100
,
0001
0000
0010
1000
,
0020
0000
0230
0000
,
0310
0100
0010
0000
0220
0000
0330
0000
,
1000
1000
1000
1000
,
0001
1000
0001
0000
1001
0000
0000
0000
0001
0000
0000
0000
0001
0000
0000
0000
,
0001
0000
0001
0000
0001
0000
0001
0010
,
1000
0001
1000
0010
0001
0100
1000
0200
,
0001
0001
0001
0301
,
0010
0100
0020
0000
1000
0000
1000
0000
,
1000
0000
1000
0000
1000
0000
1030
0010
,
0001
0100
0010
0000
0000
0000
0000
0000
0010
0000
0000
0000
1000
0000
0000
0000
,
0100
0010
1000
0010
,
0001
0100
2001
0000
,
0010
0000
3100
0000
,
1000
0010
0200
0000
,
0301
0010
0001
0000
0010
0000
0100
0010
,
0100
0000
0000
0010
0000
0000
0100
0000
0000
0000
0000
0000
0001
0000
0000
0000
0000
0000
0000
0000
0100
0000
0000
0000
,
0000
0000
1000
0000
0000
0000
0020
0000
0000
0000
0000
0000
,
2030
0000
3100
1000
,
0010
0100
1000
0100
,
0001
0010
2001
0000
,
0010
0000
3100
0000
,
1000
0100
0010
0001
,
0100
0001
0100
0000
0010
0000
0100
0010
,
0100
0000
0000
0000
0000
0000
0100
0000
0000
0010
0000
0000
1000
0000
0000
0000
0000
0000
0000
0000
0010
0000
0000
0000
,
0000
0000
0001
0000
0000
0000
0010
0000
0000
0000
0000
0000
,
0110
0000
0000
0000
1000
0100
1000
0000
,
0100
1000
0100
0000
1000
0000
0010
0000
,
0110
0000
0100
0000
0001
0100
0001
0000
,
0100
0001
0100
0000
1000
0000
0100
0000
,
0110
0000
0010
0000
1000
0010
1000
0000
,
0010
1000
0010
0000
0001
0000
0010
0000
,
0110
0100
0002
0023
,
2030
3002
2003
3020
,
0032
0000
0000
0000
1003
0010
1000
0000
,
0010
1000
0010
0000
1000
0000
0100
0000
,
0110
0000
0010
0000
0001
0010
0001
0000
,
0010
0001
0010
0000
1000
0000
0010
0000
,
0110
0000
0100
0000
1000
0100
1000
0000
,
0100
1000
0100
0000
0001
0000
0100
0000
,
1100
1000
2000
3020
,
0032
2003
3002
0023
,
2030
0000
0000
0000
3010
1000
0010
0000
,
0100
2000
0000
0000
3100
0010
0100
0001
,
1000
0100
0010
2000
0000
0000
3010
0100
,
0010
2000
0000
0000
3010
0100
0010
0000
,
0100
0002
0000
0000
0103
0010
0000
0100
,
0010
2000
0000
0000
3010
0100
1000
0001
,
0100
0010
0100
2000
0000
0000
3100
0010
,
0100
2000
0000
0000
3100
0010
0100
0000
,
0010
0002
0000
0000
0013
0100
0010
0000
,
0100
2000
0000
0000
3100
0010
1000
0001
,
0010
0100
0010
2000
0000
0000
3010
0100
,
0010
2000
0000
0000
3010
0100
0010
0000
,
0100
0002
0000
0000
0103
0010
0000
0100
,
0010
2000
0000
0000
3010
0100
1000
0001
,
0100
0010
0100
2000
0000
0000
3100
0010
,
0100
2000
0000
0000
3100
0010
1000
0100
,
0010
0001
0010
0000
0000
0000
0000
0000
;

//---------------dance-single - ----------------
#NOTEDATA:;
#CHARTNAME:;
#STEPSTYPE:dance-single;
#DESCRIPTION:;
#CHARTSTYLE:;
#DIFFICULTY:Beginner;
#METER:7;
#RADARVALUES:0.263620,0.619691,0.168424,0.021968,0.000000,252.000000,229.000000,23.000000,3.000000,0.000000,0.000000,0.000000,0.000000,0.000000,0.263620,0.619691,0.168424,0.021968,0.000000,252.000000,229.000000,23.000000,3.000000,0.000000,0.000000,0.000000,0.000000,0.000000;
#CREDIT:Karl with a K;
#NOTES:
0000
0000
0000
0000
,
0000
0000
0000
0000
,
0000
0000
0000
0000
,
0000
0000
0000
0000
,
0000
0000
0000
0000
,
0000
0000
0000
0000
,
0000
0000
0000
0000
,
0000
0000
0000
0000
,
0001
0000
0000
0000
,
0000
0000
0000
0000
,
0001
0000
0000
0000
,
0000
0000
0000
0000
,
0001
0000
0000
0000
,
0000
0000
0000
0000
,
0001
0000
0000
0000
,
0001
0000
1000
0000
,
0000
0000
0100
0000
,
0000
0000
0010
0000
,
0000
0000
0001
0000
,
0000
0000
0001
0000
,
0000
0000
0100
0000
,
0000
0000
0010
0000
,
0000
0000
1000
0000
,
1000
0000
1000
0000
,
0000
0000
0010
0000
,
0000
0000
0100
0000
,
0000
0000
0001
0000
,
0000
0000
0001
0000
,
0000
0000
0010
0000
,
0000
0000
0100
0000
,
0000
0000
1000
0000
,
1000
0000
1000
0000
,
0000
0000
0010
0000
,
0000
0000
0001
0000
,
0000
0000
0010
0000
,
0000
0000
1000
0000
,
0000
0000
0100
0000
,
0000
0000
0001
0000
,
0000
0000
0100
0000
,
0100
0000
0100
0000
,
0000
0000
0010
0000
,
0000
0000
1000
0000
,
0010
0000
0001
0000
,
0000
0000
0001
0000
,
0000
0000
0100
0000
,
0000
0000
1000
0000
,
0100
0000
0001
0000
,
0000
0000
1000
0000
,
1000
0000
1000
0000
,
0000
0000
0001
0000
,
0001
0000
0001
0000
,
0000
0000
1000
0000
,
1000
0000
1000
0000
,
0000
0000
0010
0000
,
0110
0000
0110
0000
,
0000
0000
0100
0000
,
0010
0000
0100
0000
,
0000
0000
0010
0000
,
1000
0000
0100
0000
,
0000
0000
0010
0000
,
0100
0000
0010
0000
,
0000
0000
1001
0000
,
1001
0000
1001
0000
,
1001
0000
1000
0000
,
1000
0000
0001
0000
,
0001
0000
0000
1000
,
0000
0000
0001
0000
,
0001
0000
1000
0000
,
1000
0000
0001
0000
,
0001
0000
0000
1000
,
0000
0000
0001
0000
,
0001
0000
1000
0000
,
1000
0000
0001
0000
,
0001
0000
0000
1000
,
0000
0000
0001
0000
,
0002
0000
1003
0000
,
1000
0000
0001
0000
,
0001
0000
0000
1000
,
0000
0000
0001
0000
,
0001
0000
0000
0000
,
0000
0000
0000
0000
,
0000
0000
1000
0000
,
0000
0000
1000
0000
,
0000
0000
0010
0000
,
0000
0000
0100
0000
,
0000
0000
0001
0000
,
0000
0000
0100
0000
,
0000
0000
0001
0000
,
0000
0000
0010
0000
,
0010
0000
0001
0000
,
0000
0000
0010
0000
,
0000
0000
0001
0000
,
0000
0000
1000
0000
,
0000
0000
0100
0000
,
0000
0000
1000
0000
,
0000
0000
0100
0000
,
0000
0000
1000
0000
,
0010
0000
0010
0000
,
0000
0000
0001
0000
,
0000
0000
0010
0000
,
0000
0000
1000
0000
,
0000
0000
0100
0000
,
0000
0000
0001
0000
,
0000
0000
0100
0000
,
0000
0000
0010
0000
,
0000
0000
1000
0000
,
0000
0000
0010
0000
,
0000
0000
0001
0000
,
0000
0000
0100
0000
,
0000
0000
0010
0000
,
0000
0000
0001
0000
,
0000
0000
0010
0000
,
0000
0000
0100
0000
,
0100
0000
0100
0000
,
0000
0000
0000
0000
,
1001
0000
0000
0000
,
0000
0000
0000
0000
,
0110
0110
0110
0110
,
0000
0000
0000
0000
,
1001
1001
0000
0000
,
0000
0000
0000
0000
,
1001
0000
0001
0000
,
0000
0000
0100
0000
,
0000
0000
1000
0000
,
0100
0000
0001
0000
,
0000
0000
0001
0000
,
0000
0000
0010
0000
,
0000
0000
1000
0000
,
0010
0000
0001
0000
,
0000
0000
0010
0000
,
0000
0000
0100
0000
,
0000
0000
0001
0000
,
0100
0000
1000
0000
,
0000
0000
1000
0000
,
0010
0000
0001
0000
,
0100
0000
0001
0000
,
0010
0000
1000
0000
,
0000
0000
1000
0000
,
1000
0000
1000
0000
,
1000
0000
0001
0000
,
0001
0000
0001
0000
,
0001
0000
1000
0000
,
1000
0000
1000
0000
,
0100
0000
0110
0000
,
0110
0000
0110
0000
,
0110
0000
0100
0000
,
0010
0000
0100
0000
,
0010
0000
0001
0000
,
0100
0000
0010
0000
,
0100
0000
0010
0000
,
0100
0000
0010
0000
,
0100
0000
1001
0000
,
1001
0000
1001
0000
,
1001
0000
0001
0000
,
0001
0000
1000
0000
,
1000
1000
0000
0001
,
0001
0000
1000
0000
,
1000
0000
0001
0000
,
0001
0000
1000
0000
,
1000
1000
0000
0001
,
0001
0000
1000
0000
,
1000
0000
0001
0000
,
0001
0000
1000
0000
,
1000
1000
0000
0001
,
0001
0000
1000
0000
,
1000
0000
0001
0000
,
0001
0000
1000
0000
,
1000
1000
0000
0001
,
0001
0000
1000
0000
,
2002
3003
0000
0000
;

//---------------dance-single - ----------------
#NOTEDATA:;
#CHARTNAME:;
#STEPSTYPE:dance-single;
#DESCRIPTION:;
#CHARTSTYLE:;
#DIFFICULTY:Medium;
#METER:14;
#RADARVALUES:0.624529,0.681660,0.219684,0.417399,0.003661,597.000000,567.000000,30.000000,57.000000,0.000000,0.000000,0.000000,0.000000,0.000000,0.624529,0.681660,0.219684,0.417399,0.003661,597.000000,567.000000,30.000000,57.000000,0.000000,0.000000,0.000000,0.000000,0.000000;
#CREDIT:Karl with a K;
#NOTES:
0000
0000
0000
0000
,
0000
0000
0000
0000
,
0000
0000
0000
0000
,
0000
0000
0000
0000
,
0000
0000
0000
0000
,
0000
0000
0000
0000
,
0000
0000
0000
0000
,
0000
0000
0000
0000
,
1000
0010
0000
0000
0110
0000
0000
0000
,
0001
0010
0100
1000
,
0001
0010
0000
0000
0110
0000
0000
0000
,
1000
0010
0100
0001
,
1000
0010
0000
0000
1001
0000
0000
0000
,
0001
0010
1000
0010
,
0001
0100
1000
0100
,
0001
0000
0010
0100
,
1000
0100
1000
0001
,
0100
0010
1000
0100
,
0010
0001
1000
0010
,
1000
0010
0100
0010
,
1000
0010
1000
0001
,
0010
0100
1000
0010
,
0100
0000
0001
0000
1000
0000
0100
1000
,
0000
0100
0000
1000
0001
0000
0100
0001
,
0000
0100
0001
0000
1000
0000
0100
0000
,
0010
0000
0100
0010
,
0001
0000
0100
0000
0010
1000
0000
0010
,
0000
1000
0000
0000
0001
0010
0000
0001
,
0000
0010
0000
0000
0001
1000
0000
0001
,
0000
1000
0010
0100
,
0001
1000
0100
0001
,
0100
1000
0010
0010
,
0100
0000
0001
0000
0100
0001
0000
0100
,
0000
0001
0000
0000
0001
0000
0010
0000
,
0010
0000
0100
0000
1000
0000
0100
1000
,
0000
0100
0000
0000
0010
0001
0000
0010
,
0000
0001
0000
0000
1000
0010
0000
1000
,
0000
0010
0000
0100
0001
0000
0010
0000
,
0100
0000
1000
0000
0010
0100
0000
0010
,
0000
0100
0000
0000
0001
0000
0010
0000
,
0001
1000
0100
1000
,
0010
0100
0110
0000
,
1001
0000
0110
0000
,
0001
1000
0020
0000
,
1030
0010
0100
0001
,
1000
0000
0000
0000
0200
0000
0000
0302
,
0000
2003
3020
0000
,
0031
0000
0001
0100
,
0001
0010
0001
0100
,
0110
0000
1000
0100
,
1000
0010
1000
0100
,
0110
0000
0010
0001
,
0100
0010
0100
0001
,
1001
0000
0001
0001
,
0001
0001
0001
0001
,
0002
0000
1003
0100
,
1000
0010
1000
0100
,
0110
0000
0001
0100
,
0001
0010
0001
0100
,
0110
0000
0010
1000
,
0100
0010
0100
1000
,
1001
0000
1000
1000
,
1000
1000
1000
1000
,
2000
0000
3100
0010
,
0100
0020
0000
0000
0031
0000
0100
0000
,
0010
0000
0100
0020
0000
0000
1030
0000
,
0100
0020
0000
0000
0031
0000
0100
0000
,
0010
0200
0000
0000
1300
0000
0100
0000
,
0010
0200
0000
0000
0301
0000
0010
0000
,
0100
0000
0010
0200
0000
0000
1300
0000
,
0010
0200
0000
0000
0301
0000
0010
0000
,
0100
0020
0000
0000
1030
0000
0010
0000
,
0100
0020
0000
0000
0031
0000
0010
0000
,
0100
0000
0010
0002
0000
0000
0103
0000
,
0010
2000
0000
0000
3010
0000
0100
0000
,
0010
0200
0000
0000
1300
0000
0100
0000
,
0010
2000
0000
0000
3001
0000
0010
0000
,
0100
0000
0010
0200
0000
0000
0301
0000
,
0100
0020
0000
0000
0031
0000
0100
0000
,
0010
1000
0000
0000
,
0000
0000
0000
0000
,
1001
0000
0100
0001
,
0000
0010
0001
0000
0001
0000
0100
0000
,
0010
0000
0100
0010
,
0000
1000
0010
0000
0000
1000
0100
0000
,
0010
0000
0001
0100
,
0000
0010
1000
0000
0001
0000
0010
0000
,
0001
0010
0100
1000
,
0010
0100
1000
0100
,
0010
1000
0100
1000
,
0000
1000
0100
0000
1000
0000
0100
0000
,
0010
0001
0100
0001
,
0010
0000
0010
0000
0000
0001
0100
0000
,
0000
0010
0000
0000
1000
0000
0100
0000
,
0000
0010
0001
0000
1000
0000
0000
0010
,
1000
0010
0100
0001
,
0010
0100
0001
0100
,
0020
0001
0100
0000
,
0031
0000
0000
0000
1001
0000
0000
1000
,
0010
0000
1000
0100
,
0000
1000
0010
0000
0000
0100
0001
0000
,
0010
0001
1000
0100
,
1000
0010
0000
0000
0000
1000
0000
0000
,
0001
0000
0100
0001
,
1000
0000
0100
0000
0000
0000
0000
1000
,
0010
0000
0020
1000
,
0000
0100
0000
0000
1030
0000
0001
0000
,
0010
0000
0001
0100
,
0000
0010
0000
0000
0200
0000
0000
0000
,
0020
0330
0000
1000
,
0000
0100
0000
0000
0001
0000
0000
0000
,
0100
0000
1000
0100
,
0010
0000
0110
0000
,
1001
1001
1001
0000
,
2000
0000
0000
0000
,
0100
0100
0100
0000
3200
0000
0000
0000
,
0000
0000
0000
0000
,
0310
0001
0100
1000
0100
0001
1000
0000
,
0002
0000
0000
0000
,
0100
0100
0100
0000
0203
0000
0000
0000
,
0000
0000
0000
0000
,
0310
0100
0010
0000
0000
0000
0000
0000
1000
0000
0000
0000
0010
0000
0000
0000
,
1000
0001
0100
0001
,
0010
0100
0110
0000
,
1001
0000
0110
0000
,
1000
0001
0020
0000
,
0031
0010
0100
1000
,
0001
0000
0000
0000
0200
0000
0000
2300
,
0000
3200
0302
0000
,
1003
0000
1000
0100
,
1000
0001
0010
0001
,
0100
0010
0110
0000
,
1001
0000
0110
0000
,
1000
0001
0010
1000
,
0010
0001
0100
0010
,
1000
0000
0001
0000
0020
0000
0000
2030
,
0000
3002
0203
0000
,
1300
0000
0001
0010
,
0100
0001
0100
0010
,
0110
0000
1000
0010
,
0100
1000
0100
0010
,
0110
0000
0100
0001
,
0010
1000
0010
0001
,
1001
0000
0001
0100
,
1000
0001
1000
0100
,
0002
0000
1003
0010
,
0001
0010
1000
0010
,
0110
0000
0001
0010
,
1000
0010
0001
0010
,
0110
0000
0100
1000
,
0010
0100
0001
0010
,
1001
0000
1000
0100
,
0001
1000
0001
0100
,
2000
0000
3010
0100
,
1000
0200
0000
0000
0301
0000
0010
0000
,
0100
0000
0001
0200
0000
0000
0310
0000
,
1000
0020
0000
0000
0031
0000
0100
0000
,
1000
0200
0000
0000
0301
0000
0010
0000
,
1000
0020
0000
0000
0130
0000
0010
0000
,
0100
0000
0001
0200
0000
0000
0310
0000
,
1000
0020
0000
0000
0031
0000
0100
0000
,
1000
0200
0000
0000
0310
0000
0100
0000
,
1000
0200
0000
0000
0301
0000
0100
0000
,
0010
0000
0001
0020
0000
0000
0130
0000
,
0010
0002
0000
0000
0013
0000
0100
0000
,
1000
0200
0000
0000
0301
0000
0010
0000
,
1000
0020
0000
0000
0031
0000
0100
0000
,
0010
0000
0001
0020
0000
0000
0130
0000
,
1000
0200
0000
0000
0301
0000
0010
0000
,
2000
3001
0000
0000
;

//---------------dance-single - XO DS- JA XMOD JU Spins----------------
#NOTEDATA:;
#CHARTNAME:For people who love spins I guess;
#STEPSTYPE:dance-single;
#DESCRIPTION:XO DS- JA XMOD JU Spins;
#CHARTSTYLE:;
#DIFFICULTY:Easy;
#METER:10;
#RADARVALUES:0.447736,0.619691,0.139133,0.197715,0.000000,428.000000,409.000000,19.000000,27.000000,0.000000,0.000000,0.000000,0.000000,0.000000,0.447736,0.619691,0.139133,0.197715,0.000000,428.000000,409.000000,19.000000,27.000000,0.000000,0.000000,0.000000,0.000000,0.000000;
#CREDIT:Karl with a K;
#NOTES:
0000
0000
0000
0000
,
0000
0000
0000
0000
,
0000
0000
0000
0000
,
0000
0000
0000
0000
,
0000
0000
0000
0000
,
0000
0000
0000
0000
,
0000
0000
0000
0000
,
0000
0000
0000
0000
,
1000
0100
1000
0000
,
0001
0010
0001
0000
,
0001
0100
0001
0000
,
1000
0010
1000
0000
,
1000
0010
1000
0000
,
0001
0100
0001
0000
,
0100
0010
0100
0010
,
1000
0000
0001
0000
,
0010
0000
0100
0010
,
0100
0000
1000
0000
,
0010
0000
0100
0010
,
0100
0000
0001
0000
,
0100
0000
0010
1000
,
0010
0000
1000
0000
,
0100
0000
0010
0000
,
0100
0000
1000
0000
,
0010
0000
0100
0001
,
0100
0000
0001
0000
,
0010
0000
0100
1000
,
0100
0000
1000
0000
,
0100
0000
0010
0001
,
0010
0000
0001
0000
,
0100
0000
0010
0010
,
0020
0000
1030
0000
,
0100
0000
0010
0001
,
1000
0000
0001
0000
,
0100
0000
0010
1000
,
0001
0000
1000
0010
,
1000
0000
0010
0100
,
0010
0000
0100
0001
,
0100
0000
0001
0010
,
0001
0000
1000
0100
,
1000
0000
0001
0100
,
0001
0000
0020
0000
,
2030
0000
3200
0000
,
0301
0000
1000
0010
,
1000
0000
0001
0010
,
0001
0000
0200
0000
,
2300
0000
3020
0000
,
0031
0000
1000
0010
,
1000
0010
1000
0000
,
1010
0000
0001
0010
,
0001
0010
0001
0000
,
0011
0000
1000
0100
,
1000
0100
1000
0000
,
1100
0000
0001
0001
,
0100
0100
0001
0000
,
0101
0000
1000
0100
,
1000
0100
1000
0000
,
1100
0000
0001
0100
,
0001
0100
0001
0000
,
0101
0000
1000
0010
,
1000
0010
1000
0000
,
1010
0000
0001
0001
,
0001
0001
0001
0001
,
0002
0000
1003
0000
,
0010
0000
0000
0000
1000
0000
0000
0001
,
0000
0000
0010
0000
0000
0001
0000
0000
,
1000
0000
0001
0000
,
0010
0000
1000
0000
,
0010
0000
0000
0000
0001
0000
0000
1000
,
0000
0000
0010
0000
0000
1000
0000
0000
,
0001
0000
1000
0000
,
0010
0000
0001
0000
,
0010
0000
0000
0000
1000
0000
0000
0001
,
0000
0000
0100
0000
0000
0001
0000
0000
,
1000
0000
0001
0000
,
0100
0000
1000
0000
,
0100
0000
0000
0000
0001
0000
0000
1000
,
0000
0000
0100
0000
0000
1000
0000
0000
,
0001
0000
0010
0100
,
0010
0100
0000
0000
,
0000
0000
0000
0000
,
1000
0000
0010
1000
,
0010
0000
1000
0000
,
0100
0000
0010
0001
,
0010
0000
0001
0000
,
0100
0000
0001
0100
,
0001
0000
1000
0000
,
0100
0000
1000
0100
,
1000
0000
1000
1000
,
0001
0000
0010
0001
,
0010
0000
0001
0000
,
0100
0000
0010
1000
,
0010
0000
1000
0000
,
0100
0000
1000
0100
,
1000
0000
0001
0000
,
0100
0000
0001
0100
,
0001
0000
0001
0001
,
2000
0000
0010
0000
,
0001
0000
3010
0000
,
0100
0000
0001
0000
,
0010
0000
0002
0000
,
0010
0000
1000
0000
,
0013
0000
0100
0000
,
1000
0000
0010
0000
,
1000
0000
0001
0000
,
0100
0000
1000
0000
,
0100
0000
0001
0000
,
1000
0000
0100
0000
,
1000
0000
1000
0000
,
0100
0000
0001
0000
,
0010
0000
1000
0000
,
0001
0000
1001
0000
,
0110
0000
1001
0000
,
1000
1000
1000
0000
,
0000
0000
0000
0000
,
0001
0001
0001
0000
0000
0000
0000
0000
,
0000
0000
0000
0000
,
0010
0100
0010
0110
,
2000
0000
0000
0000
,
3001
0002
0000
0000
,
0000
0000
0000
0000
,
1003
1000
0000
0000
1000
0000
0010
0000
,
1000
0000
0001
0010
,
0001
0000
0200
0000
,
2300
0000
3020
0000
,
0031
0000
1000
0100
,
1000
0000
0001
0100
,
0001
0000
0020
0000
,
2030
0000
3200
0000
,
0301
0000
1000
0010
,
1000
0000
0001
0010
,
0001
0000
0200
0000
,
0302
0000
0023
0000
,
1030
0000
1000
0100
,
1000
0001
0100
0001
,
1000
0100
0020
0000
,
0032
0000
0203
0000
,
1000
0000
0301
0010
,
0100
0010
0001
0000
,
0011
0000
1000
0010
,
0100
0010
1000
0000
,
1010
0000
0001
0100
,
0010
0100
0001
0000
,
0101
0000
1000
1000
,
0100
0100
0010
0001
,
0011
0000
0001
0100
,
0010
0100
0001
0000
,
0101
0000
1000
0100
,
0010
0100
1000
0000
,
1100
0000
0001
0010
,
0100
0010
0001
0000
,
0011
0000
1000
1000
,
1000
1000
0010
0010
,
0020
0000
1030
0000
,
0100
0000
0000
0000
1000
0000
0000
0010
,
0000
0000
0001
0000
0000
0010
0000
0000
,
1000
0000
0010
0000
,
0001
0000
1000
0000
,
0100
0000
0000
0000
0001
0000
0000
0010
,
0000
0000
1000
0000
0000
0010
0000
0000
,
0001
0000
0010
0000
,
1000
0000
0001
0000
,
0100
0000
0000
0000
1000
0000
0000
0100
,
0000
0000
0001
0000
0000
0100
0000
0000
,
1000
0000
0100
0000
,
0001
0000
1000
0000
,
0010
0000
0000
0000
0001
0000
0000
0100
,
0000
0000
1000
0000
0000
0100
0000
0000
,
0001
0000
0100
0010
,
0220
0330
0000
0000
;

//---------------dance-double - ----------------
#NOTEDATA:;
#CHARTNAME:;
#STEPSTYPE:dance-double;
#DESCRIPTION:;
#CHARTSTYLE:;
#DIFFICULTY:Challenge;
#METER:18;
#RADARVALUES:0.959285,1.053475,0.446690,0.505272,0.058582,917.000000,856.000000,61.000000,69.000000,0.000000,0.000000,0.000000,0.000000,0.000000,0.959285,1.053475,0.446690,0.505272,0.058582,917.000000,856.000000,61.000000,69.000000,0.000000,0.000000,0.000000,0.000000,0.000000;
#CREDIT:Karl with a K;
#NOTES:
// measure 0
00000000
00000000
00000000
00000000
,  // measure 1
00000000
00000000
00000000
00000000
,  // measure 2
00000000
00000000
00000000
00000000
,  // measure 3
00000000
00000000
00000000
00000000
,  // measure 4
00000000
00000000
00000000
00000000
,  // measure 5
00000000
00000000
00000000
00000000
,  // measure 6
00000000
00000000
00000000
00000000
,  // measure 7
00000000
00000000
00000000
00000000
,  // measure 8
10000000
01000000
00200000
00000000
01300000
00200000
00000000
00000000
,  // measure 9
00310000
00100000
00001000
00010000
00000010
00001000
00000001
00000100
,  // measure 10
00000010
00001000
00000001
00000010
00000001
00002000
00000000
00000000
,  // measure 11
00003100
00010000
00002000
00000000
01003000
00200000
00000000
00000000
,  // measure 12
01300000
00010000
10000000
01000000
10000000
00020000
00000000
00000000
,  // measure 13
10030000
00100000
01000000
00100000
00010000
00001000
00000100
00000010
,  // measure 14
00001000
00000100
00000010
00000001
00000100
00000010
00001000
00000000
,  // measure 15
00001001
00000000
00000000
00000000
00000001
00000010
00000100
00000000
,  // measure 16
00000010
00000100
00001000
00000000
00001100
00000000
00000100
00010000
,  // measure 17
00001000
00100000
01000000
00000000
10000000
00000000
00100000
10000000
,  // measure 18
00100000
01000000
00010000
00000000
10010000
00000000
00010000
00100000
,  // measure 19
00001000
00020000
00000000
00000000
00030010
00001000
00000000
00000100
,  // measure 20
00010000
00001000
00010000
00000000
00011000
00000000
00010000
00001000
,  // measure 21
00010000
00000100
00001000
00000000
00000010
00000000
00000100
00000001
,  // measure 22
00001000
00000100
00000010
00000000
00000110
00000000
00000100
00001000
,  // measure 23
00000000
00000001
00000010
00000000
00000001
00000000
00000010
00000100
,  // measure 24
00000000
00000100
00001000
00000000
00001100
00000000
00000100
00010000
,  // measure 25
00001000
00010000
00001000
00000000
00100000
00000000
00010000
10000000
,  // measure 26
00100000
01000000
00010000
00000000
00010000
01000000
00000000
00002000
,  // measure 27
00000000
01003000
00010000
00000000
00010000
10000000
00000000
10000000
,  // measure 28
00000000
01000000
10000000
00000000
10010000
00000000
10000000
01000000
,  // measure 29
00100000
00010000
00100000
00001000
00010000
00000000
00001000
00100000
,  // measure 30
00010000
00100000
00001000
00000000
00010000
00000010
00000000
00000100
,  // measure 31
00001000
00000100
00000010
00001000
00000001
00000010
00000100
00000000
,  // measure 32
00000010
00000100
00001000
00000000
00000100
00010000
00001000
00100000
,  // measure 33
00000000
00010000
01000000
00100000
01000000
00000000
00010000
10000000
,  // measure 34
01000000
00100000
00010000
00000000
10010000
00000000
10000000
01000000
,  // measure 35
00000000
01000000
00100000
00000000
00010000
00100000
00000000
00100000
,  // measure 36
00000000
00001000
00010000
00000000
00001000
01000000
00010000
01000000
,  // measure 37
00001000
00010000
00001000
00010000
00000100
00000000
00000010
00000001
,  // measure 38
00000100
00000010
00001000
00000000
00000010
00010000
00000000
00001000
,  // measure 39
00000000
00100000
00010000
00000000
00010000
00100000
01000000
00000000
,  // measure 40
00100000
01000000
10000000
00000000
10010000
00000000
00010000
00100000
,  // measure 41
01000000
00100000
01000000
00000000
12000000
00000000
00000000
00000000
,  // measure 42
00100000
00000000
00000000
00000000
03010000
00001000
00010000
00000000
,  // measure 43
00011000
00000000
00010000
00000000
00000100
00000010
00000100
00000000
,  // measure 44
00001000
00000001
00001000
00000000
00001001
00000000
00001000
00000010
,  // measure 45
00000100
00000000
00000000
00000010
00000000
00000000
00000100
00000000
00000000
00000000
00000000
00000000
00000200
00000000
00000000
00000000
00000000
00000000
00000000
00000000
00000001
00000000
00000000
00000000
,  // measure 46
00000000
00000000
00000000
00000000
00000010
00000000
00000000
00000000
00000000
00000000
00000000
00000000
00001300
00000000
00000000
00010000
00000000
00000000
00001000
00000000
00000000
00000000
00000000
00000000
,  // measure 47
00100000
00010000
01000000
00000000
00010000
01000000
00100000
00000000
,  // measure 48
01000000
00100000
10000000
00000000
10000000
01000000
00100000
00000000
,  // measure 49
01000000
00100000
00010000
00000000
00100000
00001000
00010000
00000000
,  // measure 50
00001000
00010000
00000100
00000000
00000010
00000001
00000100
00000000
,  // measure 51
00000010
00000100
00000001
00000000
00001000
00000100
00000010
00000100
,  // measure 52
00000010
00000002
00001000
00000000
00001003
00000010
00000100
00000010
,  // measure 53
00001000
00000001
00001000
00000000
00000011
00000000
00001100
00000000
,  // measure 54
00011000
00110000
11000000
01010000
,  // measure 55
20200000
00000000
30300000
00000000
00010000
00100000
01000000
00000000
,  // measure 56
00100000
01000000
10000000
00000000
10000000
00100000
01000000
00000000
,  // measure 57
00100000
01000000
00010000
00000000
01000000
00001000
00010000
00000000
,  // measure 58
00001000
00010000
00000010
00000000
00000100
00000001
00000010
00000000
,  // measure 59
00000100
00000010
00000001
00000000
00001000
00000010
00000100
00000010
,  // measure 60
00000100
00000002
00001000
00000000
00001003
00000100
00000010
00000100
,  // measure 61
00001000
00000001
00001000
00000000
00000101
00000000
00001010
00000000
,  // measure 62
00011000
01010000
10100000
00110000
,  // measure 63
22000000
00000000
33000000
00000000
10000000
01000000
00100000
00000000
,  // measure 64
01000000
00020000
00000000
00000000
00031000
00010000
00000100
00001000
,  // measure 65
00000001
00000100
00000010
00000002
00000000
00000000
00000013
00000100
,  // measure 66
00000010
00000002
00000000
00000000
00000013
00000100
00000001
00000000
,  // measure 67
00000100
00002000
00000000
00000000
00013000
00001000
00100000
00010000
,  // measure 68
01000000
20000000
00000000
00000000
31000000
00100000
10000000
00010000
,  // measure 69
01000000
00100000
01000000
20000000
00000000
00000000
31000000
00100000
,  // measure 70
01000000
20000000
00000000
00000000
31000000
00100000
10000000
00000000
,  // measure 71
01000000
00020000
00000000
00000000
00031000
00010000
00000100
00000000
,  // measure 72
00000010
00002000
00000000
00000000
00003010
00000100
00001000
00000001
,  // measure 73
00000010
00000100
00000010
00000002
00000000
00000000
00000013
00000100
,  // measure 74
00000010
00000002
00000000
00000000
00000013
00000100
00010000
00000000
,  // measure 75
00001000
00000000
00000000
00010000
00000000
00001000
00000000
00010000
00000000
00001000
00000000
00000000
00010000
00000000
00000000
01000000
00000000
00000000
00000000
00000000
00000000
00100000
00000000
00000000
,  // measure 76
01000000
00020000
00000000
00000000
01030000
00100000
00010000
10000000
,  // measure 77
01000000
00010000
00001000
02000000
00000000
00000000
03100000
01000000
,  // measure 78
00100000
00020000
00000000
00000000
00130000
00010000
00001000
00010000
,  // measure 79
00000100
00000010
00000001
00000100
00000000
00000000
00000000
00000000
,  // measure 80
00000000
00000000
00000000
00000000
00001000
00010000
00001000
00000000
,  // measure 81
00000000
01000000
00001000
00000000
00010000
00000000
00001000
00100000
,  // measure 82
00000000
01000000
10000000
01000000
10000000
00000000
00000000
00100000
,  // measure 83
10000000
00000000
10010000
00010000
,  // measure 84
00000000
00010000
10000000
00000000
00000000
10000000
00100000
00000000
,  // measure 85
01000000
00010000
01000000
00000000
00001000
00010000
00001000
00010000
,  // measure 86
00000000
00001000
00010000
00000000
00000000
00000100
00001000
00000100
,  // measure 87
00000000
00000010
00000001
00000000
00001001
00000000
00001000
00000010
,  // measure 88
00000000
00000100
00000001
00000000
00000010
00001000
00010000
00100000
,  // measure 89
10000000
00100000
01100000
00100000
,  // measure 90
00000000
10000000
01000000
00000000
00000000
00100000
00001000
00000000
,  // measure 91
00010000
00000000
00000000
00000100
00000000
00000000
00001000
00000000
00000000
00000000
00000000
00000000
00000001
00000000
00000000
00000000
00000100
00000000
00000000
00000000
00000010
00000000
00000000
00000000
,  // measure 92
00002000
00000000
00003100
00000000
00000000
00000010
00000100
00000010
,  // measure 93
00000000
00000001
00000100
00000000
00000110
00000000
00000010
00001000
,  // measure 94
00000000
00000100
00010000
00000100
00000000
00000000
00000000
00010000
,  // measure 95
00001000
00000000
01010000
01000000
,  // measure 96
00000000
00100000
10000000
00000000
10000000
01000000
00010000
00001000
,  // measure 97
00000000
00010000
00001000
00000000
00011000
00000000
00010000
00000100
,  // measure 98
00000000
00001000
00000010
00000100
00000001
00000000
00000000
00000100
,  // measure 99
00000001
00000100
00000000
00000000
00001001
00000000
00000001
00000000
,  // measure 100
00000000
00000100
00000001
00000000
00000000
00000001
00001000
00000100
,  // measure 101
00010000
00001000
00010000
00000000
00001000
01000000
00010000
01000000
,  // measure 102
00000000
00100000
10000000
00000000
00000000
01000000
10000000
01000000
,  // measure 103
00000000
00100000
00010000
00000000
00110000
00000000
00100000
00001000
,  // measure 104
00000000
00010000
00000100
00000000
00000000
00000000
00000000
00010000
,  // measure 105
00000010
00000000
00001010
00001000
,  // measure 106
00000000
00000001
00000100
00000000
00000000
00000001
00000100
00000000
,  // measure 107
00000010
00001000
00000010
00000000
00010000
00001000
00010000
00001000
,  // measure 108
00000000
01000000
00010000
00000000
00000000
01000000
00100000
01000000
,  // measure 109
00000000
02200000
03300000
00000000
10010000
00000000
10000000
01000000
,  // measure 110
00000000
00100000
00010000
00100000
00000000
00001000
00000000
00010000
,  // measure 111
00000100
00000000
00000000
00000000
00000000
00000000
00000110
00000000
00000000
00000010
00000000
00000001
,  // measure 112
00000000
00000100
00000000
00001000
00000000
00000000
00020000
00000000
00002000
00000000
00030000
00000000
,  // measure 113
00013000
00001000
00010000
00000000
00011000
00000000
00000000
00000000
,  // measure 114
00000000
00000000
00000000
00000000
,  // measure 115
00001000
00010000
01000000
00000000
00000000
00000000
00000000
00000000
,  // measure 116
00000000
00000000
00000000
00000000
00000000
00000000
00000000
20000000
,  // measure 117
30100000
00010000
00001000
00000010
00000001
00000100
00000020
00000000
,  // measure 118
00002030
00000000
00000000
00003200
00000000
00000000
00000000
00000000
,  // measure 119
00000320
00000001
00001000
00000000
00002030
00000000
00000000
00000000
,  // measure 120
02003000
00000000
00000000
00000000
03200000
00000000
00000000
10000000
,  // measure 121
01300000
00100000
10000000
00000000
00000000
00000000
00000000
00000000
00010000
00000000
00100000
00000000
01000000
00000000
00000000
00000000
,  // measure 122
00100000
01000000
10000000
00000000
10010000
00000000
10000000
00100000
,  // measure 123
01000000
00100000
01000000
00000000
02100000
00000000
00000000
00000000
,  // measure 124
00010000
00000000
00000000
00000000
03001000
00010000
00001000
00000000
,  // measure 125
00011000
00000000
00010000
00000000
00000100
00000010
00000100
00000000
,  // measure 126
00001000
00000001
00001000
00000000
00001001
00000000
00000001
00000010
,  // measure 127
00000100
00000000
00000000
00000010
00000000
00000000
00000100
00000000
00000000
00000000
00000000
00000000
00000200
00000000
00000000
00000000
00000000
00000000
00000000
00000000
00000010
00000000
00000000
00000000
,  // measure 128
00000000
00000000
00000000
00000000
00001000
00000000
00000000
00000000
00000000
00000000
00000000
00000000
00010300
00000000
00000000
00000100
00000000
00000000
00001000
00000000
00000000
00000000
00000000
00000000
,  // measure 129
00000100
00000010
00000001
00000000
00000001
00000010
00000100
00000000
,  // measure 130
00000010
00000100
00001000
00000000
00001001
00000000
00000001
00000010
,  // measure 131
00000100
00000010
00000100
00000000
00000210
00000000
00000000
00000000
,  // measure 132
00001000
00000000
00000000
00000000
00010300
00001000
00010000
00000000
,  // measure 133
00011000
00000000
00001000
00000000
01000000
00100000
01000000
00000000
,  // measure 134
00010000
10000000
00010000
00000000
10010000
00000000
00010000
01000000
,  // measure 135
00100000
00000000
00000000
01000000
00000000
00000000
00100000
00000000
00000000
00000000
00000000
00000000
02000000
00000000
00000000
00000000
00000000
00000000
00000000
00000000
00100000
00000000
00000000
00000000
,  // measure 136
00000000
00000000
00000000
00000000
00010000
00000000
00000000
00000000
00000000
00000000
00000000
00000000
03001000
00000000
00000000
00010000
00000000
00000000
00001000
00000000
00000000
00000000
00000000
00000000
,  // measure 137
00010000
00000010
00001000
00000000
00001000
00000100
00000010
00000000
,  // measure 138
00000100
00000010
00000001
00000000
00000001
00000100
00000010
00000200
,  // measure 139
00000000
00000310
00001000
00000000
00000010
00010000
00001000
00000000
,  // measure 140
00010000
00001000
01000000
00000000
00100000
10000000
01000000
00000000
,  // measure 141
00100000
01000000
10000000
00000000
00010000
01000000
00100000
01000000
,  // measure 142
00100000
20000000
00010000
00000000
30010000
00100000
01000000
00100000
,  // measure 143
00010000
10000000
00010000
00000000
10100000
00000000
01010000
00000000
,  // measure 144
00011000
00001010
00000101
00001100
,  // measure 145
00000022
00000000
00000033
00000000
00001000
00000010
00000100
00000000
,  // measure 146
00000010
00000100
00000001
00000000
00000001
00000010
00000100
00000000
,  // measure 147
00000010
00000100
00001000
00000000
00000100
00010000
00001000
00000000
,  // measure 148
00010000
00001000
00100000
00000000
01000000
10000000
00100000
00000000
,  // measure 149
01000000
00100000
10000000
00000000
00010000
00100000
01000000
00100000
,  // measure 150
01000000
20000000
00010000
00000000
30010000
01000000
00100000
01000000
,  // measure 151
00010000
10000000
00010000
00000000
11000000
00000000
00110000
00000000
,  // measure 152
00011000
00001100
00000011
00001010
,  // measure 153
00000202
00000000
00000303
00000000
00000001
00000100
00000010
00000000
,  // measure 154
00000100
00002000
00000000
00000000
00013000
00001000
00100000
01000000
,  // measure 155
10000000
00010000
01000000
20000000
00000000
00000000
31000000
10000000
,  // measure 156
00010000
00200000
00000000
00000000
10300000
00010000
10000000
00000000
,  // measure 157
01000000
00020000
00000000
00000000
00031000
00010000
00000010
00001000
,  // measure 158
00000100
00000002
00000000
00000000
00000103
00001000
00000100
00010000
,  // measure 159
00000100
00001000
00000100
00000002
00000000
00000000
00000103
00000001
,  // measure 160
00001000
00000020
00000000
00000000
00000031
00000100
00001000
00000000
,  // measure 161
00010000
00200000
00000000
00000000
01300000
00010000
10000000
00000000
,  // measure 162
01000000
00020000
00000000
00000000
00031000
00010000
00000100
00000010
,  // measure 163
00000001
00000100
00000010
00000002
00000000
00000000
00000013
00001000
,  // measure 164
00010000
00002000
00000000
00000000
00003010
00010000
00001000
00000000
,  // measure 165
00010000
00200000
00000000
00000000
01300000
00100000
00000000
10000000
,  // measure 166
00100000
00020000
00000000
00000000
00130000
00010000
00001000
00010000
,  // measure 167
00000100
00001000
00000010
00000002
00000000
00000000
00000013
00000100
,  // measure 168
00001000
00000002
00000000
00000000
00000013
00000100
00000010
00000100
,  // measure 169
00000001
00000100
00000001
00000100
00000000
00000000
00000000
00000000
00000000
00000000
00000000
00000000
;

//---------------dance-double - ----------------
#NOTEDATA:;
#CHARTNAME:;
#STEPSTYPE:dance-double;
#DESCRIPTION:;
#CHARTSTYLE:;
#DIFFICULTY:Hard;
#METER:17;
#RADARVALUES:0.742740,0.867567,0.131810,0.637083,0.021968,710.000000,692.000000,18.000000,87.000000,0.000000,0.000000,0.000000,0.000000,0.000000,0.742740,0.867567,0.131810,0.637083,0.021968,710.000000,692.000000,18.000000,87.000000,0.000000,0.000000,0.000000,0.000000,0.000000;
#CREDIT:Karl with a K;
#NOTES:
00000000
00000000
00000000
00000000
,
00000000
00000000
00000000
00000000
,
00000000
00000000
00000000
00000000
,
00000000
00000000
00000000
00000000
,
00000000
00000000
00000000
00000000
,
00000000
00000000
00000000
00000000
,
00000000
00000000
00000000
00000000
,
00000000
00000000
00000000
00000000
,
10000000
01000000
10000000
00000000
00010000
20000000
00000000
00000000
,
30010000
00100000
00010000
00000000
00010000
00100000
00001000
00000000
,
00010000
00001000
00010000
00000000
00000100
00002000
00000000
00000000
,
00003001
00000100
00000001
00000000
00000001
00000100
00000000
00000000
,
00000010
00001000
00000010
00000000
00010000
00002000
00000000
00000000
,
00103000
00010000
00100000
00000000
00010000
00100000
00010000
00100000
,
00010000
00000000
00100000
00010000
00000000
10000000
01000000
00000000
,
01100000
00000000
10000000
00100000
,
01000000
00010000
00100000
00001000
,
00010000
00000000
00000100
00000000
00000010
00000000
00000001
00001000
,
00000001
00000100
00000010
00010000
,
00001000
01000000
00010000
10000000
,
01000000
00100000
01000000
00000000
00100000
00000000
00001000
00000000
,
00010000
00000000
00000100
00000000
00010000
00000000
00001000
00010000
,
00001000
00000000
00010000
00000000
00000010
00000000
00000100
00000010
,
00000000
00000100
00000010
00000000
00001000
00000000
00000001
00000010
,
00000000
00000001
00000010
00000000
00000001
00000000
00000100
00000010
,
00000000
00000010
00000100
00000000
00000010
00000000
00010000
00000000
,
00001000
00000000
00100000
00000000
01000000
00100000
00000000
01000000
,
00000000
00100000
00000000
00000000
01000000
10000000
00000000
00100000
,
00000000
01000000
00000000
00000000
00100000
10000000
00000000
00100000
,
00000000
01000000
00010000
00000000
00010000
00000000
01000000
00000000
,
00100000
00000000
10000000
00000000
01000000
00100000
00000000
00000000
,
00001000
00010000
00001000
00010000
00000100
00000000
00000010
00000000
,
00000001
00000000
00000100
00000000
00000010
00001000
00000000
00000001
,
00000000
00001000
00000000
00000000
00000001
00000000
00000100
00000000
,
00000010
00000000
00001000
00000000
00000010
00000000
00010000
00001000
,
00000000
00010000
00001000
00000000
00100000
00010000
00000000
10000000
,
00000000
00010000
00000000
00000000
10000000
00000000
01000000
00100000
,
00000000
00010000
10000000
00000000
01000000
00000000
00100000
00000000
,
00010000
00000000
01000000
00000000
00001000
01000000
00000000
00001000
,
00000000
00010000
00001000
00000000
00100000
00000000
00001000
00000000
,
00010000
00000100
00000010
00000001
,
00000100
00001000
00020000
00000000
,
00230000
00000000
10300000
00000000
,
00010000
00100000
02000000
00000000
,
13000000
00100000
01000000
00010000
,
00100000
00000000
00000000
01000000
00000000
00000000
00020000
00000000
00000000
00000000
00032000
00000000
,
00000000
00000000
00003020
00000000
00000000
00000000
00000031
00000000
00000000
00000000
00000000
00000000
,
00001001
00000000
00000001
00000001
,
00000010
00000010
00000100
00000100
,
00000110
00000010
00000001
00000001
,
00000100
00000100
00000010
00000010
,
00001010
00001000
00000010
00010000
,
00001000
01000000
00100000
10000000
,
01000000
00010000
00002000
00003020
,
00000032
00000203
00002300
00023000
,
00230000
00000000
10300000
10000000
,
00100000
00100000
01000000
01000000
,
01100000
00100000
10000000
10000000
,
01000000
01000000
00100000
00100000
,
00110000
00010000
00100000
00001000
,
00010000
00000010
00000100
00000001
,
00000010
00001000
00020000
00230000
,
20300000
32000000
03020000
00032000
,
00003020
00000000
00000000
00000000
00000031
00000010
00000001
00000000
,
00000010
00000200
00000000
00000000
00001300
00000100
00001000
00000100
,
00001000
00000100
00010000
00002000
00000000
00000000
00013000
00001000
,
00100000
00020000
00000000
00000000
10030000
00100000
10000000
00000000
,
00100000
02000000
00000000
00000000
03010000
01000000
00000000
00010000
,
00100000
00002000
00000000
00000000
00013000
00000100
00010000
00000100
,
00010000
00000100
00001000
00000002
00000000
00000000
00001003
00000001
,
00000010
00000002
00000000
00000000
00000103
00000001
00000100
00000000
,
00000010
00002000
00000000
00000000
00003010
00001000
00000010
00000000
,
00010000
00002000
00000000
00000000
00013000
00001000
00010000
00001000
,
00010000
00001000
01000000
00020000
00000000
00000000
10030000
01000000
,
00100000
00020000
00000000
00000000
10030000
00100000
10000000
00000000
,
00100000
02000000
00001000
00000000
03010000
10000000
00000000
00010000
,
00100000
02000000
00000000
00000000
03100000
00010000
00100000
00010000
,
00100000
00001000
00010000
00002000
00000000
00000000
00013000
00000100
,
00001000
00000002
00000000
00000000
00000013
00000100
00000010
00000100
,
00000010
00000100
00000010
00000100
00000000
00000000
00000000
00000000
,
00000000
00000000
00000000
00000000
,
10000000
00100000
10000000
00100000
,
01000000
00000000
00010000
01000000
00000000
00000000
00000000
00010000
,
00100000
00000000
00001000
00010000
,
00001000
00000000
00000000
00000000
00000000
00010000
00000010
00000000
,
00000100
00000001
00000010
00000100
,
00000010
00000000
00000100
00000000
00001000
00000100
00001000
00000000
,
00000001
00000100
00000010
00000100
,
00000001
00001000
00000000
00000000
00000002
00000000
00000203
00000000
,
00001300
00000000
00010000
00001000
,
00011000
00001000
00100000
01000000
,
10000000
00100000
01000000
00010000
,
00100000
00000000
00010000
00000000
00000000
00100000
01000000
00000000
,
00000000
01000000
00100000
00000000
00010000
00000000
01000000
00100000
,
00000000
01000000
00000000
00000000
00010000
00000000
00000000
00010000
,
00100000
01000000
10000000
01000000
,
10000000
00100000
00010000
00001000
,
00000010
00000001
00000100
00000010
,
00001000
00000000
00000001
00000000
00001001
00000000
00000000
00000001
,
00000010
00000000
00001100
00010000
,
00001000
00000000
01000000
00000000
00100000
00000000
01000000
00100000
,
01000000
00000000
00100000
00000000
10000000
00100000
10000000
00100000
,
00000000
10000000
00100000
00000000
00000000
01000000
00010000
00000000
,
00000000
01000000
00001000
00000000
00010000
00000000
00001000
00000000
,
00010000
00000100
00010000
00000000
00000000
00000000
00000000
00000100
,
00000010
00000000
00000001
00000100
,
00000000
00000010
00000100
00000000
00000010
00000000
00010000
00000000
,
00001000
00010000
00001000
00000000
00100000
01000000
00100000
01000000
,
00000000
10000000
00010000
10000000
,
20020000
30030000
10010000
00000000
,
10000000
00000000
00100000
00000000
00010000
00000000
00000000
00001000
,
00010000
00000000
00001000
00000010
,
00000002
00000000
00000203
00000000
,
00000300
00000001
00001000
00001001
,
00000001
00000001
00000001
00000001
,
00000010
00001000
00010000
00000000
00001000
00000000
00001000
00000000
,
00001000
00001000
00001000
00001000
,
00100000
00010000
10000000
00100000
00010000
10000000
02000000
00000000
,
00010000
00010000
00010000
03010000
,
00100000
01000000
00200000
00000000
10000000
00000000
10000000
00000000
,
10000000
00000000
10000000
00000000
10000000
00000000
01300000
00100000
,
00001000
00010000
00000000
00000000
00000010
00000000
00010000
00000000
,
00001000
01000000
00100000
10000000
,
01000000
00010000
20000000
00000000
,
30200000
00000000
00310000
00000000
,
00001000
00000010
00000200
00000000
,
00000301
00000010
00000100
00001000
,
00000010
00000000
00000000
00000000
00000000
00000000
00000100
00000000
00000000
00000000
00000000
00000000
00002000
00000000
00000000
00000000
00000000
00000000
00000000
00000000
00000002
00003000
00000000
00000000
,
00000000
00000000
00000000
00000003
00000020
00000000
00000000
00000000
00000000
00000000
00000000
00000000
00001030
00000000
00000000
00000000
00000000
00000000
00000000
00000000
00000000
00000000
00000000
00000000
,
00001001
00000000
00000100
00010000
,
00001000
00100000
01000000
10000000
,
00100000
00010000
20000000
00000000
,
32000000
00000000
03010000
00000000
,
00001000
00000100
00000020
00000001
,
00000031
00000100
00000010
00001000
,
00000100
00000000
00000000
00000000
00000000
00000000
00000010
00000000
00000000
00000000
00000000
00000000
00002000
00000000
00000000
00000000
00000000
00000000
00000000
00000000
00000002
00003000
00000000
00000000
,
00000000
00000000
00000000
00000003
00000200
00000000
00000000
00000000
00000000
00000000
00000000
00000000
00001300
00000000
00000000
00000000
00000000
00000000
00000000
00000000
00000000
00000000
00000000
00000000
,
00001001
00000000
00000001
00000001
,
00000100
00000100
00000010
00000010
,
00000110
00000100
00000001
00000001
,
00000010
00000010
00000100
00000100
,
00001100
00001000
00000100
00010000
,
00001000
00100000
01000000
10000000
,
00100000
00010000
00002000
00003200
,
00000302
00000023
00002030
00023000
,
02030000
03000000
10000000
10000000
,
01000000
01000000
00100000
00100000
,
01100000
01000000
10000000
10000000
,
00100000
00100000
01000000
01000000
,
01010000
00010000
01000000
00001000
,
00010000
00000100
00000010
00000001
,
00000100
00001000
00020000
02030000
,
23000000
30200000
00320000
00032000
,
00003200
00000000
00000000
00000000
00000301
00000010
00000001
00000000
,
00000100
00002000
00000000
00000000
00013000
00001000
00010000
00001000
,
00010000
00001000
00010000
00200000
00000000
00000000
10300000
00100000
,
01000000
20000000
00000000
00000000
31000000
00100000
01000000
00000000
,
00100000
00020000
00000000
00000000
00130000
10000000
00000000
10000000
,
01000000
00020000
00000000
00000000
01030000
00100000
00001000
00010000
,
00001000
00010000
00001000
00000200
00000000
00000000
00000310
00001000
,
00000010
00000002
00000000
00000000
00000013
00000100
00000010
00000000
,
00000100
00002000
00000000
00000000
00003100
00000001
00000100
00000000
,
00000010
00000002
00000000
00000000
00000013
00001000
00000001
00001000
,
00000100
00010000
00001000
00000020
00000000
00000000
00001030
00010000
,
00001000
00000020
00000000
00000000
00000130
00000010
00000100
00000000
,
00001000
00020000
00000000
00000000
00031000
00000010
00000000
00010000
,
00001000
00000020
00000000
00000000
00001030
00010000
00001000
00010000
,
00001000
01000000
00010000
00002000
00000000
00000000
00013000
01000000
,
00010000
00002000
00000000
00000000
00013000
01000000
00010000
01000000
,
00100000
00010000
00100000
00000000
00000000
00000000
00000000
00000000
;

//---------------dance-double - ----------------
#NOTEDATA:;
#CHARTNAME:;
#STEPSTYPE:dance-double;
#DESCRIPTION:;
#CHARTSTYLE:;
#DIFFICULTY:Medium;
#METER:14;
#RADARVALUES:0.601515,0.681660,0.102519,0.424722,0.000000,575.000000,561.000000,14.000000,58.000000,0.000000,0.000000,0.000000,0.000000,0.000000,0.601515,0.681660,0.102519,0.424722,0.000000,575.000000,561.000000,14.000000,58.000000,0.000000,0.000000,0.000000,0.000000,0.000000;
#CREDIT:Karl with a K;
#NOTES:
00000000
00000000
00000000
00000000
,
00000000
00000000
00000000
00000000
,
00000000
00000000
00000000
00000000
,
00000000
00000000
00000000
00000000
,
00000000
00000000
00000000
00000000
,
00000000
00000000
00000000
00000000
,
00000000
00000000
00000000
00000000
,
00000000
00000000
00000000
00000000
,
10000000
01000000
00000000
00000000
01100000
00000000
00000000
00000000
,
00010000
00100000
01000000
00100000
,
00001000
00010000
00000000
00000000
00011000
00000000
00000000
00000000
,
00001000
00010000
00000010
00000100
,
00000001
00000100
00000000
00000000
00000110
00000000
00000000
00000000
,
00000010
00001000
00010000
01000000
,
00010000
00100000
10000000
00100000
,
01000000
00000000
00100000
01000000
,
10000000
00100000
01000000
00001000
,
00010000
00001000
00010000
00000100
,
00000010
00000001
00000100
00000010
,
00000100
00000010
00001000
00000010
,
00010000
00001000
00100000
01000000
,
00100000
01000000
10000000
00100000
,
01000000
00000000
00010000
00000000
10000000
00000000
00100000
10000000
,
00000000
00100000
00000000
01000000
00010000
00000000
01000000
00010000
,
00000000
01000000
00001000
00000000
00010000
00000000
00001000
00000000
,
00010000
00000000
00000100
00000010
,
00000001
00000000
00000100
00000000
00000010
00001000
00000000
00000010
,
00000000
00010000
00000000
00000000
00001000
00100000
00000000
00001000
,
00000000
00100000
00000000
00000000
00010000
00100000
00000000
00010000
,
00000000
10000000
01000000
00100000
,
00010000
10000000
00100000
00010000
,
00001000
00000100
00000001
00000010
,
00000100
00000000
00000010
00000000
00000100
00001000
00000000
00000100
,
00000000
00010000
00000000
00000000
00010000
00000000
00001000
00000000
,
00100000
00000000
01000000
00000000
10000000
00000000
00100000
10000000
,
00000000
00100000
00000000
00000000
01000000
00010000
00000000
01000000
,
00000000
00010000
00000000
00000000
00100000
00001000
00000000
00100000
,
00000000
00001000
00000000
00100000
00001000
00000000
00010000
00000000
,
00000010
00000000
00001000
00000000
00000010
00000100
00000000
00000010
,
00000000
00000100
00000000
00000000
00000001
00000000
00000010
00000000
,
00000001
00001000
00000100
00010000
,
00001000
00000000
00011000
00000000
,
01010000
00000000
10100000
00000000
,
10000000
00010000
00200000
00000000
,
00310000
01000000
00100000
10000000
,
00010000
00000000
00000000
00000000
02000000
00000000
00000000
03020000
,
00000000
00032000
00003020
00000000
,
00010030
00000000
00010000
00000100
,
00000010
00000001
00000100
00000010
,
00010000
00000000
00001000
01000000
,
00100000
10000000
01000000
00100000
,
00001000
00000000
00010000
00000010
,
00000100
00000001
00000010
00000100
,
00010000
00000000
00001000
00001000
,
00001000
00001000
00001000
00001000
,
00002000
00000000
00013000
00100000
,
10000000
00010000
01000000
00100000
,
00010000
00000000
00001000
00000010
,
00000001
00001000
00000100
00000010
,
00001000
00000000
00010000
01000000
,
10000000
00010000
00100000
01000000
,
00010000
00000000
00001000
00001000
,
00001000
00001000
00001000
00001000
,
00002000
00000000
01003000
00100000
,
01000000
00002000
00000000
00000000
00013000
00000000
00000100
00000000
,
00000010
00000000
00000100
00020000
00000000
00000000
00030100
00000000
,
00000010
00002000
00000000
00000000
00013000
00000000
01000000
00000000
,
00100000
00002000
00000000
00000000
00013000
00000000
00001000
00000000
,
00010000
00002000
00000000
00000000
00013000
00000000
00000100
00000000
,
00000010
00000000
00000100
00020000
00000000
00000000
00031000
00000000
,
01000000
00002000
00000000
00000000
00013000
00000000
00000010
00000000
,
00001000
00020000
00000000
00000000
00031000
00000000
00000010
00000000
,
00000100
00002000
00000000
00000000
00013000
00000000
00000010
00000000
,
00000100
00000000
00000010
00020000
00000000
00000000
00031000
00000000
,
00100000
00002000
00000000
00000000
00103000
00000000
01000000
00000000
,
00100000
00002000
00000000
00000000
00013000
00000000
00000100
00000000
,
00001000
00000002
00000000
00000000
00000103
00000000
00000010
00000000
,
00001000
00000000
00000100
00020000
00000000
00000000
00031000
00000000
,
01000000
00002000
00000000
00000000
00013000
00000000
01000000
00000000
,
10000000
10000000
00000000
00000000
,
00000000
00000000
00000000
00000000
,
10010000
00000000
00100000
00001000
,
00000000
00100000
00001000
00000000
00010000
00000000
00000100
00000000
,
00000010
00000000
00000100
00000010
,
00000000
00000001
00000100
00000000
00000000
00000010
00001000
00000000
,
00000010
00000000
00010000
00001000
,
00000000
00100000
00010000
00000000
10000000
00000000
01000000
00000000
,
00100000
00010000
01000000
00100000
,
10000000
01000000
00010000
00001000
,
00000100
00000010
00001000
00000100
,
00000000
00000010
00000100
00000000
00001000
00000000
00000010
00000000
,
00000100
00000001
00000100
00000001
,
00000010
00000000
00000010
00000000
00000000
00000100
00010000
00000000
,
00000000
00001000
00000000
00000000
00100000
00000000
01000000
00000000
,
00000000
00100000
00010000
00000000
10000000
00000000
00000000
00100000
,
01000000
00100000
10000000
00010000
,
00100000
01000000
00010000
01000000
,
00200000
00010000
00001000
00000000
,
00310000
00000000
00101000
00000000
,
00001000
00000000
00010000
00000100
,
00000000
00000100
00000010
00000000
00000000
00000010
00000001
00000000
,
00000100
00000010
00001000
00000100
,
00000100
00010000
00000000
00000000
00000000
00001000
00000000
00000000
,
01000000
00000000
00010000
00100000
,
00010000
00000000
10000000
00000000
00000000
00000000
00000000
10000000
,
00100000
00000000
00200000
10000000
,
00000000
01000000
00000000
00000000
10300000
00000000
00010000
00000000
,
00100000
00000000
00001000
00010000
,
00000000
00000100
00000000
00000000
00002000
00000000
00000000
00000000
,
00000002
00003003
00000000
00000100
,
00000000
00001000
00000000
00000000
00010000
00000000
00000000
00000000
,
01000000
00000000
10000000
01000000
,
00100000
00000000
00002000
00000000
,
00013000
00010000
00010000
00000000
,
00002000
00000000
00000000
00000000
,
01000000
01000000
01003000
00000000
02000000
00000000
00000000
00000000
,
00000000
00000000
00000000
00000000
,
03100000
00010000
00001000
00000100
00000001
00000010
00001000
00000000
,
00020000
00000000
00000000
00000000
,
00000100
00000100
00000100
00000000
00030200
00000000
00000000
00000000
,
00000000
00000000
00000000
00000000
,
00001300
00001000
00000000
00000000
00000001
00000000
00000100
00000000
,
00000001
00001000
00000010
00010000
,
00001000
00000000
00011000
00000000
,
00110000
00000000
11000000
00000000
,
10000000
00010000
02000000
00000000
,
03010000
00100000
01000000
10000000
,
00010000
00000000
00000000
00000000
00200000
00000000
00000000
00320000
,
00000000
00032000
00013000
00000000
,
01000000
00010000
10000000
01000000
,
10000000
00010000
00100000
00001000
,
00010000
00000000
00011000
00000000
,
00001010
00000000
00000101
00000000
,
00000001
00001000
00000200
00000000
,
00001300
00000010
00000100
00000001
,
00001000
00000000
00000000
00000000
00000020
00000000
00000000
00002030
,
00000000
00023000
02030000
00000000
,
03001000
00000000
00010000
00000010
,
00000100
00000001
00000010
00000100
,
00010000
00000000
00001000
00100000
,
01000000
10000000
00100000
01000000
,
00001000
00000000
00010000
00000100
,
00000010
00000001
00000100
00000010
,
00010000
00000000
00001000
00001000
,
00001000
00001000
00001000
00001000
,
00002000
00000000
00013000
01000000
,
10000000
00010000
00100000
01000000
,
00010000
00000000
00001000
00000100
,
00000001
00001000
00000010
00000100
,
00001000
00000000
00010000
00100000
,
10000000
00010000
01000000
00100000
,
00010000
00000000
00001000
00001000
,
00001000
00001000
00001000
00001000
,
00002000
00000000
00103000
00010000
,
00100000
00002000
00000000
00000000
00013000
00000000
00000010
00000000
,
00000100
00000000
00000010
00020000
00000000
00000000
00030010
00000000
,
00010000
00002000
00000000
00000000
01003000
00000000
00010000
00000000
,
01000000
00002000
00000000
00000000
00013000
00000000
00000100
00000000
,
00010000
00002000
00000000
00000000
00103000
00000000
01000000
00000000
,
00100000
00000000
00001000
00020000
00000000
00000000
00030010
00000000
,
00010000
00002000
00000000
00000000
00013000
00000000
01000000
00000000
,
10000000
02000000
00000000
00000000
03100000
00000000
01000000
00000000
,
00010000
00002000
00000000
00000000
00003100
00000000
00000010
00000000
,
00001000
00000000
00000100
00000002
00000000
00000000
00000103
00000000
,
00010000
00002000
00000000
00000000
00103000
00000000
01000000
00000000
,
00010000
02000000
00000000
00000000
13000000
00000000
00100000
00000000
,
01000000
00020000
00000000
00000000
00031000
00000000
00000100
00000000
,
00000010
00000000
00001000
00000002
00000000
00000000
00001003
00000000
,
00000010
00000200
00000000
00000000
00010300
00000000
00001000
00000000
,
20000000
30010000
00000000
00000000
;

//---------------dance-double - ----------------
#NOTEDATA:;
#CHARTNAME:;
#STEPSTYPE:dance-double;
#DESCRIPTION:;
#CHARTSTYLE:;
#DIFFICULTY:Easy;
#METER:10;
#RADARVALUES:0.423676,0.557722,0.109842,0.205038,0.000000,405.000000,390.000000,15.000000,28.000000,0.000000,0.000000,0.000000,0.000000,0.000000,0.423676,0.557722,0.109842,0.205038,0.000000,405.000000,390.000000,15.000000,28.000000,0.000000,0.000000,0.000000,0.000000,0.000000;
#CREDIT:Karl with a K;
#NOTES:
00000000
00000000
00000000
00000000
,
00000000
00000000
00000000
00000000
,
00000000
00000000
00000000
00000000
,
00000000
00000000
00000000
00000000
,
00000000
00000000
00000000
00000000
,
00000000
00000000
00000000
00000000
,
00000000
00000000
00000000
00000000
,
00000000
00000000
00000000
00000000
,
10000000
00100000
10000000
00000000
,
00010000
00100000
00010000
00000000
,
01000000
00010000
01000000
00000000
,
00001000
00010000
00001000
00000000
,
00010000
00000100
00010000
00000000
,
00000100
00000010
00000100
00000000
,
00000010
00000001
00000100
00000001
,
00000010
00000000
00000001
00000000
,
00000100
00000000
00000010
00000100
,
00000010
00000000
00001000
00000000
,
00000010
00000000
00010000
00001000
,
00010000
00000000
00001000
00000000
,
00100000
00000000
01000000
10000000
,
01000000
00000000
10000000
00000000
,
00100000
00000000
01000000
00000000
,
00100000
00000000
10000000
00000000
,
01000000
00000000
00100000
00010000
,
00100000
00000000
00001000
00000000
,
00010000
00000000
00000010
00010000
,
00000010
00000000
00001000
00000000
,
00000100
00000000
00000010
00000001
,
00000010
00000000
00000001
00000000
,
00000100
00000000
00001000
00000000
,
00020000
00000000
00031000
00000000
,
00100000
00000000
01000000
00100000
,
00010000
00000000
10000000
00000000
,
00100000
00000000
01000000
00010000
,
10000000
00000000
00010000
00100000
,
00010000
00000000
00100000
01000000
,
00100000
00000000
01000000
10000000
,
01000000
00000000
00010000
00001000
,
00010000
00000000
00001000
00000000
,
00010000
00000000
00000100
00000000
,
00001000
00000000
00000020
00000000
,
00000032
00000000
00000203
00000000
,
00001300
00000000
00000001
00000000
,
00000100
00000000
00000010
00000000
,
00001000
00000000
00020000
00000000
,
00230000
00000000
20300000
00000000
,
31000000
00000000
00010000
10000000
,
00010000
10000000
00010000
00000000
,
00110000
00000000
00100000
00010000
,
00100000
00010000
00100000
00000000
,
00101000
00000000
00001000
00010000
,
00001000
00010000
00001000
00000000
,
00011000
00000000
00001000
00001000
,
00000010
00000010
00000001
00000001
,
00000200
00000000
00000310
00000100
,
00000010
00000100
00000010
00000000
,
00001010
00000000
00001000
00000001
,
00001000
00000001
00001000
00000000
,
00001100
00000000
00000100
00010000
,
00000100
00010000
00000100
00000000
,
00011000
00000000
01000000
01000000
,
01000000
01000000
01000000
01000000
,
02000000
00000000
03100000
00000000
,
00100000
00000000
00000000
00000000
10000000
00000000
00000000
00100000
,
00000000
00000000
00010000
00000000
00000000
00001000
00000000
00000000
,
00010000
00000000
00001000
00000000
,
00001000
00000000
00010000
00000000
,
00000010
00000000
00000000
00000000
00010000
00000000
00000000
00001000
,
00000000
00000000
00000010
00000000
00000000
00000001
00000000
00000000
,
00001000
00000000
00000001
00000000
,
00000100
00000000
00000010
00000000
,
00000010
00000000
00000000
00000000
00010000
00000000
00000000
00001000
,
00000000
00000000
00010000
00000000
00000000
01000000
00000000
00000000
,
10000000
00000000
00010000
00000000
,
01000000
00000000
00100000
00000000
,
01000000
00000000
00000000
00000000
00010000
00000000
00000000
10000000
,
00000000
00000000
01000000
00000000
00000000
00010000
00000000
00000000
,
00001000
00000000
00010000
00001000
,
00010000
00001000
00000000
00000000
,
00000000
00000000
00000000
00000000
,
00010000
00000000
00000010
00001000
,
00000010
00000000
00001000
00000000
,
00000100
00000000
00000010
00000001
,
00000010
00000000
00000001
00000000
,
00000100
00000000
00001000
00010000
,
00001000
00000000
00010000
00000000
,
00001000
00000000
00100000
00000000
,
01000000
00000000
10000000
01000000
,
10000000
00000000
00100000
00000000
,
00010000
00000000
00001000
00000000
,
00010000
00000000
00000100
00000000
,
00001000
00000000
00000001
00000000
,
00000100
00000000
00000001
00000010
,
00000001
00000000
00000010
00000000
,
00001000
00000000
00010000
00000000
,
01000000
00000000
10000000
00100000
,
20000000
00000000
01000000
00000000
,
00010000
00000000
30100000
00000000
,
00010000
00000000
00001000
00000000
,
00010000
00000000
00020000
00000000
,
00000100
00000000
00000010
00000000
,
00030100
00000000
00001000
00000000
,
00000010
00000000
00000100
00000000
,
00000001
00000000
00000010
00000000
,
00000100
00000000
00010000
00000000
,
00001000
00000000
00100000
00000000
,
00001000
00000000
00010000
00000000
,
01000000
00000000
10000000
00000000
,
00100000
00000000
00010000
00000000
,
00100000
00000000
10000000
00000000
,
00010000
00000000
10010000
00000000
,
01100000
00000000
00011000
00000000
,
00001000
00001000
00001000
00000000
,
00000000
00000000
00000000
00000000
,
00010000
00010000
00010000
00000000
00000000
00000000
00000000
00000000
,
00000000
00000000
00000000
00000000
,
00000100
00000010
00000001
00000100
,
00002000
00000000
00000000
00000000
,
00013000
00020000
00000000
00000000
,
00000000
00000000
00000000
00000000
,
00030100
00000000
00010000
00000000
,
00001000
00000000
01000000
00000000
,
10000000
00000000
00200000
00000000
,
00320000
00000000
02030000
00000000
,
03010000
00000000
10000000
00000000
,
01000000
00000000
00100000
00000000
,
00001000
00000000
00000020
00000000
,
00000032
00000000
00000203
00000000
,
00001300
00000000
00010000
00000000
,
00001000
00000000
00100000
00000000
,
10000000
00000000
02000000
00000000
,
03020000
00000000
00230000
00000000
,
00310000
00000000
10000000
00000000
,
00100000
00000000
01000000
00000000
,
00001000
00000000
00000200
00000000
,
00000302
00000000
00000023
00000000
,
00000031
00000000
00000001
00001000
,
00000001
00001000
00000001
00000000
,
00001010
00000000
00000010
00001000
,
00000010
00001000
00000010
00000000
,
00010010
00000000
00010000
00001000
,
00010000
00001000
00010000
00000000
,
00011000
00000000
00010000
00010000
,
00100000
00100000
10000000
10000000
,
02000000
00000000
03100000
01000000
,
00100000
01000000
00100000
00000000
,
00110000
00000000
00010000
10000000
,
00010000
10000000
00010000
00000000
,
01010000
00000000
01000000
00001000
,
01000000
00001000
01000000
00000000
,
00011000
00000000
00000100
00000100
,
00000100
00000100
00000100
00000100
,
00000200
00000000
00000310
00000000
,
00000001
00000000
00000000
00000000
00000100
00000000
00000000
00001000
,
00000000
00000000
00010000
00000000
00000000
00100000
00000000
00000000
,
10000000
00000000
01000000
00000000
,
00100000
00000000
00010000
00000000
,
01000000
00000000
00000000
00000000
00010000
00000000
00000000
00001000
,
00000000
00000000
00000010
00000000
00000000
00000001
00000000
00000000
,
00000010
00000000
00001000
00000000
,
00000010
00000000
00000100
00000000
,
00000001
00000000
00000000
00000000
00000010
00000000
00000000
00001000
,
00000000
00000000
00010000
00000000
00000000
01000000
00000000
00000000
,
10000000
00000000
01000000
00000000
,
00100000
00000000
00010000
00000000
,
01000000
00000000
00000000
00000000
00100000
00000000
00000000
00010000
,
00000000
00000000
00001000
00000000
00000000
00000100
00000000
00000000
,
00000010
00000000
00001000
00000100
,
00000002
00000003
00000000
00000000
;
