#TITLE:Pechalnaya;
#SUBTITLE:;
#ARTIST:LIDA;
#TITLETRANSLIT:;
#SUBTITLETRANSLIT:;
#ARTISTTRANSLIT:;
#GENRE:;
#CREDIT:;
#BANNER:Pechalnaya.png;
#BACKGROUND:Pechalnaya-bg.png;
#LYRICSPATH:;
#CDTITLE:;
#MUSIC:Pechalnaya.ogg;
#OFFSET:2.486140;
#SAMPLESTART:32.431885;
#SAMPLELENGTH:10.523430;
#LASTBEATHINT:2.211967;
#SELECTABLE:YES;
#BPMS:0.000000=91.224998
,52.000000=182.449997
,116.000000=91.224998
,182.000000=182.449997
;
#STOPS:
;
#BGCHANGES:;
#KEYSOUNDS:;
#ATTACKS:;

//---------------dance-single - ----------------
#NOTES:
     dance-single:
     :
     Hard:
     13:
     0.587564,0.824266,0.268054,0.083767,0.322502,491.000000,459.000000,32.000000,10.000000,0.000000,0.000000,0.587564,0.824266,0.268054,0.083767,0.322502,491.000000,459.000000,32.000000,10.000000,0.000000,0.000000:
0000
0000
0000
0000
,
0000
0000
0000
0000
,
0000
0000
0000
0000
,
0000
0000
0000
0000
,
0000
0000
0000
0000
,
2000
3000
0000
0000
0000
0000
1000
0200
0300
0000
0000
0100
0100
0010
0001
0000
,
0110
0100
1000
0101
0010
0000
1001
0100
,
1010
0000
0001
0110
1000
0002
1003
0010
,
1100
0100
0010
0011
0001
1001
2000
3001
,
0001
0010
0001
0010
0100
0000
0110
0000
0100
0010
0001
0000
1100
0000
0000
0000
,
1000
0010
1000
0010
0100
0000
0001
0100
1000
0000
0100
0000
0101
0000
0000
0000
,
0001
1000
0001
0010
1000
0010
0001
1000
0010
0010
0100
0000
1010
0000
1000
0000
,
0011
0000
0010
0000
0100
0000
0011
0000
0001
0000
1000
0001
0010
0000
1100
0000
,
1001
0000
1000
0001
0100
0010
0100
0000
,
0001
0100
0001
0100
1000
0000
0100
0001
,
1000
0010
1000
0010
0001
0000
0010
1000
,
0100
0010
1000
0010
0001
0000
1100
0000
,
0101
0000
0001
1000
0100
0010
0100
1000
,
0010
0000
0010
0100
1000
0000
1000
0100
,
0001
1000
0001
0010
1000
0000
0010
0001
,
0100
0010
1000
0000
1000
0000
0100
0000
,
0010
0000
1001
1000
0001
0010
0001
1000
,
0010
0001
1000
0100
0001
1000
0010
1000
,
0001
0010
1000
0001
0100
1000
0001
1000
,
0100
0010
0001
1000
0001
0000
1010
0000
,
0011
0000
0001
1000
0010
1000
0001
0010
,
0100
0000
0001
0100
1000
0000
1000
0010
,
0001
1000
0100
0001
1000
0000
0001
0010
,
0001
0100
0010
0000
0010
0000
1000
0000
,
0002
0003
0000
0000
0000
0000
0001
0020
0030
0000
0000
0010
0010
0100
1000
0000
,
0011
0010
0001
0000
1000
0001
0010
0100
1000
0010
0100
0000
1001
0000
0001
1000
,
0100
1000
0100
0000
0000
0100
0010
0001
1000
0001
0100
0000
0010
0100
0010
0100
,
0001
0100
0010
1000
0001
1000
0010
0100
0001
0010
0100
0000
0000
0010
0010
0100
,
1000
0001
0001
0100
0001
1000
0100
1000
0010
0100
0100
0010
1000
0001
0010
0001
,
1000
0100
0100
0010
0100
0010
0001
1000
0010
0100
0100
0000
0100
0010
0100
0000
,
1001
0000
0001
0100
0001
0100
0010
0100
0100
0010
0010
1000
0001
1000
0100
0010
,
0100
1000
0100
0010
0001
0000
1001
0000
0001
0000
1000
0000
0010
0000
0010
0000
,
0100
0010
1000
0001
0001
0010
0100
0100
,
0002
0000
0000
0103
0000
0000
0100
0000
1000
0000
0010
0000
0002
0000
0000
0013
,
0000
0010
1000
0001
0001
1000
0010
0100
,
2000
0000
0000
3100
0000
0000
0100
0000
0001
0000
0010
0000
2000
0000
0000
3010
,
0100
0000
1000
0010
0100
0000
1000
0000
0100
0000
0001
0010
0100
0000
0001
0000
,
0100
0000
0100
1000
0001
0000
0010
1000
0000
1000
0010
0000
0001
1000
0001
0000
,
0010
0000
0001
0100
0010
0000
0001
0000
0010
0000
1000
0100
0010
0000
1000
0000
,
0010
0001
0010
0001
1000
0010
1000
0010
0100
0000
0100
0000
0001
0000
0000
0010
,
0000
0000
0010
0001
1000
0000
0101
0000
1001
0000
0000
0000
1000
0000
0010
0000
,
1000
0001
0010
0000
1000
0010
1000
0010
,
0001
0000
0100
0010
0001
0010
0001
0010
,
1000
0000
0001
0010
0100
0001
0100
1000
,
0001
0000
1010
0000
1001
0000
0001
0100
,
0001
1000
0100
0000
0001
0000
0001
0100
,
1000
0000
0001
0100
1000
0100
1000
0100
,
0001
0000
0010
0100
0010
0001
1000
0000
,
1000
0000
0010
0000
0100
0000
1001
1000
,
0010
0100
0010
1000
0100
0010
1000
0010
,
0001
1000
0010
1000
0001
0100
0010
0001
,
0010
1000
0001
0010
0100
1000
0001
0100
,
0010
0000
0101
0000
1010
0000
0010
1000
,
0001
0010
0100
0010
1000
0000
1000
0010
,
0001
0000
0100
1000
0001
0010
1000
0001
,
0010
0000
0100
0010
0100
1000
0001
0000
,
0001
1000
0010
0000
;

//---------------dance-single - ----------------
#NOTES:
     dance-single:
     :
     Medium:
     10:
     0.433194,0.592441,0.167534,0.033507,0.104709,362.000000,342.000000,20.000000,4.000000,0.000000,0.000000,0.433194,0.592441,0.167534,0.033507,0.104709,362.000000,342.000000,20.000000,4.000000,0.000000,0.000000:
0000
0000
0000
0000
,
0000
0000
0000
0000
,
0000
0000
0000
0000
,
0000
0000
0000
0000
,
0000
0000
0000
0000
,
1001
0000
0010
1000
0001
0000
0100
0100
,
1000
0100
0100
0001
0010
0000
0100
1000
,
1001
0000
0010
1000
0001
0000
0100
0010
,
0010
1000
0010
0001
0010
1000
0001
0100
,
0010
1000
0010
0000
0010
0000
1000
0000
0001
0100
0001
0000
0001
0000
0000
0000
,
0010
0001
0010
0001
0010
0000
0100
1000
0100
0000
1000
0000
1000
0000
0000
0000
,
1000
0000
0001
0000
0010
0000
0100
0010
0000
0010
0001
0000
1000
0000
0010
0000
,
0010
0000
0100
0000
1000
0000
0100
0000
0001
0000
1000
0001
1000
0000
0110
0000
,
1001
1000
0100
0010
,
0001
0010
0001
0000
1000
0000
0010
0000
,
0100
0001
0100
0000
0010
0000
1000
0000
,
0001
1000
0001
0000
0010
0000
0100
0000
,
1001
0001
0100
0010
,
1000
0000
0010
1000
0010
0000
0100
0000
,
0001
1000
0001
0000
0010
0000
0100
0000
,
1000
0100
1000
0000
0100
0000
0010
0000
,
0001
1001
1000
0010
,
0100
0001
0100
0000
0010
0000
1000
0000
,
0001
0010
0001
0000
0010
0000
0100
0000
,
1000
0001
1000
0000
0010
0000
0100
0000
,
1001
1000
0001
0100
,
0010
0000
1000
0100
1000
0000
0010
0000
,
1000
0001
1000
0000
0001
0000
0100
0000
,
0010
1000
0010
0000
0100
0000
0001
0000
,
1000
0000
0000
0001
0010
0010
0000
0001
,
1001
0100
0000
1010
1000
0001
0010
0000
,
0110
0100
0000
1100
1000
0001
1000
0010
,
0101
0000
0001
0000
1000
0000
0011
0000
0100
0000
1000
0000
0000
0001
0001
0000
,
1000
0000
0010
1000
0010
0000
0100
0000
0010
0000
0100
0001
0100
0000
0001
0000
,
0010
0001
0010
0000
0100
0000
1000
0000
0001
1000
0001
0000
1000
0001
1000
0000
,
1001
0000
0001
0000
0100
0000
0010
1000
0000
1000
0001
0000
0010
0000
0100
0000
,
0010
0001
1000
0010
0100
0010
0100
0100
,
0002
1000
1003
0010
0200
0001
0301
0010
,
0100
0000
0000
1000
0000
0000
1000
0000
0100
0000
0010
0000
0001
0000
0000
1000
,
0000
1000
0020
0100
0130
0001
0020
0100
,
0130
0000
0000
1000
0000
0000
0001
0000
0100
0000
0010
0000
1000
0000
0000
0001
,
0000
0010
1000
0010
0010
0001
1000
0010
,
0100
0000
0000
0010
0000
0000
0010
0000
1000
0000
0001
0000
0010
0000
0000
0100
,
0000
0100
0001
0100
0100
1000
0001
0100
,
0010
0000
0000
0100
0000
0000
0100
0000
0001
0000
1000
0000
1000
0000
0000
0100
,
0000
0000
1000
0001
1000
0000
0110
0000
1001
0000
0000
0000
0001
0000
0000
0000
,
0100
0000
0010
0000
1000
0010
1000
0000
,
0001
0000
0010
0000
0100
1000
0100
0000
,
0010
0000
0001
0000
1000
0001
1000
0000
,
0010
0100
1001
1000
,
0100
0000
0010
0000
0001
0000
0010
0001
,
0010
0000
0100
0000
1000
0001
1000
0000
,
0010
0000
0100
0000
0001
0100
0001
0000
,
0100
0010
1000
1001
,
0001
0000
0010
0000
0100
1000
0001
0000
,
0010
0000
0001
0000
0010
0001
1000
0000
,
0010
0000
0100
0000
0001
1000
0001
0000
,
0010
0100
1001
0001
,
1000
0000
0100
0000
0010
0000
0001
0010
,
0100
0000
1000
0000
0010
0100
0001
0000
,
1000
0000
0001
0000
0010
0001
1000
0000
,
0100
0010
1001
0000
;

//---------------dance-single - ----------------
#NOTES:
     dance-single:
     :
     Easy:
     7:
     0.299167,0.386375,0.050260,0.000000,0.020942,250.000000,244.000000,6.000000,0.000000,0.000000,0.000000,0.299167,0.386375,0.050260,0.000000,0.020942,250.000000,244.000000,6.000000,0.000000,0.000000,0.000000:
0000
0000
0000
0000
,
0000
0000
0000
0000
,
0000
0000
0000
0000
,
0000
0000
0000
0000
,
0000
0000
0000
0000
,
0000
0000
0000
0000
,
1000
1000
0010
1000
0001
0000
0010
0010
,
0100
0000
0100
0100
1000
0000
0001
1000
,
0001
0001
0010
0001
1000
0000
0000
0000
,
0010
0010
0010
1000
0001
1000
0001
0000
,
0100
0100
0100
0010
1000
0010
1000
0000
,
0001
0010
0001
0000
1000
0000
0010
0010
,
0100
0000
0001
1000
0001
0000
0010
0000
,
1001
0000
1000
0000
,
0010
1000
0010
1000
,
0001
1000
0001
0010
,
0100
0010
0100
0010
,
0001
0000
0001
0000
,
0010
0001
0010
0001
,
1000
0001
1000
0010
,
0100
0001
1000
0100
,
0010
1001
0001
1000
,
0100
1000
0001
0010
,
0001
0100
0001
1000
,
0010
0100
0100
0010
,
1000
0001
1000
0100
,
1000
0001
0010
0001
,
1000
0010
1000
0001
,
0100
0100
0100
0010
,
1000
0000
0000
0000
,
0001
0001
0000
1000
0100
0100
0000
0100
,
1000
1000
0000
1000
0001
1000
0000
0000
,
1000
0000
0010
0100
0010
1000
0000
0001
,
0001
0000
0010
0100
0010
0000
0001
0000
,
1000
0010
1000
0001
0100
0000
0110
0000
,
1001
0000
0001
0010
0001
1000
0001
0000
,
1000
1000
0010
0010
1000
0000
0001
0000
,
0010
0010
0100
0100
,
1000
0000
0000
1000
0000
0000
0000
0000
1000
0000
0000
0000
0001
0000
0000
0001
,
0000
1000
0010
0010
,
0100
0000
0000
0100
0000
0000
0000
0000
0001
0000
0000
0000
1000
0000
0000
1000
,
0000
0000
0001
0000
0010
0100
0010
0000
,
0001
0000
1000
0000
0010
0100
0010
0000
,
1000
0100
0010
0001
,
1000
0000
0010
0000
1000
0000
0000
0000
0001
0000
0001
0000
1000
0000
0000
1000
,
0000
0010
0010
0000
1001
0000
0000
0000
,
0001
0000
0010
0001
,
0010
0001
1000
0001
,
1000
0010
0100
0010
,
0100
0010
1000
0000
,
1000
0000
0010
1000
,
0010
1000
0001
1000
,
0001
0010
0100
1000
,
0001
0100
0010
1001
,
1000
0001
0100
0001
,
1000
0010
1000
0100
,
1000
0001
0010
0100
,
0100
0010
0001
1000
,
0001
0100
0001
1000
,
0010
1000
0001
0010
,
0001
1000
0100
0100
,
0100
0010
0001
0000
;

//---------------dance-single - ----------------
#NOTES:
     dance-single:
     :
     Beginner:
     3:
     0.187877,0.231825,0.058637,0.000000,0.000000,157.000000,150.000000,7.000000,0.000000,0.000000,0.000000,0.187877,0.231825,0.058637,0.000000,0.000000,157.000000,150.000000,7.000000,0.000000,0.000000,0.000000:
// measure 0
0000
0000
0000
0000
,  // measure 1
0000
0000
0000
0000
,  // measure 2
0000
0000
0000
0000
,  // measure 3
0000
0000
0000
0000
,  // measure 4
0000
0000
0000
0000
,  // measure 5
0000
0000
0000
0000
,  // measure 6
1001
0001
1000
0000
,  // measure 7
0100
0000
0010
0000
,  // measure 8
0100
0100
1000
0000
,  // measure 9
0001
0001
1000
1000
,  // measure 10
0010
0100
0010
0000
,  // measure 11
1000
0100
0100
0010
,  // measure 12
0010
0001
1000
0000
,  // measure 13
1001
0000
1000
0000
,  // measure 14
0100
0000
0010
0000
,  // measure 15
0100
0000
0100
0000
,  // measure 16
0010
0010
0010
0000
,  // measure 17
1001
0000
0001
0000
,  // measure 18
0100
0000
0010
0000
,  // measure 19
1000
0000
0010
0000
,  // measure 20
0100
0100
0100
0000
,  // measure 21
0010
0010
0010
0000
,  // measure 22
1000
0000
0001
0000
,  // measure 23
0010
0010
0010
0000
,  // measure 24
0100
0100
0100
0000
,  // measure 25
1000
0000
0010
0000
,  // measure 26
1000
0000
0001
0000
,  // measure 27
0100
0100
0100
0000
,  // measure 28
0010
0010
0010
0000
,  // measure 29
1000
0000
0000
0000
,  // measure 30
0001
0000
0110
0000
,  // measure 31
1000
0000
1000
0000
,  // measure 32
0001
0001
1000
0000
,  // measure 33
1000
0010
1000
0001
,  // measure 34
1000
0100
1000
1000
,  // measure 35
0001
0010
0001
1000
,  // measure 36
0001
0100
0010
0100
,  // measure 37
0010
0000
1000
0000
,  // measure 38
0001
0000
0010
0000
,  // measure 39
0100
0000
1000
0000
,  // measure 40
0001
0000
0100
0000
,  // measure 41
0010
1000
1000
0001
,  // measure 42
0001
0010
0100
0100
,  // measure 43
0010
0100
1000
0010
,  // measure 44
0100
0001
1000
1000
,  // measure 45
0001
0000
1001
0000
,  // measure 46
0001
0000
0010
0000
,  // measure 47
0010
0000
0100
0000
,  // measure 48
0100
0000
1000
1000
,  // measure 49
1000
0000
1001
0000
,  // measure 50
1000
0000
0010
0000
,  // measure 51
0100
0000
0001
0000
,  // measure 52
0010
0000
0001
0001
,  // measure 53
0001
0000
0100
0100
,  // measure 54
0100
0000
0010
0000
,  // measure 55
1000
0000
0001
0001
,  // measure 56
0001
0000
1000
1000
,  // measure 57
1000
0000
0100
0000
,  // measure 58
0010
0000
0001
0000
,  // measure 59
1000
0000
0001
0001
,  // measure 60
0001
0000
1000
1000
,  // measure 61
1000
0000
1001
0000
;
