#VERSION:0.83;
#TITLE:Pardun;
#SUBTITLE:;
#ARTIST:Avilon & NyaniKore;
#TITLETRANSLIT:;
#SUBTITLETRANSLIT:;
#ARTISTTRANSLIT:;
#GENRE:;
#ORIGIN:;
#CREDIT:;
#BANNER:Pardun.png;
#BACKGROUND:Pardun-bg.png;
#PREVIEWVID:;
#JACKET:Pardun-jacket.png;
#CDIMAGE:;
#DISCIMAGE:;
#LYRICSPATH:;
#CDTITLE:;
#MUSIC:Pardun.ogg;
#OFFSET:0.000000;
#SAMPLESTART:20.624996;
#SAMPLELENGTH:15.000000;
#SELECTABLE:YES;
#BPMS:0.000=128.000;
#STOPS:;
#DELAYS:;
#WARPS:;
#TIMESIGNATURES:0.000=4=4;
#TICKCOUNTS:0.000=4;
#COMBOS:0.000=1;
#SPEEDS:0.000=1.000=0.000=0;
#SCROLLS:0.000=1.000;
#FAKES:;
#LABELS:0.000=Song Start;
#BGCHANGES:2.250=Pardun.avi=1.000=1=0=0=StretchNoLoop==CrossFade==,
99999=-nosongbg-=1.000=0=0=0 // don't automatically add -songbackground-
;
#KEYSOUNDS:;
#ATTACKS:
;

//---------------dance-single - ----------------
#NOTEDATA:;
#CHARTNAME:;
#STEPSTYPE:dance-single;
#DESCRIPTION:;
#CHARTSTYLE:;
#DIFFICULTY:Challenge;
#METER:15;
#RADARVALUES:0.605298,0.765112,0.307721,0.378734,0.718017,537.000000,498.000000,39.000000,48.000000,17.000000,0.000000,0.000000,0.000000,0.000000,0.605298,0.765112,0.307721,0.378734,0.718017,537.000000,498.000000,39.000000,48.000000,17.000000,0.000000,0.000000,0.000000,0.000000;
#CREDIT:Pekkle;
#NOTES:
0000
0000
0000
0000
,
0000
0000
0000
0000
,
0000
0000
0000
0000
,
2002
0000
0000
0000
,
0000
0000
0000
0000
,
0000
0000
0000
0000
,
0000
0000
0000
3003
,
0001
0100
0001
0100
0010
1000
0010
1000
,
0001
0010
0001
0010
0100
1000
0100
1000
,
0001
0100
0010
0100
0001
1000
0100
1000
0001
0100
0010
1000
0001
0010
0100
2000
,
0000
0000
0000
3001
,
1000
0000
0100
01M0
0001
1000
0000
0100
0000
0001
0000
0000
0100
0000
1000
0000
,
1001
0000
0001
0000
1000
0001
0000
0100
0000
1000
0000
0000
0100
0000
0001
0000
,
2001
0000
0000
0000
3100
0000
1000
0100
0010
000M
0010
1000
0100
0000
2000
0000
,
0000
0000
3001
0000
1000
0000
0001
0100
0010
M000
0010
0001
0100
0000
0002
0000
,
0000
0000
0103
01M0
1000
0001
0000
0010
0000
1000
0000
0000
0010
0000
0001
0000
,
1001
0000
1000
0000
0001
1000
0000
0010
0000
0001
0000
0000
0010
0000
1000
0000
,
1002
0000
0000
0000
0103
0010
1000
0010
0000
1000
0100
0010
0000
0001
0100
0010
,
0002
0023
2030
3002
0023
0230
2300
0000
,
0000
0000
3010
0M10
0001
1000
0000
0010
0000
0001
0000
0000
1000
0000
0100
0000
,
1001
0000
0001
0000
1000
0001
0000
0010
0000
1000
0000
0000
0001
0000
0100
0000
,
1002
0000
0000
0000
0103
0000
0001
0010
0100
M000
0100
0001
0010
0000
0002
0000
,
0000
0000
0103
0000
0001
0000
1000
0010
0100
000M
0100
1000
0010
0000
2000
0000
,
0000
0000
3100
01M0
0001
1000
0000
0100
0000
0001
0000
0000
1000
0000
0010
0000
,
1001
0000
0001
0000
1000
0001
0000
0100
0000
1000
0000
0000
0001
0000
0010
0000
,
2001
0000
0000
0000
3010
0100
0001
0100
0000
0001
0100
0010
0000
1000
0100
0010
,
0002
0000
0000
1003
,
0220
0000
0000
0000
,
0000
0000
0000
0330
,
0002
0000
0000
2003
0000
3200
0320
0032
,
0000
0000
0000
0000
,
1003
0000
1000
0000
1010
0000
0000
0001
0000
0000
0010
0000
0011
0000
0000
0000
,
0001
0000
0001
0000
0101
0000
0000
1000
0000
0000
0100
0000
1100
0000
0000
0000
,
1000
0000
1000
0000
1001
0000
0000
0001
0000
0100
0010
0000
0110
0000
0000
0000
,
0100
0001
1000
0000
1001
0000
0001
0010
0000
0010
0100
0000
1000
0100
0001
0100
,
1000
0000
1000
0000
1001
0000
0001
0100
0000
0100
0010
0000
1010
0000
0000
0000
,
1000
0001
0010
0000
0110
0000
0100
1000
0000
1000
0001
0000
0011
0000
0000
0000
,
0010
0100
1000
0000
1001
0000
0001
0100
0000
0100
0010
0000
1010
0000
0000
0000
,
1000
0001
0010
0000
0110
0000
0100
1000
0000
1000
0001
0000
1000
0010
0001
0010
,
1000
0001
0010
0000
1001
0000
0001
1000
0000
1000
0010
0000
1001
0000
0000
0000
,
0001
0010
0100
0000
1001
0000
1000
0001
0000
0001
0100
0000
1001
0000
0000
0000
,
1000
0010
0100
0000
1001
0000
0001
0010
0000
0010
0100
0000
1001
0000
0000
0000
,
0001
1000
0001
0010
0100
1000
0100
0010
0001
1000
0010
0100
0020
0000
0130
0000
,
2002
0000
0000
0000
,
0000
0000
0000
3003
,
0001
0001
1000
1000
,
0200
0000
0300
1001
,
0001
1000
0001
0000
1000
0100
1000
0000
0001
1000
0001
0000
0100
0001
0100
0000
,
0001
1000
0100
0000
0010
0001
1000
0000
0001
0100
0010
0000
1000
0010
0100
0000
,
0001
1000
0100
1000
0001
0100
0010
0100
0001
1000
0100
0010
0001
1000
0010
0100
,
0002
0000
0000
1003
,
0001
0000
0010
0M10
1000
0001
0010
0100
0000
0001
0000
0000
1000
0000
0010
0000
,
1001
0000
1000
0000
0001
1000
0010
0100
0000
1000
0000
0000
0001
0000
0010
1000
,
0002
0000
0000
0000
0013
0000
0001
0010
1000
00M0
1000
0100
0001
0M00
0002
0000
,
0000
0000
0013
0000
0001
0000
1000
0010
0001
00M0
0001
0100
1000
0100
0010
2000
,
0000
0000
3100
01M0
0001
1000
0100
0010
0000
1000
0000
0000
0001
0000
0100
0000
,
1001
0000
0001
0000
1000
0001
0100
0010
0000
0001
0000
0000
1000
0000
0100
0001
,
2000
0000
0000
0000
3001
0010
0001
0100
0010
1000
0001
0010
0000
0001
0100
0010
,
0002
0023
2030
3002
0023
0230
2300
0000
,
3001
0000
0100
01M0
1000
0001
0100
0010
0000
0001
0010
0000
0110
0000
1000
0000
,
1001
0000
0001
0000
1000
0001
0010
0100
0000
0001
0100
0000
0110
0000
0001
0000
,
2001
0000
0000
0000
3100
0000
1000
0100
0001
0M00
0001
0010
1000
00M0
2000
0000
,
0000
0000
3100
0000
1000
0000
0001
0100
1000
0M00
1000
0010
0001
0010
0100
0020
,
0001
0000
1030
0000
0001
1000
0100
0010
0000
0001
0100
0010
0000
1000
0001
1000
,
0100
0000
0100
0000
1000
0001
0100
0010
0000
1000
0100
0010
0000
0001
1000
0001
,
2001
0000
0000
0000
3001
0100
0001
0010
0100
1000
0010
1000
0001
0010
0100
0001
,
2000
0000
0000
0000
3010
0001
0010
0001
1000
0010
0100
0020
0001
0000
0130
0000
;

//---------------dance-double - ----------------
#NOTEDATA:;
#CHARTNAME:;
#STEPSTYPE:dance-double;
#DESCRIPTION:;
#CHARTSTYLE:;
#DIFFICULTY:Challenge;
#METER:15;
#RADARVALUES:0.603044,0.765112,0.299831,0.347173,0.674620,535.000000,497.000000,38.000000,44.000000,0.000000,0.000000,0.000000,0.000000,0.000000,0.603044,0.765112,0.299831,0.347173,0.674620,535.000000,497.000000,38.000000,44.000000,0.000000,0.000000,0.000000,0.000000,0.000000;
#CREDIT:Pekkle;
#NOTES:
// measure 0
00000000
00000000
00000000
00000000
,  // measure 1
00000000
00000000
00000000
00000000
,  // measure 2
00000000
00000000
00000000
00000000
,  // measure 3
00022000
00000000
00000000
00000000
,  // measure 4
00000000
00000000
00000000
00000000
,  // measure 5
00000000
00000000
00000000
00000000
,  // measure 6
00000000
00000000
00000000
00033000
,  // measure 7
00001000
00001000
01000000
01000000
00100000
00100000
00010000
00010000
,  // measure 8
00001000
00001000
00000010
00000010
00000100
00000100
00010000
00010000
,  // measure 9
00001000
01000000
00010000
01000000
00100000
10000000
00010000
10000000
01000000
00100000
00001000
00010000
00000010
00000100
00000001
00002000
,  // measure 10
00000000
00000000
00000000
00003001
,  // measure 11
00000100
00000000
00000001
00001000
00000001
00000010
00000000
00001000
00000000
00001000
00000000
00000000
00010000
00000000
01000000
00000000
,  // measure 12
10010000
00000000
00000000
00000000
10000000
00100000
00000000
00010000
00000000
00010000
00000000
00000000
00001000
00000000
00000100
00000000
,  // measure 13
00001002
00000000
00000000
00000000
00000013
00000000
00001000
00000010
00000001
00000000
00000001
00000100
00001000
00000000
00020000
00000000
,  // measure 14
00000000
00000000
00000000
00000000
00130000
00000000
00010000
00100000
10000000
00000000
10000000
01000000
00010000
00000000
00002000
00000000
,  // measure 15
00000000
00000000
00013000
01000000
10000000
01000000
00000000
00010000
00000000
00010000
00000000
00000000
00001000
00000000
00000010
00000000
,  // measure 16
00001001
00000000
00000000
00000000
00000001
00000100
00000000
00001000
00000000
00001000
00000000
00000000
00010000
00000000
00100000
00000000
,  // measure 17
20010000
00000000
00000000
00000000
30010000
00100000
01000000
00010000
00000000
00001000
00010000
01000000
00000000
00100000
00010000
10000000
,  // measure 18
00200000
00320000
00032000
00203000
00320000
00032000
00003200
00000000
,  // measure 19
00000310
00000000
00000001
00001000
00000001
00000100
00000000
00001000
00000000
00001000
00000000
00000000
00010000
00000000
00100000
00000000
,  // measure 20
10010000
00000000
00010000
00000000
10000000
01000000
00000000
00010000
00000000
00010000
00000000
00000000
00001000
00000000
00000010
00000000
,  // measure 21
00001001
00000000
00000001
00000000
00000100
00000000
00001000
00000100
00000001
00000000
00000001
00000010
00001000
00000000
00020000
00000000
,  // measure 22
00000000
00000000
00000000
00000000
01030000
00000000
00010000
01000000
10000000
00000000
10000000
00100000
00010000
00000000
00002000
00000000
,  // measure 23
00000000
00000000
00013000
00100000
10000000
00100000
00000000
00010000
00000000
00010000
00000000
00000000
00001000
00000000
00000100
00000000
,  // measure 24
00001001
00000000
00001000
00000000
00000001
00000010
00000000
00001000
00000000
00001000
00000000
00000000
00010000
00000000
01000000
00000000
,  // measure 25
10010000
00000000
10000000
00000000
00010000
01000000
00100000
00010000
00000000
00001000
00010000
00100000
00000000
10000000
00010000
00100000
,  // measure 26
02000000
00000000
00000000
03010000
,  // measure 27
00022000
00000000
00000000
00000000
,  // measure 28
00000000
00000000
00000000
00033000
,  // measure 29
00002000
00000000
00000000
00003020
00000000
00000032
00002003
00003020
,  // measure 30
00000000
00000000
00000000
00000000
,  // measure 31
00000130
00000000
00000100
00000000
00001001
00000000
00000000
00001000
00000000
00000000
00000100
00000000
00010100
00000000
00000000
00000000
,  // measure 32
00010000
00000000
00010000
00000000
00011000
00000000
00000000
00001000
00000000
00000000
01000000
00000000
01100000
00000000
00000000
00000000
,  // measure 33
00100000
00000000
00100000
00000000
10010000
00000000
00000000
10000000
00000000
00010000
00100000
00000000
00101000
00000000
00000000
00000000
,  // measure 34
00001000
00010000
00000010
00000000
00001010
00000000
00000000
00001000
00000000
00000001
00000010
00000000
00001000
00000010
00001000
00010000
,  // measure 35
00001000
01000000
00010000
00000000
10010000
00000000
10000000
00100000
00000000
00100000
01000000
00000000
01001000
00000000
00000000
00000000
,  // measure 36
00001000
00010000
00000100
00000000
00001100
00000000
00001000
00000001
00000000
00000001
00000010
00000000
00000011
00000000
00000000
00000000
,  // measure 37
00000001
00001000
00000010
00000000
00010010
00000000
00010000
00001000
00000000
00001000
00100000
00000000
00110000
00000000
00000000
00000000
,  // measure 38
00010000
10000000
00100000
00000000
10100000
00000000
10000000
00010000
00000000
00010000
01000000
00000000
00001000
00010000
00100000
00010000
,  // measure 39
00001000
00010000
00000100
00000000
00001001
00000000
00000001
00000100
00000000
00000100
00001000
00000000
00011000
00000000
00000000
00000000
,  // measure 40
00001000
01000000
00100000
00000000
10010000
00000000
10000000
01000000
00000000
01000000
00010000
00000000
00011000
00000000
00000000
00000000
,  // measure 41
00010000
00000100
00000010
00000000
00001001
00000000
00000001
00000100
00000000
00000100
00001000
00000000
00011000
00000000
00000000
00000000
,  // measure 42
00010000
00001000
00010000
00100000
01000000
00010000
10000000
01000000
00100000
00010000
01000000
00001000
00020000
00000000
00031000
00000000
,  // measure 43
00022000
00000000
00000000
00000000
,  // measure 44
00000000
00000000
00000000
00033000
,  // measure 45
00010000
00010000
00000100
00000100
,  // measure 46
00000020
00000000
00000030
00001001
,  // measure 47
00000001
00000100
00000001
00000000
00000100
00000010
00000100
00000000
00000010
00010000
00000010
00000000
00010000
00001000
00010000
00000000
,  // measure 48
00001000
00100000
00001000
00000000
00100000
01000000
00100000
00000000
00010000
10000000
00010000
00000000
10000000
00100000
10000000
00000000
,  // measure 49
00010000
00100000
01000000
00100000
00001000
00010000
00000100
00001000
00000001
00000100
00000010
00010000
00001000
00100000
00001000
00010000
,  // measure 50
00000020
00000000
00000000
00000000
00000000
00000000
00001030
00000001
,  // measure 51
00000010
00000000
00000100
00001000
00000001
00000100
00001000
00010000
00000000
00010000
00000000
00000000
00100000
00000000
01000000
00000000
,  // measure 52
10010000
00000000
00010000
00000000
10000000
01000000
00010000
00001000
00000000
00001000
00000000
00000000
00000010
00000000
00000100
00000000
,  // measure 53
00001002
00000000
00000000
00000000
00000103
00000000
00001000
00000100
00000001
00000000
00000001
00000010
00001000
00000000
00010000
00000000
,  // measure 54
00001000
00000000
00100000
00000000
01000000
00000000
00010000
01000000
10000000
00000000
10000000
00100000
00010000
00001000
01000000
00002000
,  // measure 55
00000000
00000000
00103000
00010000
10000000
00100000
00010000
00001000
00000000
00001000
00000000
00000000
00000100
00000000
00000010
00000000
,  // measure 56
00001001
00000000
00001000
00000000
00000001
00000010
00001000
00010000
00000000
00010000
00000000
00000000
01000000
00000000
00100000
00000000
,  // measure 57
20010000
00000000
00000000
00000000
30010000
01000000
00100000
00010000
00000000
00001000
00010000
00100000
00000000
01000000
00010000
10000000
,  // measure 58
02000000
03020000
00032000
02003000
03020000
00032000
00003020
00000000
,  // measure 59
00000130
00000000
00000010
00001000
00000001
00000010
00001000
00010000
00000000
01000000
00010000
00000000
00011000
00000000
00001000
00000000
,  // measure 60
01000000
00000000
00010000
00000000
10000000
01000000
00010000
00001000
00000000
00000100
00001000
00000000
00011000
00000000
00010000
00000000
,  // measure 61
00000200
00000000
00000000
00000000
00000310
00000000
00001000
00000010
00000001
00000000
00000001
00000100
00001000
00000000
00010000
00000000
,  // measure 62
00001000
00000000
01000000
00000000
00100000
00000000
00010000
00100000
10000000
00000000
10000000
01000000
00010000
00001000
00100000
00002000
,  // measure 63
00010000
00000000
00003010
00000000
00000100
00001000
00000001
00000100
00000000
00000010
00000100
00001000
00000000
00010000
00100000
01000000
,  // measure 64
00100000
00000000
00100000
00000000
01000000
00010000
10000000
01000000
00000000
00100000
01000000
00010000
00000000
00001000
00000010
00000100
,  // measure 65
00000020
00000000
00000000
00000000
00000031
00001000
00000010
00000100
00001000
00010000
00000010
00010000
00001000
00000010
00001000
00010000
,  // measure 66
00000020
00000000
00000000
00000000
00000130
00001000
00000100
00001000
00010000
00100000
01000000
00200000
00010000
00000000
10300000
00000000
;

//---------------dance-single - ----------------
#NOTEDATA:;
#CHARTNAME:;
#STEPSTYPE:dance-single;
#DESCRIPTION:;
#CHARTSTYLE:;
#DIFFICULTY:Medium;
#METER:11;
#RADARVALUES:0.400151,0.500343,0.197257,0.205148,0.185422,355.000000,330.000000,25.000000,26.000000,0.000000,0.000000,0.000000,0.000000,0.000000,0.400151,0.500343,0.197257,0.205148,0.185422,355.000000,330.000000,25.000000,26.000000,0.000000,0.000000,0.000000,0.000000,0.000000;
#CREDIT:Pekkle;
#NOTES:
0000
0000
0000
0000
,
0000
0000
0000
0000
,
0000
0000
0000
0000
,
2002
0000
0000
0000
,
0000
0000
0000
0000
,
0000
0000
0000
0000
,
0000
0000
0000
3003
,
0001
0010
0001
0010
0100
1000
0100
0000
,
1000
0010
1000
0010
0100
0001
0100
0000
,
0001
0010
0100
1000
0001
0001
1000
2000
,
0000
0000
0000
3010
,
0100
0000
0000
0000
0001
0000
0000
1000
0000
1000
0000
0000
0100
0000
0000
0000
,
1001
0000
0000
0000
1000
0000
0000
0001
0000
0001
0000
0000
0100
0000
0000
0000
,
0110
0000
0010
1000
0001
0010
1000
0010
,
0000
0000
0100
1000
0001
0100
1000
0100
,
0000
0000
0010
0000
1000
0000
0000
0001
0000
0001
0000
0000
0010
0000
0000
0000
,
1001
0000
0000
0000
0001
0000
0000
1000
0000
1000
0000
0000
0010
0000
0000
0000
,
0110
0000
0100
0001
1000
0100
0010
0001
,
0100
0100
0010
0010
0100
0100
0002
0000
,
1003
0000
0000
0000
0020
0000
0000
0100
0000
0130
0000
0000
0001
0000
0000
0000
,
1001
0000
1000
0000
0200
0000
0000
0010
0000
0310
0000
0000
0001
0000
0000
0000
,
1001
0000
1000
0010
0001
0010
0100
0001
,
0000
1000
0100
0001
0100
0010
0001
1000
,
0000
0000
0001
0000
0200
0000
0000
0010
0000
0310
0000
0000
1000
0000
0000
0000
,
1001
0000
0001
0000
0020
0000
0000
0100
0000
0130
0000
0000
1000
0000
0000
0000
,
1001
0000
0001
0100
0010
1000
0001
0010
,
0200
0000
0000
0310
,
2002
0000
0000
0000
,
0000
0000
0000
3003
,
0001
0000
0000
1000
0000
0010
0100
0020
,
0000
0000
0000
0000
,
0130
0000
0000
0000
0001
0000
0000
1000
0000
0000
1000
0000
0100
0000
0000
0000
,
0010
0000
0000
0000
0001
0000
0000
1000
0000
0000
1000
0000
0010
0000
0000
0000
,
0100
0000
0100
0000
0001
0000
0000
1000
0000
0000
0100
0000
0010
0000
0000
0000
,
0001
0000
1000
0000
0010
0000
0000
0100
0000
0000
0010
0000
1000
0000
0001
0000
,
0010
0000
0100
0000
1000
0000
0000
0001
0000
0000
0100
0000
0110
0000
0000
0000
,
0010
0000
1000
0000
0001
0000
0000
0010
0000
0000
0100
0000
0110
0000
0000
0000
,
0010
0000
0001
0000
1000
0000
0000
0010
0000
0000
0100
0000
0110
0000
0000
0000
,
0001
0000
1000
0000
0100
0000
0000
0010
0000
0000
0001
0000
1000
0000
0010
0000
,
0100
0000
0010
0000
0001
0000
0000
0010
0000
0000
1000
0000
1001
0000
0000
0000
,
0001
0000
0010
0000
1000
0000
0000
0010
0000
0000
0001
0000
1001
0000
0000
0000
,
1000
0000
0100
0000
0001
0000
0000
0100
0000
0000
1000
0000
1001
0000
0000
0000
,
0002
0000
0000
0000
0000
0000
0103
0010
,
2002
0000
0000
0000
,
0000
0000
0000
3003
,
0001
0000
1000
0000
,
0020
0000
0000
0130
,
0001
1000
0001
0010
0100
1000
0100
0010
,
0001
1000
0001
0100
0010
1000
0010
0100
,
0001
1000
0100
0010
0001
0001
1000
1000
,
0020
0000
0000
0130
,
0001
0000
0000
0000
2000
0000
0000
0001
0000
3100
0000
0000
0010
0000
0001
0000
,
1001
0000
1000
0000
0002
0000
0000
1000
0000
0103
0000
0000
0010
0000
0000
0000
,
1001
0000
0001
0010
1000
0010
0001
0100
,
0000
0010
1000
0010
0001
0010
1000
0100
,
0000
0000
0010
0000
0002
0000
0000
1000
0000
0103
0000
0000
0010
0000
1000
0000
,
1001
0000
0001
0000
2000
0000
0000
0001
0000
3100
0000
0000
0010
0000
0001
0000
,
2001
0000
3010
0100
0001
1000
0100
0010
,
0001
0001
1000
1000
0001
0001
0200
0000
,
0310
0000
1000
0000
0001
0010
0000
0001
0000
0001
0000
0000
0100
0000
0001
0000
,
1001
0000
1000
0000
0010
1000
0000
0010
0000
0010
0000
0000
0100
0000
0001
0000
,
2001
0000
3001
0010
1000
0010
0001
0100
,
0000
0010
1000
0010
0001
0010
0100
0001
,
1000
0000
1000
0000
0100
0010
0000
0100
0000
0100
0000
0000
0010
0000
0001
0000
,
1001
0000
1000
0000
0010
0100
0000
0010
0000
0010
0000
0000
0100
0000
0001
0000
,
2001
0000
3010
0100
0001
1000
0100
0010
,
0002
0000
0000
1003
;

//---------------dance-double - ----------------
#NOTEDATA:;
#CHARTNAME:;
#STEPSTYPE:dance-double;
#DESCRIPTION:;
#CHARTSTYLE:;
#DIFFICULTY:Medium;
#METER:11;
#RADARVALUES:0.396769,0.500343,0.142025,0.134135,0.185422,352.000000,334.000000,18.000000,17.000000,0.000000,0.000000,0.000000,0.000000,0.000000,0.396769,0.500343,0.142025,0.134135,0.185422,352.000000,334.000000,18.000000,17.000000,0.000000,0.000000,0.000000,0.000000,0.000000;
#CREDIT:Pekkle;
#NOTES:
00000000
00000000
00000000
00000000
,
00000000
00000000
00000000
00000000
,
00000000
00000000
00000000
00000000
,
00022000
00000000
00000000
00000000
,
00000000
00000000
00000000
00000000
,
00000000
00000000
00000000
00000000
,
00000000
00000000
00000000
00033000
,
00001000
00010000
00001000
00010000
00100000
01000000
00100000
00000000
,
00010000
00001000
00010000
00001000
00000010
00000100
00000010
00000000
,
00000001
00001000
00000010
00000100
00001000
00001000
00010000
00020000
,
00000000
00000000
00000000
00031000
,
00010000
00000000
00000000
00000000
01000000
00000000
00000000
00100000
00000000
00100000
00000000
00000000
00001000
00000000
00010000
00000000
,
00001000
00000000
00000000
00000000
00000100
00000000
00000000
00000010
00000000
00000010
00000000
00000000
00010000
00000000
00000000
00000000
,
00011000
00000000
00001000
00010000
01000000
00100000
00001000
00010000
,
00000000
00000000
00001000
00010000
00000010
00000100
00001000
00010000
,
00000000
00000000
00001000
00000000
00000100
00000000
00000000
00000010
00000000
00000010
00000000
00000000
00010000
00000000
00001000
00000000
,
00010000
00000000
00000000
00000000
01000000
00000000
00000000
00100000
00000000
00100000
00000000
00000000
00001000
00000000
00000000
00000000
,
00011000
00000000
00010000
01000000
00100000
00010000
10000000
00100000
,
00010000
00010000
00001000
00001000
00010000
00010000
00002000
00000000
,
00013000
00000000
00000000
00000000
00001000
00000000
00000000
00000010
00000000
00000010
00000000
00000000
00000001
00000000
00001000
00000000
,
00000010
00000000
00000000
00000000
00010000
00000000
00000000
00100000
00000000
00100000
00000000
00000000
10000000
00000000
00010000
00000000
,
00200000
00000000
00301000
00010000
00100000
01000000
00001000
00010000
,
00000000
00000000
00001000
00010000
00000100
00000010
00001000
00010000
,
00000000
00000000
00001000
00000000
00010000
00000000
00000000
01000000
00000000
01000000
00000000
00000000
10000000
00000000
00010000
00000000
,
01000000
00000000
00000000
00000000
00001000
00000000
00000000
00000100
00000000
00000100
00000000
00000000
00000001
00000000
00001000
00000000
,
00000200
00000000
00010300
00001000
00000100
00000010
00010000
00001000
,
00200000
00000000
00000000
01300000
,
20020000
00000000
00000000
00000000
,
00000000
00000000
00000000
30030000
,
10000000
00000000
00000000
00010000
00000000
01000000
00001000
00020000
,
00000000
00000000
00000000
00000000
,
00031000
00000000
00100000
00000000
00001000
00000000
00000000
00010000
00000000
00000000
00000010
00000000
00000100
00000000
00000000
00000000
,
00000001
00000000
00001000
00000000
00000001
00000000
00000000
00000010
00000000
00000000
00000100
00000000
00001000
00000000
00000000
00000000
,
00000100
00000000
00010000
00000000
00001000
00000000
00000000
01000000
00000000
00000000
00100000
00000000
10000000
00000000
00000000
00000000
,
00010000
00000000
10000000
00000000
01000000
00000000
00000000
00100000
00000000
00000000
00001000
00000000
00010000
00000000
00000010
00000000
,
00000100
00000000
00000001
00000000
00001000
00000000
00000000
00000100
00000000
00000000
00000010
00000000
00000110
00000000
00000000
00000000
,
00000100
00000000
00010000
00000000
00001000
00000000
00000000
01000000
00000000
00000000
00100000
00000000
01100000
00000000
00000000
00000000
,
10000000
00000000
00010000
00000000
00100000
00000000
00000000
01000000
00000000
00000000
00010000
00000000
00011000
00000000
00000000
00000000
,
00001000
00000000
00000010
00000000
00000100
00000000
00000000
00001000
00000000
00000000
00000001
00000000
00000100
00000000
00000010
00000000
,
00001000
00000000
00000001
00000000
00000100
00000000
00000000
00001000
00000000
00000000
00010000
00000000
00011000
00000000
00000000
00000000
,
00001000
00000000
00100000
00000000
00010000
00000000
00000000
00100000
00000000
00000000
01000000
00000000
01100000
00000000
00000000
00000000
,
00010000
00000000
10000000
00000000
00100000
00000000
00000000
00010000
00000000
00000000
00001000
00000000
00011000
00000000
00000000
00000000
,
00020000
00000000
00000000
00030100
,
00002002
00000000
00000000
00000000
,
00000000
00000000
00000000
00003003
,
00000001
00000000
00000001
00000000
,
00002000
00000000
00000000
00003010
,
00010000
00000010
00010000
00001000
00100000
00010000
00100000
01000000
,
10000000
00010000
10000000
00100000
01000000
00001000
00010000
00000100
,
00000010
00000001
00001000
00000010
00010000
00010000
00001000
00001000
,
00020000
00000000
00000000
00031000
,
00010000
00000000
00001000
00000000
00000100
00000000
00000000
00000010
00000000
00000010
00000000
00000000
00000100
00000000
00001000
00000000
,
00011000
00000000
00010000
00000000
01000000
00000000
00000000
00100000
00000000
00100000
00000000
00000000
01000000
00000000
00010000
00000000
,
00011000
00000000
00001000
00000100
00000001
00000010
00001000
00010000
,
00000000
00000000
00001000
00010000
01000000
10000000
00100000
00010000
,
00000000
00000000
00001000
00000000
00000010
00000000
00000000
00000100
00000000
00000100
00000000
00000000
00000010
00000000
00001000
00000000
,
00011000
00000000
00010000
00000000
00100000
00000000
00000000
01000000
00000000
01000000
00000000
00000000
00100000
00000000
00010000
00000000
,
00011000
00000000
00001000
00000100
00000001
00000010
00000100
00010000
,
00001000
00001000
00010000
00010000
00001000
00001000
00020000
00000000
,
00031000
00000000
00000100
00000000
00000001
00001000
00000000
00000001
00000000
00000001
00000000
00000000
00000100
00000000
00001000
00000000
,
00010000
00000000
00100000
00000000
10000000
00010000
00000000
10000000
00000000
10000000
00000000
00000000
01000000
00000000
00010000
00000000
,
00011000
00000000
00001000
00000010
00000001
00000100
00001000
00010000
,
00000000
00000000
00001000
00010000
00100000
10000000
01000000
00010000
,
00001000
00000000
00001000
00000000
00010000
01000000
00000000
00010000
00000000
00010000
00000000
00000000
00001000
00000000
00100000
00000000
,
00101000
00000000
00001000
00000000
00010000
00001000
00000000
00000100
00000000
00000100
00000000
00000000
00000010
00000000
00010000
00000000
,
00011000
00000000
00001000
00000100
00000001
00000010
00001000
00010000
,
00000020
00000000
00000000
00010030
;

//---------------dance-single - ----------------
#NOTEDATA:;
#CHARTNAME:;
#STEPSTYPE:dance-single;
#DESCRIPTION:;
#CHARTSTYLE:;
#DIFFICULTY:Hard;
#METER:14;
#RADARVALUES:0.548939,0.684680,0.197257,0.410295,0.607553,487.000000,462.000000,25.000000,52.000000,0.000000,0.000000,0.000000,0.000000,0.000000,0.548939,0.684680,0.197257,0.410295,0.607553,487.000000,462.000000,25.000000,52.000000,0.000000,0.000000,0.000000,0.000000,0.000000;
#CREDIT:Pekkle;
#NOTES:
0000
0000
0000
0000
,
0000
0000
0000
0000
,
0000
0000
0000
0000
,
2002
0000
0000
0000
,
0000
0000
0000
0000
,
0000
0000
0000
0000
,
0000
0000
0000
3003
,
1000
0100
1000
0100
0010
0001
0010
0001
,
1000
0010
1000
0010
0100
0001
0100
0001
,
1000
0100
0010
0000
0001
1000
0010
0000
0100
0010
1000
0001
1000
0100
0010
0001
,
2000
0000
0000
3001
,
0100
0000
0001
1000
0010
0100
0000
0010
0000
0010
0000
0000
0100
0000
1000
0000
,
0100
0000
0001
0000
1000
0100
0000
0010
0000
0010
0000
0000
0001
0000
1000
0000
,
1002
0000
0000
0000
1003
0000
0100
0010
0001
0000
0100
0010
1000
0000
0020
0000
,
0000
0000
1030
0000
0001
0000
0100
0010
1000
0000
0100
0010
0001
0000
2000
0000
,
0000
0000
3001
0100
0010
1000
0000
0001
0000
0001
0000
0000
0010
0000
1000
0000
,
0010
0000
0001
0000
1000
0010
0000
0100
0000
0100
0000
0000
0001
0000
1000
0000
,
1002
0000
0000
0000
0013
0100
1000
0100
0000
0010
0001
1000
0000
0001
0100
0010
,
2000
3002
0023
2030
3002
0203
2300
0000
,
3001
0000
0100
0010
1000
0001
0000
0010
0000
0010
0000
0000
0100
0000
0001
0000
,
0100
0000
1000
0000
0001
0100
0000
0010
0000
0010
0000
0000
1000
0000
0001
0000
,
2001
0000
0000
0000
3001
0000
0010
0100
1000
0000
0010
0100
0001
0000
2000
0000
,
0000
0000
3001
0000
0010
0000
0100
0010
0001
0000
0100
0010
1000
0000
0002
0000
,
0000
0000
1003
0100
0010
0001
0000
1000
0000
1000
0000
0000
0010
0000
0001
0000
,
0010
0000
1000
0000
0001
0010
0000
0100
0000
0100
0000
0000
1000
0000
0001
0000
,
2001
0000
0000
0000
3010
0100
0001
0100
0000
0001
1000
0100
0000
0010
0001
1000
,
0020
0000
0000
0130
,
2002
0000
0000
0000
,
0000
0000
0000
3003
,
0002
0000
0000
0023
0000
2030
3020
0032
,
0000
0000
0000
0000
,
1003
0000
0010
0000
0100
0000
0000
0010
0000
0000
0100
0000
1001
0000
0000
0000
,
0001
0000
0010
0000
0100
0000
0000
0010
0000
0000
0100
0000
1001
0000
0000
0000
,
1000
0000
0100
0000
0010
0000
0000
0100
0000
0010
0001
0000
1001
0000
0000
0000
,
0001
0100
0010
0000
0100
0000
0000
0010
0000
1000
0001
0000
1000
0100
0010
0100
,
1000
0000
1000
0000
0010
0000
0000
0100
0000
0001
1000
0000
1001
0000
0000
0000
,
0001
1000
0100
0000
0010
0000
0000
0001
0000
1000
0001
0000
1001
0000
0000
0000
,
1000
0010
0100
0000
0010
0000
0000
1000
0000
0001
1000
0000
1001
0000
0000
0000
,
0001
1000
0100
0000
0010
0000
0000
0100
0000
0010
0001
0000
1000
0010
0100
0010
,
1000
0001
0010
0000
0001
0000
0000
0010
0000
0100
0010
0000
0110
0000
0000
0000
,
0100
1000
0001
0000
1000
0000
0000
0010
0000
0100
0010
0000
0110
0000
0000
0000
,
0100
0001
1000
0000
0001
0000
0000
0010
0000
0100
0010
0000
0110
0000
0000
0000
,
0100
1000
0001
1000
0010
0100
0010
0000
0100
0001
1000
0100
0010
0000
0010
0000
,
2002
0000
0000
0000
,
0000
0000
0000
3003
,
0001
0001
1000
1000
,
0020
0000
0030
1001
,
1000
0100
0010
0100
1000
0001
1000
0010
,
0100
0001
1000
0001
0010
0100
1000
0001
,
0100
0010
1000
0000
0001
1000
0100
0000
0010
0001
1000
0010
0100
0001
1000
0100
,
0020
0000
0000
0031
,
1000
0000
0010
0100
0001
2000
0000
0001
0000
3100
0000
0000
0110
0000
0001
0000
,
1000
0000
0100
0000
0010
0002
0000
1000
0000
0103
0000
0000
0110
0000
0001
0000
,
2001
0000
0000
0000
3100
0000
0010
0001
1000
0000
0001
0100
0010
0000
2000
0000
,
0000
0000
3001
0000
1000
0000
0100
0010
0001
0000
1000
0010
0100
0010
1000
0002
,
0000
0000
0103
0010
1000
0002
0000
1000
0000
0013
0000
0000
0110
0000
1000
0000
,
0001
0000
0010
0000
0100
2000
0000
0001
0000
3010
0000
0000
0110
0000
0001
0000
,
2001
0000
0000
0000
3100
0010
0001
0010
0000
0001
1000
0010
0000
0100
0010
1000
,
0002
2003
3200
0302
2003
3020
0032
0000
,
1003
0000
0001
0100
0010
2000
0000
0001
0000
3100
0010
0000
1001
0000
0001
0000
,
1000
0000
0010
0000
0100
0002
0000
1000
0000
0013
0100
0000
1001
0000
1000
0001
,
0200
0000
0000
0000
0310
1000
0001
0010
0100
0000
1000
0010
0100
0000
0002
0000
,
0000
0000
0013
0000
0100
1000
0001
0100
0010
0000
1000
0100
0010
0000
0002
0000
,
1000
0000
0013
0000
0100
1000
0001
0100
0000
0010
1000
0001
0000
0010
0100
1000
,
0001
0000
0001
0000
1000
0100
0010
0001
0000
1000
0010
0100
0000
0001
1000
0100
,
0020
0000
0000
0000
0031
1000
0010
0100
0010
1000
0001
1000
0100
0010
0001
1000
,
0020
0000
0000
0130
;

//---------------dance-double - ----------------
#NOTEDATA:;
#CHARTNAME:;
#STEPSTYPE:dance-double;
#DESCRIPTION:;
#CHARTSTYLE:;
#DIFFICULTY:Hard;
#METER:14;
#RADARVALUES:0.542176,0.684680,0.189367,0.402405,0.603607,481.000000,457.000000,24.000000,51.000000,0.000000,0.000000,0.000000,0.000000,0.000000,0.542176,0.684680,0.189367,0.402405,0.603607,481.000000,457.000000,24.000000,51.000000,0.000000,0.000000,0.000000,0.000000,0.000000;
#CREDIT:Pekkle;
#NOTES:
00000000
00000000
00000000
00000000
,
00000000
00000000
00000000
00000000
,
00000000
00000000
00000000
00000000
,
00022000
00000000
00000000
00000000
,
00000000
00000000
00000000
00000000
,
00000000
00000000
00000000
00000000
,
00000000
00000000
00000000
00033000
,
00001000
00010000
00001000
00010000
00100000
01000000
00100000
01000000
,
00001000
00010000
00001000
00010000
00000100
00000010
00000100
00000010
,
00000001
00001000
00000010
00000000
00001000
00000010
00010000
00000000
00001000
00010000
00001000
00010000
01000000
00100000
01000000
00100000
,
00020000
00000000
00000000
10030000
,
00010000
00000000
10000000
00100000
01000000
00010000
00000000
10000000
00000000
10000000
00000000
00000000
01000000
00000000
00010000
00000000
,
00011000
00000000
00000000
00000000
00001000
00000010
00000000
00000001
00000000
00000001
00000000
00000000
00001000
00000000
00000010
00000000
,
00020010
00000000
00000000
00000000
00031000
00000000
00100000
00001000
00010000
00000000
00000010
00010000
00001000
00000000
00020000
00000000
,
00000000
00000000
00031000
00000000
00010000
00000000
00000100
00010000
00001000
00000000
01000000
00001000
00010000
00000000
00002000
00000000
,
00000000
00000000
00013000
00000100
00000010
00000001
00000000
00001000
00000000
00001000
00000000
00000000
00000010
00000000
00010000
00000000
,
00011000
00000000
00000000
00000000
00001000
00010000
00000000
00100000
00000000
00100000
00000000
00000000
10000000
00000000
00010000
00000000
,
00210000
00000000
00000000
00000000
00301000
00010000
00000010
00000100
00000000
00000001
00001000
00000100
00000000
00000010
00000001
00001000
,
00000020
00000230
00002300
00023000
00230000
02300000
03020000
00000000
,
10030000
00000000
00010000
00100000
01000000
10000000
00000000
00010000
00000000
00010000
00000000
00000000
01000000
00000000
00001000
00000000
,
00011000
00000000
00000000
00000000
00010000
00000100
00000000
00000010
00000000
00000010
00000000
00000000
00000001
00000000
00001000
00000000
,
00001020
00000000
00000000
00000000
00010030
00000000
00000010
00010000
00001000
00000000
00100000
00001000
00010000
00000000
00002000
00000000
,
00000000
00000000
00013000
00000000
00001000
00000000
01000000
00001000
00010000
00000000
00000100
00010000
00001000
00000000
00020000
00000000
,
00000000
00000000
00031000
01000000
00100000
10000000
00000000
00010000
00000000
00010000
00000000
00000000
00100000
00000000
00001000
00000000
,
00011000
00000000
00000000
00000000
00010000
00001000
00000000
00000010
00000000
00000010
00000000
00000000
00000001
00000000
00001000
00000000
,
00001020
00000000
00000000
00000000
00010030
00001000
00100000
00010000
00000000
10000000
00100000
01000000
00000000
00010000
10000000
01000000
,
00200000
00000000
00000000
00301000
,
00022000
00000000
00000000
00000000
,
00000000
00000000
00000000
00033000
,
00020000
00000000
00000000
00030200
00000000
00000320
00000032
00002003
,
00000000
00000000
00000000
00000000
,
00003010
00000000
00010000
00000000
00001000
00000000
00000000
00010000
00000000
00000000
00010000
00000000
00001000
00000000
00000000
00000000
,
01000000
00000000
00010000
00000000
10000000
00000000
00000000
00010000
00000000
00000000
00010000
00000000
00100000
00000000
00000000
00000000
,
01000000
00000000
10000000
00000000
00010000
00000000
00000000
01000000
00000000
00001000
01000000
00000000
00001000
00000000
00000000
00000000
,
00010000
00000100
00001000
00000000
00000100
00000000
00000000
00000010
00000000
00000001
00000010
00000000
00000001
00001000
00000001
00001000
,
00000010
00000000
00000010
00000000
00010000
00000000
00000000
00001000
00000000
01000000
00001000
00000000
01001000
00000000
00000000
00000000
,
01000000
00100000
10000000
00000000
00010000
00000000
00000000
10000000
00000000
01000000
10000000
00000000
10010000
00000000
00000000
00000000
,
00010000
01000000
00001000
00000000
00010000
00000000
00000000
00000010
00000000
00001000
00000010
00000000
00001010
00000000
00000000
00000000
,
00001000
00000001
00000010
00000000
00000001
00000000
00000000
00000010
00000000
00000100
00000010
00000000
00000100
00010000
00001000
00010000
,
00000100
00010000
00001000
00000000
01000000
00000000
00000000
00100000
00000000
10000000
00010000
00000000
00110000
00000000
00000000
00000000
,
00100000
00001000
00010000
00000000
00001000
00000000
00000000
00000100
00000000
00000010
00001000
00000000
00001001
00000000
00000000
00000000
,
00000001
00000010
00000100
00000000
00010000
00000000
00000000
00001000
00000000
01000000
00010000
00000000
01010000
00000000
00000000
00000000
,
01000000
00100000
10000000
00010000
10000000
01000000
00100000
00000000
00001000
00100000
00001000
00010000
00000010
00000000
00000010
00000000
,
00002002
00000000
00000000
00000000
,
00000000
00000000
00000000
00003003
,
00000001
00000001
00000010
00000010
,
00002000
00000000
00003000
00011000
,
00010000
00001000
01000000
00100000
10000000
00010000
00100000
00001000
,
00010000
00000010
00000100
00000001
00001000
00000100
00000010
00000100
,
00010000
00001000
00010000
00001000
01000000
00010000
01000000
00010000
10000000
01000000
00100000
00010000
10000000
00100000
01000000
00001000
,
00020000
00000000
00000000
00031000
,
00010000
00000000
00000100
00000010
00000001
00002000
00000000
00000001
00000000
00003010
00000000
00000000
00010010
00000000
00010000
00000000
,
00001000
00000000
00100000
00000000
00010000
20000000
00000000
01000000
00000000
30010000
00000000
00000000
10010000
00000000
10000000
00000000
,
02000000
00000000
00000000
00000000
03010000
00000000
00000100
00010000
00001000
00000000
01000000
00001000
00010000
00000000
00002000
00000000
,
00000000
00000000
00013000
00000000
00001000
00000000
00100000
00001000
00010000
00000000
00000010
00010000
00001000
00000000
00020000
00000000
,
00000000
00000000
00030010
00000100
00000001
00002000
00000000
00000001
00000000
00003100
00000000
00000000
00000110
00000000
00000010
00000000
,
00000001
00000000
00001000
00000000
00000010
00020000
00000000
00000010
00000000
00031000
00000000
00000000
00011000
00000000
00001000
00000000
,
02000000
00000000
00000000
00000000
03100000
10000000
00010000
00100000
00000000
00001000
00100000
00010000
00000000
10000000
00010000
00100000
,
02000000
03020000
00032000
00003020
00000230
00002300
00003002
00000000
,
00000103
00000000
00000010
00010000
00001000
00200000
00000000
00001000
00000000
00310000
10000000
00000000
10010000
00000000
00010000
00000000
,
01000000
00000000
00001000
00000000
00010000
00000020
00000000
00001000
00000000
00000130
00000001
00000000
00001001
00000000
00001000
00000000
,
00000200
00000000
00000000
00000000
00010300
00000000
00000100
00010000
00001000
00000000
01000000
00001000
00010000
00000000
00002000
00000000
,
00000000
00000000
00013000
00000000
00001000
00000000
00100000
00001000
00010000
00000000
00000010
00010000
00001000
00100000
00010000
10000000
,
00100000
00000000
00100000
00000000
01000000
00010000
10000000
01000000
00000000
00100000
00001000
00010000
00000000
00001000
00010000
00000010
,
00000100
00000000
00000100
00000000
00000001
00001000
00000010
00000100
00000000
00001000
00010000
00000010
00000000
00010000
00001000
00100000
,
00020000
00000000
00000000
00000000
10030000
00100000
01000000
00010000
10000000
01000000
00100000
00001000
00010000
00001000
00000100
00000010
,
00002000
00000000
00000000
00003001
;

//---------------dance-single - ----------------
#NOTEDATA:;
#CHARTNAME:;
#STEPSTYPE:dance-single;
#DESCRIPTION:;
#CHARTSTYLE:;
#DIFFICULTY:Easy;
#METER:8;
#RADARVALUES:0.288559,0.368674,0.134135,0.063122,0.000000,256.000000,239.000000,17.000000,8.000000,0.000000,0.000000,0.000000,0.000000,0.000000,0.288559,0.368674,0.134135,0.063122,0.000000,256.000000,239.000000,17.000000,8.000000,0.000000,0.000000,0.000000,0.000000,0.000000;
#CREDIT:Pekkle;
#NOTES:
0000
0000
0000
0000
,
0000
0000
0000
0000
,
0000
0000
0000
0000
,
1001
0000
0000
0000
,
0000
0000
0000
0000
,
0000
0000
0000
0000
,
0000
0000
0000
0000
,
0001
0001
1000
1000
,
0100
0100
0010
0010
,
0001
0000
0001
0000
1000
0001
1000
0000
,
0020
0000
0000
0130
,
0001
1000
0100
0100
,
0001
1000
0010
0010
,
1001
0000
1000
0000
0010
0100
0010
0100
,
0000
0000
0001
0000
1000
0001
1000
0001
,
0000
1000
0010
0010
,
0001
1000
0100
0100
,
1001
0001
0010
0100
,
1000
0000
1000
0000
0001
1000
0001
0000
,
0100
0001
0010
0010
,
1000
0001
0100
0100
,
1001
0000
1000
0000
0010
0100
0010
0100
,
0000
0000
0001
0000
1000
0001
1000
0001
,
0000
1000
0100
0100
,
0001
1000
0010
0010
,
1001
0000
0001
0000
1000
0001
1000
0001
,
2000
0000
0000
3010
,
2002
0000
0000
0000
,
0000
0000
0000
0000
,
0000
0000
0000
0000
,
0000
0000
0000
3003
,
0001
1000
0000
1000
,
0010
0100
0000
0100
,
0001
1000
0100
0001
,
0100
0000
1000
0000
0001
0000
1000
0001
,
1000
0001
1000
0000
0010
0000
1001
0000
,
0001
1000
0001
0000
0010
0000
1001
0000
,
1000
0001
1000
0000
0100
0000
1001
0000
,
0001
1000
0001
0000
0100
0000
0001
1000
,
0001
1000
0100
0000
0010
0000
1001
0000
,
1000
0001
0100
0000
0010
0000
1001
0000
,
0001
1000
0010
0000
0100
0000
1001
0000
,
0002
0000
0000
1003
,
1001
0000
0000
0000
,
0000
0000
0000
0000
,
0001
0000
0001
0000
,
0002
0000
0000
1003
,
0001
0001
1000
1000
,
0010
0010
0100
0100
,
0001
0000
0001
0000
1000
0001
1000
0000
,
0200
0000
0000
0310
,
0001
0000
1000
0000
0010
0100
0010
0000
,
1000
0000
0001
0000
0010
0100
0010
0000
,
0110
0000
0100
0000
1000
0001
1000
0001
,
0000
0000
1000
0000
0010
0100
0010
0100
,
0000
0000
0010
0000
1000
0001
1000
0000
,
0100
0000
0010
0000
0001
1000
0001
0000
,
1001
1000
0010
0100
,
0001
1000
0001
0000
1000
0001
1000
0000
,
0100
0000
0010
0000
0001
1000
0010
0000
,
0100
0000
0001
0000
1000
0001
0010
0000
,
0110
0000
0100
0000
1000
0001
1000
0001
,
0000
0000
0100
0000
0010
0100
0010
0100
,
0001
0000
1000
0000
0100
0010
0001
0000
,
1000
0000
0001
0000
0100
0010
1000
0000
,
1001
0000
0001
1000
0001
1000
0001
1000
,
0002
0000
0000
1003
;

//---------------dance-double - ----------------
#NOTEDATA:;
#CHARTNAME:;
#STEPSTYPE:dance-double;
#DESCRIPTION:;
#CHARTSTYLE:;
#DIFFICULTY:Easy;
#METER:8;
#RADARVALUES:0.285178,0.368674,0.134135,0.063122,0.000000,253.000000,236.000000,17.000000,8.000000,0.000000,0.000000,0.000000,0.000000,0.000000,0.285178,0.368674,0.134135,0.063122,0.000000,253.000000,236.000000,17.000000,8.000000,0.000000,0.000000,0.000000,0.000000,0.000000;
#CREDIT:Pekkle;
#NOTES:
00000000
00000000
00000000
00000000
,
00000000
00000000
00000000
00000000
,
00000000
00000000
00000000
00000000
,
00011000
00000000
00000000
00000000
,
00000000
00000000
00000000
00000000
,
00000000
00000000
00000000
00000000
,
00000000
00000000
00000000
00000000
,
00001000
00001000
00010000
00010000
,
00001000
00001000
00010000
00010000
,
00100000
00000000
00100000
00000000
10000000
00010000
10000000
00000000
,
02000000
00000000
00000000
03100000
,
00010000
10000000
00100000
00100000
,
00010000
00001000
00000100
00000100
,
00001001
00000000
00000001
00000000
00000010
00000100
00000010
00000100
,
00000000
00000000
00001000
00000000
00010000
00001000
00010000
00001000
,
00000000
00100000
01000000
01000000
,
00010000
00001000
00000010
00000010
,
00001001
00000001
00000100
00000010
,
00010000
00000000
00010000
00000000
00001000
00010000
00001000
00000000
,
00010000
00000010
00000100
00000100
,
00001000
00010000
00100000
00100000
,
10010000
00000000
00010000
00000000
01000000
00100000
01000000
00100000
,
00000000
00000000
00010000
00000000
00001000
00010000
00001000
00010000
,
00000000
00000100
00000010
00000010
,
00001000
00010000
01000000
01000000
,
10010000
10000000
00100000
01000000
,
00002000
00000000
00000000
00013000
,
00022000
00000000
00000000
00000000
,
00000000
00000000
00000000
00000000
,
00000000
00000000
00000000
00000000
,
00000000
00000000
00000000
00033000
,
00001000
00000100
00000000
00000100
,
00000001
00001000
00000000
00001000
,
00000100
00000010
00001000
00010000
,
00000010
00000000
00010000
00000000
00001000
00000000
00100000
00001000
,
00100000
00001000
00100000
00000000
00001000
00000000
00011000
00000000
,
00000010
00010000
00000010
00000000
00010000
00000000
00011000
00000000
,
00100000
00001000
00100000
00000000
00001000
00000000
00011000
00000000
,
00000010
00010000
00000010
00000000
00010000
00000000
00001000
00010000
,
00000100
00010000
00000010
00000000
00010000
00000000
00011000
00000000
,
01000000
00001000
00100000
00000000
00001000
00000000
00011000
00000000
,
00000100
00010000
00000010
00000000
00010000
00000000
00011000
00000000
,
00002000
00000000
00000000
01003000
,
10010000
00000000
00000000
00000000
,
00000000
00000000
00000000
00000000
,
00010000
00000000
00010000
00000000
,
20000000
00000000
00000000
30010000
,
10000000
10000000
01000000
01000000
,
00010000
00010000
00001000
00001000
,
00000010
00000000
00000010
00000000
00000001
00001000
00000001
00000000
,
00000200
00000000
00000000
00000310
,
00001000
00000000
00000001
00000000
00000010
00000100
00000010
00000000
,
00000100
00000000
00010000
00000000
00001000
00010000
00001000
00000000
,
00011000
00000000
00010000
00000000
00100000
01000000
00100000
01000000
,
00000000
00000000
00010000
00000000
10000000
00010000
10000000
00010000
,
00000000
00000000
10000000
00000000
01000000
00100000
01000000
00000000
,
00100000
00000000
00001000
00000000
00010000
00001000
00010000
00000000
,
00011000
00001000
00000100
00000001
,
00001000
00000000
00001000
00000000
00000001
00001000
00000001
00000000
,
00000010
00000000
00000100
00000000
00010000
00001000
00010000
00000000
,
00001000
00000000
01000000
00000000
00100000
01000000
00100000
00000000
,
01100000
00000000
01000000
00000000
00010000
10000000
00010000
10000000
,
00000000
00000000
01000000
00000000
00010000
00001000
00010000
00001000
,
00100000
00000000
00001000
00000000
00010000
00001000
00010000
00000000
,
00000010
00000000
00001000
00000000
00000010
00000100
00000010
00000000
,
00000110
00000000
00001000
00000001
00001000
00000001
00001000
00000001
,
00002000
00000000
00000000
00003001
;

//---------------dance-single - ----------------
#NOTEDATA:;
#CHARTNAME:;
#STEPSTYPE:dance-single;
#DESCRIPTION:;
#CHARTSTYLE:;
#DIFFICULTY:Beginner;
#METER:5;
#RADARVALUES:0.202893,0.263339,0.086793,0.039451,0.000000,180.000000,169.000000,11.000000,5.000000,0.000000,0.000000,0.000000,0.000000,0.000000,0.202893,0.263339,0.086793,0.039451,0.000000,180.000000,169.000000,11.000000,5.000000,0.000000,0.000000,0.000000,0.000000,0.000000;
#CREDIT:Pekkle;
#NOTES:
0000
0000
0000
0000
,
0000
0000
0000
0000
,
0000
0000
0000
0000
,
1001
0000
0000
0000
,
0000
0000
0000
0000
,
0000
0000
0000
0000
,
0000
0000
0000
0000
,
0001
0000
0001
0000
,
1000
0000
1000
0000
,
0010
0100
0010
0100
,
0000
0000
0000
0000
,
0001
0010
0001
0001
,
1000
0010
1000
1000
,
0001
0010
0100
0100
,
0000
1000
0010
0010
,
0000
0100
0001
0001
,
1000
0100
1000
1000
,
0001
0100
0010
1000
,
0002
0000
0000
1003
,
0000
0001
0010
0010
,
0100
1000
0010
0010
,
0100
0001
1000
1000
,
0000
0100
0010
0010
,
0000
0001
0100
0100
,
0010
1000
0100
0100
,
0010
0001
1000
0010
,
0200
0000
0000
0310
,
0110
0000
0000
0000
,
0000
0000
0000
0000
,
0000
0000
0000
0000
,
0000
0000
0000
0000
,
1000
1000
0000
1000
,
0001
0001
0000
0001
,
0010
0010
0000
0010
,
0100
0100
0000
0100
,
1000
0001
0000
1001
,
0001
1000
0000
1001
,
1000
0010
0000
0110
,
0010
0100
0000
0110
,
0100
0001
0000
1001
,
0001
0010
0000
0110
,
0010
0001
0000
1001
,
0002
0000
0000
1003
,
1001
0000
0000
0000
,
0000
0000
0000
0000
,
0000
0000
0000
0000
,
0000
0000
0000
0000
,
0001
0000
0001
0000
,
1000
0000
1000
0000
,
0010
0100
0010
0100
,
1001
0000
0000
0000
,
0001
1000
0100
0100
,
0010
0001
0100
0100
,
0010
1000
0001
0001
,
0010
0100
1000
1000
,
0001
0100
0010
0010
,
1000
0100
0010
0010
,
0001
0100
1000
0100
,
0002
0000
0000
1003
,
0001
0010
1000
1000
,
0001
0100
1000
1000
,
0001
0100
0010
0010
,
1000
0100
0010
0010
,
0000
0001
0010
0010
,
1000
0001
0100
0100
,
1000
0001
0100
0100
,
0020
0000
0000
0130
;
