#VERSION:0.83;
#TITLE:Paranoid;
#SUBTITLE:;
#ARTIST:Ultraviolence;
#TITLETRANSLIT:;
#SUBTITLETRANSLIT:;
#ARTISTTRANSLIT:;
#GENRE:Gabber;
#CREDIT:;
#MUSIC:Paranoid.ogg;
#BANNER:Paranoid.png;
#BACKGROUND:Paranoid-bg.png;
#CDTITLE:cdtitle.png;
#SAMPLESTART:10.758;
#SAMPLELENGTH:15.000;
#SELECTABLE:YES;
#OFFSET:0.000;
#BPMS:0.000=200.780;
#STOPS:256.500=0.299
,257.500=0.299
;
#SPEEDS:0.000=1.000=0.000=0;
#SCROLLS:0.000=1.000;
#TICKCOUNTS:0.000=4;
#TIMESIGNATURES:0.000=4=4;
#LABELS:0.000=Song Start;
#COMBOS:0.000=1;
#ORIGIN:United Kingdom;
#PREVIEWVID:;
#JACKET:Paranoid-jacket.png;
#CDIMAGE:;
#DISCIMAGE:;
#BGCHANGES:;
#FGCHANGES:;

//--------------- dance-single - RaverAce ----------------
#NOTEDATA:;
#STEPSTYPE:dance-single;
#DESCRIPTION:RaverAce;
#DIFFICULTY:Beginner;
#METER:6;
#RADARVALUES:0.238078,0.33028,0.171705,0,0,165,148,17,0,0,0,0,0,0,0.238078,0.33028,0.171705,0,0,165,148,17,0,0,0,0,0,0;
#CHARTNAME:;
#CHARTSTYLE:;
#CREDIT:;
#NOTES:
0000
0000
0000
0000
,
0000
0000
0000
0000
,
0000
0000
0000
0000
,
0000
0000
0000
0000
,
0000
0000
0000
0000
,
0001
0000
0000
0000
,
0001
0000
0000
0000
,
1000
0000
0000
0000
,
1000
0000
0000
0000
,
1001
0000
1000
0000
,
0100
0000
0001
0000
,
0100
0000
1000
0000
,
0010
0000
0110
0000
,
0100
0000
0001
0000
,
0010
0000
0100
0000
,
1000
0000
0001
0000
,
0100
0000
0010
0000
,
1001
0000
0001
0000
,
1001
0000
0001
0000
,
1000
1000
1000
0000
,
1000
1000
1000
0000
,
0010
0000
0010
0000
,
0110
0000
0100
0000
,
0001
0001
0001
0000
,
1000
1000
1000
0000
,
0001
0000
0001
0000
,
0100
0000
0100
0000
,
0010
0000
0010
0000
,
1000
0000
0001
0000
,
1000
0000
1000
0000
,
0100
0000
0100
0000
,
0010
0000
0010
0000
,
0001
0000
1000
0000
,
1001
0000
0001
0000
,
1000
0000
0001
0000
,
0100
0000
0010
0000
,
0100
0000
0010
0000
,
1000
0000
0001
0000
,
1000
0000
0001
0000
,
0010
0000
0100
0000
,
1000
0000
0001
0000
,
1001
0000
1000
0000
,
1001
0000
0001
0000
,
1001
0000
1000
0000
,
1001
0000
0001
0000
,
0010
0000
0010
0000
,
0100
0000
0100
0000
,
1000
0000
1000
0000
,
0001
0000
0001
0000
,
1001
0000
0010
0000
,
0100
0000
0010
0000
,
1001
0000
0100
0000
,
0010
0000
0100
0000
,
1000
0000
0001
0000
,
0100
0000
0010
0000
,
1000
0000
0001
0000
,
0010
0000
0100
0000
,
1000
0000
0001
0000
,
0100
0000
0010
0000
,
1000
0000
0100
0000
,
0010
0000
0010
0000
,
0100
0100
0100
0100
,
0100
0100
0100
0100
,
0010
0010
0010
0010
,
0100
0010
1001
0000
,
1000
0000
0010
0000
,
1000
0000
0001
0000
,
0010
0000
0001
0000
,
1000
0000
0010
0000
,
0100
0000
0010
0000
,
1000
0000
0001
0000
,
0010
0000
0100
0000
,
1000
0000
1001
0000
,
0001
0000
0100
0000
,
0010
0000
1000
0000
,
0010
0000
0100
0000
,
1001
0000
0001
0000
,
0010
0000
0100
0000
,
1000
0000
0001
0000
,
0100
0000
0110
0000
;

//--------------- dance-single - RaverAce ----------------
#NOTEDATA:;
#STEPSTYPE:dance-single;
#DESCRIPTION:RaverAce;
#DIFFICULTY:Easy;
#METER:9;
#RADARVALUES:0.447299,0.541628,0.323209,0.525215,0,310,278,32,52,0,0,0,0,0,0.447299,0.541628,0.323209,0.525215,0,310,278,32,52,0,0,0,0,0;
#CHARTNAME:;
#CHARTSTYLE:;
#CREDIT:;
#NOTES:
0000
0000
0000
0000
,
0000
0000
0000
0000
,
0000
0000
0000
0000
,
0000
0000
0000
0000
,
0000
0000
0000
0000
,
2000
0000
0000
3020
0000
0000
0130
0000
,
0002
0000
0023
0000
,
0032
0000
0000
0023
0000
0000
0130
0000
,
2000
0000
3020
0000
,
1030
0100
0001
0100
,
0100
0010
0001
1000
,
0010
1000
0001
0010
,
0100
0010
0000
0220
0000
0000
0330
0000
,
0001
0100
0010
0110
,
0100
0110
0010
0110
,
0100
0001
1000
0100
,
0010
0100
0000
0220
0000
0000
0330
0000
,
2002
0000
0000
3003
,
0012
0000
0200
0303
,
0001
0100
1000
0100
,
0010
0100
0001
0010
,
2002
0000
0000
3003
,
2010
0000
0200
3300
,
1000
0100
0001
0100
,
0010
0020
0000
0200
0000
0000
0330
0000
,
1001
1000
0010
0100
,
0001
0011
0010
0011
,
0001
1000
0010
0100
,
0001
1000
0000
2002
0000
0000
3003
0000
,
1000
0001
0010
0100
,
1000
1010
0010
1010
,
1000
0100
0010
0001
,
1000
0001
0000
2002
0000
0000
3003
0000
,
0001
0001
0001
0001
,
0100
0100
0100
0100
,
1000
1000
1000
1000
,
0100
0000
0100
0000
0001
1000
0001
0000
,
1000
1000
1000
1000
,
0100
0100
0100
0100
,
0001
0001
0001
0001
,
0100
0000
0100
0000
1000
0001
1000
0000
,
1100
0000
0100
2000
0000
3002
0000
0000
,
0103
0110
0010
0110
,
0101
0000
0100
0002
0000
2003
0000
0000
,
3100
0110
0010
0110
,
1001
0001
0100
1000
,
0100
0010
0100
0001
,
1000
0100
0001
0100
,
0010
0001
1000
0010
,
0110
0100
0001
0001
,
1000
0100
0010
0001
,
0010
0100
1000
1000
,
0001
0100
0010
1000
,
0001
0001
1000
1000
,
0010
0010
0100
0100
,
0001
0001
1000
1000
,
0100
0010
0001
1000
,
2002
3003
1000
0001
,
2002
3003
0001
1000
,
2200
3300
1000
0001
,
0022
0033
2200
3300
,
1000
0001
1000
0010
,
1000
0001
0010
0001
,
2000
3020
0230
0302
,
1003
0001
0001
1000
1001
0000
0001
0000
,
0010
1000
0010
0100
,
1000
0001
0100
1000
,
0100
0000
0010
0000
1000
0200
0000
0020
,
0000
0330
0001
1000
,
0010
0001
0010
0100
,
0001
1000
0100
0001
,
0100
0000
0010
0000
0001
0200
0000
0020
,
0000
0000
0330
0000
1001
1000
0000
0100
,
0000
0001
0000
0100
0000
0010
0000
0001
,
0000
0100
0000
0010
0000
1000
0000
0100
,
0000
0001
0000
0100
1000
2000
0000
0002
,
0000
0000
3003
0000
1000
0001
0000
0100
,
0000
1000
0000
0100
0000
0010
0000
1000
,
0000
0100
0000
0010
0000
0001
0000
0100
,
0000
1000
0000
0100
0001
1000
0000
2002
,
0000
3003
0000
0000
;

//--------------- dance-single - RaverAce ----------------
#NOTEDATA:;
#STEPSTYPE:dance-single;
#DESCRIPTION:RaverAce;
#DIFFICULTY:Medium;
#METER:12;
#RADARVALUES:0.614675,0.666619,0.69692,0.555516,0,426,357,69,55,0,0,0,0,0,0.614675,0.666619,0.69692,0.555516,0,426,357,69,55,0,0,0,0,0;
#CHARTNAME:;
#CHARTSTYLE:;
#CREDIT:;
#NOTES:
0000
0000
0000
0000
,
0000
0000
0000
0000
,
0000
0000
0000
0000
,
0000
0000
0000
0000
,
0000
0000
0000
0000
,
0002
0000
0000
0023
0000
0000
0130
0000
,
1000
0010
0100
0001
,
2000
0000
0000
3020
0000
0000
0130
0000
,
0001
0010
0100
1000
,
1001
0000
0001
1000
0001
0000
0101
0000
,
0110
0000
0010
1000
0001
0000
1000
0100
,
1000
0010
0100
0010
,
1000
0001
0000
2001
0000
0000
3010
0000
,
1001
0000
1000
0100
1000
0000
1100
0000
,
0100
0110
0100
1100
,
1000
0000
0001
0000
0100
0010
0100
0000
,
0001
1000
0000
1002
0000
0000
0013
0000
,
2001
0001
0001
3001
,
0102
1003
2100
3001
,
1001
0000
1000
0000
0100
0010
0001
0000
,
1000
2000
0000
3020
0000
0130
0110
0000
,
1002
1000
1000
1003
,
2100
3001
0102
1003
,
1001
0000
0001
0000
0100
0010
1000
0000
,
0001
0002
0000
0023
0000
0130
0110
0000
,
1000
0001
1000
0001
1000
0100
1000
0000
,
0001
1000
0001
0000
0100
0001
0100
0000
,
0010
0100
0010
0100
0010
1000
0001
0000
,
1000
0100
0000
0120
0000
0000
0031
0000
,
0001
1000
0001
1000
0001
0100
0001
0000
,
1000
0001
1000
0000
0100
1000
0100
1000
,
0001
0100
0010
0100
0010
1000
0001
0000
,
0001
0100
0000
0120
0000
0000
1030
0000
,
0001
0011
0001
0101
,
0001
0011
0001
0101
,
0100
0110
0010
1010
,
1000
1001
0001
1001
,
1000
1010
1000
1100
,
1000
1010
1000
1100
,
0100
0110
0010
0011
,
0001
1001
1000
1001
,
0101
0000
0001
0020
0000
0230
0000
0000
,
0310
0110
0100
0110
,
1100
0000
1000
0020
0000
0230
0000
0000
,
0310
0110
0100
0110
,
0010
1000
0010
0000
1000
0001
1000
0000
,
0001
0010
0001
0000
0010
0100
0010
0000
,
0100
1000
0100
0000
1000
0001
1000
0000
,
0001
0100
0001
0000
0100
0010
0100
0000
,
1001
0001
1000
0010
0100
0000
0101
0000
,
0001
0101
0100
0101
,
0001
1000
0001
0010
0100
0000
1100
0000
,
1000
1100
0100
1100
,
1000
0010
0001
0010
,
1000
0100
0001
0100
,
1000
0100
0001
0100
,
0010
0001
0100
0010
,
2001
0010
3010
0010
,
0210
0001
0001
0301
,
0021
0100
0100
0130
,
2100
3001
0102
1003
,
1001
1100
1001
0101
,
1001
1010
1001
0011
,
0001
1000
0001
1000
0100
0010
0100
0010
,
0001
0010
0100
1000
0001
0100
0001
0000
,
0010
0001
0010
0000
0100
0010
0100
0000
,
1000
0100
1000
0000
0001
1000
0001
0000
,
0100
0010
0100
0000
0001
1000
0000
2100
,
0000
0000
3010
0000
1000
0100
1000
0000
,
0010
1000
0010
0000
0100
0010
0100
0000
,
0001
0100
0001
0000
1000
0001
1000
0000
,
0100
0010
0100
0000
1000
0001
0000
0102
,
0000
0000
0013
0000
0100
0020
0000
0032
,
0000
0203
0000
2300
0000
3200
0000
0320
,
0000
2030
0000
3200
0000
0302
0000
0203
,
0000
0320
0000
0031
1000
1001
0000
0021
,
0000
0000
0230
0000
1300
0020
0000
2030
,
0000
3200
0000
0302
0000
0203
0000
0320
,
0000
0032
0000
0203
0000
2300
0000
3200
,
0000
0320
0000
1030
0001
1001
0000
0220
,
0000
0330
0000
0000
;

//--------------- dance-single - RaverAce ----------------
#NOTEDATA:;
#STEPSTYPE:dance-single;
#DESCRIPTION:RaverAce;
#DIFFICULTY:Hard;
#METER:15;
#RADARVALUES:0.836882,0.874938,0.707021,0.525215,0.156555,580,510,70,52,0,0,0,0,0,0.836882,0.874938,0.707021,0.525215,0.156555,580,510,70,52,0,0,0,0,0;
#CHARTNAME:;
#CHARTSTYLE:;
#CREDIT:;
#NOTES:
0000
0000
0000
0000
,
0000
0000
0000
0000
,
0000
0000
0000
0000
,
0000
0000
0000
0000
,
0000
0000
0000
0000
,
2000
0000
0000
3200
0000
0000
0302
0000
,
0103
0010
0001
0100
1000
0100
0010
1000
,
0002
0000
0000
0203
0000
0000
2300
0000
,
3100
0001
0010
1000
0010
0100
1100
0000
,
0011
0000
0000
0000
1000
0000
0010
0000
1000
0001
1000
0000
1100
0000
0000
0000
,
0011
0000
0000
0000
1000
0000
0010
0000
1000
0001
1000
0000
0100
0000
0001
0000
,
0100
0010
0001
0100
0010
0010
1000
0010
,
0100
0101
0000
1020
0000
1030
1001
0000
,
0001
1000
0100
1000
0001
0000
1010
0000
,
0001
1100
0001
1010
,
0001
0100
1000
0100
0001
0001
0010
0100
,
1000
1100
0000
0012
0000
1003
1001
0000
,
1020
1000
1000
1030
,
2001
3001
0020
0130
,
1001
0000
1000
0000
0010
0000
0100
0001
0000
1000
0100
0000
0010
0000
0001
0000
,
1000
2000
0000
3020
0000
0130
0101
0000
,
0021
0001
0001
0031
,
1001
2000
3020
0130
,
1001
0000
0001
0000
0010
0000
0100
1000
0000
0001
0100
0000
0010
0000
1000
0000
,
0001
0012
0000
0023
0000
0130
1100
0000
,
0011
0000
0001
0000
0100
0000
0010
0000
1000
0000
0001
0010
0100
0000
0000
0000
,
1000
0001
0101
0000
0001
1000
1100
0000
,
1001
0000
1000
0000
0010
0000
0100
0000
0001
0000
1000
0100
0010
0000
0000
0000
,
0001
0011
0000
1002
0000
1003
2010
0000
,
3001
0000
1000
0000
0100
0000
0001
0000
0100
0000
1000
0010
0100
0000
0000
0000
,
0001
0000
0010
0100
1000
0000
0000
0000
1000
0000
0010
0100
0001
0000
1000
0000
,
0001
0010
0001
0100
0010
1000
1001
0001
,
1000
1010
0000
1002
0000
0013
0011
0000
,
0001
0100
0001
0100
1000
0100
1000
0100
,
0010
1000
0010
1000
0010
0001
0010
0001
,
0010
1000
0100
0001
0100
1000
0010
1000
,
0001
0010
1000
0001
0100
1000
0010
0000
,
1000
0100
1000
0100
0001
0100
0001
0100
,
0010
0001
0010
0001
0010
1000
0010
1000
,
0010
0001
0100
1000
0100
0001
0010
0001
,
1000
0010
0001
1000
0100
0001
0010
0000
,
0011
0000
0001
0002
0000
0103
0110
0000
,
0010
0000
0000
1000
0100
0000
0000
0000
0010
0000
0000
0001
0100
0000
0000
0000
,
1010
0000
1000
2000
0000
3100
0110
0000
,
0010
0000
0000
0001
0100
0000
0000
0000
0010
0000
0000
1000
0100
0000
0000
0000
,
0100
1000
0010
0000
0100
0001
0010
0000
,
0001
1000
0100
0000
1000
0001
0100
0000
,
0001
1000
0010
0000
1000
0001
0010
0000
,
0100
1000
0001
0000
0100
0001
1000
0000
,
1100
0100
0001
0100
0010
0000
1001
0000
,
0001
0001
1000
1000
0100
1000
0001
0000
,
0101
0100
1000
0100
0010
0000
1001
0000
,
1000
1000
0001
0001
0100
0001
1000
1000
,
0001
0010
0001
0010
1000
0010
1000
0010
,
0001
0100
0001
0100
0010
1000
0010
1000
,
0100
0010
0100
1000
0100
0010
0100
1000
,
0001
0001
0100
0100
0001
0010
0100
1000
,
1200
0000
1300
0100
0001
0100
0010
0001
,
0201
0000
0301
0100
1000
0100
0010
1000
,
2001
0000
3001
0010
1000
0010
0100
1000
,
1020
0000
1030
0001
0011
0000
0001
1000
,
1010
0101
0011
1100
,
1010
0011
0101
1100
,
1001
1000
0001
0001
0100
0100
0001
0010
,
0011
0001
1000
0010
1001
0001
0010
1000
,
0010
0100
1000
0010
0100
1000
0100
0010
,
1000
0001
0010
0100
1000
0001
0010
0001
,
0100
0010
1000
0001
1001
1000
0000
1200
,
0000
0000
0310
0000
0110
0000
0000
0000
1001
0000
1000
0000
0100
0000
0010
0001
,
0000
1000
0010
0000
0100
0000
0001
0000
0010
0000
0100
0000
1000
0000
0001
0100
,
0000
0010
1000
0000
0001
0000
1000
0000
0100
0000
0010
0000
0100
0000
1000
0001
,
0000
0001
0010
0000
0001
0000
1000
0000
1001
0000
0001
0000
0000
0000
0201
0000
,
0000
0310
0110
0000
1001
1000
0010
0001
,
0010
0000
1000
0000
0010
0000
0001
0000
0010
0000
0100
0000
0001
0000
0010
0100
,
0000
0010
0100
0010
0100
0000
0010
0000
0001
0000
0100
0000
1000
0000
0100
0000
,
0010
0100
0001
1000
1001
0001
0000
0012
,
0000
0000
1003
0000
1010
0000
0000
0000
1001
0000
0001
0000
0010
0000
0100
1000
,
0000
1000
0010
0000
0100
0000
0001
0000
1000
0000
0100
0000
0001
0000
0100
0010
,
0000
0100
0010
0100
0010
0000
0001
0000
1000
0000
0100
0000
1000
0000
0010
0100
,
0000
0001
1000
0000
0100
0000
0010
0000
0001
0000
1001
0000
0000
0000
0220
0000
,
0000
0330
0000
0000
;
