#VERSION:0.83;
#TITLE:Non Stop Rock;
#SUBTITLE:;
#ARTIST:Masayoshi Iimori;
#TITLETRANSLIT:;
#SUBTITLETRANSLIT:;
#ARTISTTRANSLIT:;
#GENRE:Drum & Bass;
#ORIGIN:;
#CREDIT:;
#BANNER:Non Stop Rock.png;
#BACKGROUND:Non Stop Rock-bg.png;
#PREVIEWVID:;
#JACKET:Non Stop Rock-jacket.png;
#CDIMAGE:;
#DISCIMAGE:;
#LYRICSPATH:;
#CDTITLE:cdtitle.png;
#MUSIC:Non Stop Rock.ogg;
#OFFSET:-0.219057;
#SAMPLESTART:44.870228;
#SAMPLELENGTH:11.162785;
#SELECTABLE:YES;
#DISPLAYBPM:86.000000:172.000000;
#BPMS:0.000=86.000,
32.000=172.000,
60.000=344.000,
62.500=172.000,
62.750=86.000,
63.000=172.000,
70.000=344.000,
70.500=172.000,
70.750=86.000,
71.000=172.000,
78.000=688.000,
78.250=344.000,
78.625=86.000,
79.000=172.000,
82.000=688.000,
82.250=344.000,
82.625=86.000,
83.000=172.000,
86.000=688.000,
86.250=344.000,
86.625=86.000,
87.000=172.000,
90.000=86.000,
92.000=344.000,
92.500=172.000,
92.750=86.000,
93.000=172.000,
100.000=344.000,
100.500=172.000,
100.750=86.000,
101.000=172.000,
108.000=688.000,
108.250=344.000,
108.625=86.000,
109.000=172.000,
112.000=688.000,
112.250=344.000,
112.625=86.000,
113.000=172.000,
116.000=344.000,
119.000=172.000,
122.000=344.000,
123.000=86.000,
125.000=172.000,
153.000=86.000,
169.000=172.000,
197.000=344.000,
199.500=172.000,
199.750=86.000,
200.000=172.000,
207.000=344.000,
207.500=172.000,
207.750=86.000,
208.000=172.000,
214.000=344.000,
216.000=172.000,
223.000=344.000,
224.000=172.000,
227.000=86.000,
229.000=344.000,
229.500=172.000,
229.750=86.000,
230.000=172.000,
237.000=344.000,
237.500=172.000,
237.750=86.000,
238.000=172.000,
244.000=344.000,
246.000=172.000,
253.000=344.000,
254.000=172.000;
#STOPS:60.000=0.131,
60.250=0.131,
60.500=0.131,
60.750=0.131,
61.000=0.262,
61.500=0.262,
116.000=0.262,
116.500=0.087,
117.000=0.262,
117.500=0.087,
118.000=0.044,
118.250=0.044,
118.500=0.044,
118.750=0.044,
122.000=0.174,
197.000=0.131,
197.250=0.131,
197.500=0.131,
197.750=0.131,
198.000=0.262,
198.500=0.262,
214.000=0.044,
214.250=0.044,
214.500=0.044,
214.750=0.044,
215.000=0.174,
223.000=0.174,
244.000=0.044,
244.250=0.044,
244.500=0.044,
244.750=0.044,
245.000=0.174,
253.000=0.174;
#DELAYS:;
#WARPS:;
#TIMESIGNATURES:0.000=4=4;
#TICKCOUNTS:0.000=4;
#COMBOS:0.000=1;
#SPEEDS:0.000=1.000=0.000=0;
#SCROLLS:0.000=1.000,
153.000=0.500,
168.000=1.000;
#FAKES:;
#LABELS:0.000=Song Start;
#BGCHANGES:;
#KEYSOUNDS:;
#ATTACKS:
;

//---------------dance-single - ----------------
#NOTEDATA:;
#CHARTNAME:;
#STEPSTYPE:dance-single;
#DESCRIPTION:;
#CHARTSTYLE:;
#DIFFICULTY:Challenge;
#METER:16;
#RADARVALUES:0.731051,0.751292,0.392331,0.392331,0.673785,600.000000,554.000000,46.000000,46.000000,14.000000,0.000000,0.000000,0.000000,0.000000,0.731051,0.751292,0.392331,0.392331,0.673785,600.000000,554.000000,46.000000,46.000000,14.000000,0.000000,0.000000,0.000000,0.000000;
#CREDIT:;
#OFFSET:-0.219057;
#BPMS:0.000000=86.000000
,32.000000=172.000000
,60.000000=344.000000
,62.500000=172.000000
,62.750000=86.000000
,63.000000=172.000000
,70.000000=344.000000
,70.500000=172.000000
,70.750000=86.000000
,71.000000=172.000000
,78.000000=688.000000
,78.250000=344.000000
,78.625000=86.000000
,79.000000=172.000000
,82.000000=688.000000
,82.250000=344.000000
,82.625000=86.000000
,83.000000=172.000000
,86.000000=688.000000
,86.250000=344.000000
,86.625000=86.000000
,87.000000=172.000000
,90.000000=86.000000
,92.000000=344.000000
,92.500000=172.000000
,92.750000=86.000000
,93.000000=172.000000
,100.000000=344.000000
,100.500000=172.000000
,100.750000=86.000000
,101.000000=172.000000
,108.000000=688.000000
,108.250000=344.000000
,108.625000=86.000000
,109.000000=172.000000
,112.000000=688.000000
,112.250000=344.000000
,112.625000=86.000000
,113.000000=172.000000
,116.000000=344.000000
,119.000000=172.000000
,122.000000=344.000000
,123.000000=86.000000
,125.000000=172.000000
,153.000000=86.000000
,169.000000=172.000000
,197.000000=344.000000
,199.500000=172.000000
,199.750000=86.000000
,200.000000=172.000000
,207.000000=344.000000
,207.500000=172.000000
,207.750000=86.000000
,208.000000=172.000000
,214.000000=344.000000
,216.000000=172.000000
,223.000000=344.000000
,224.000000=172.000000
,227.000000=86.000000
,229.000000=344.000000
,229.500000=172.000000
,229.750000=86.000000
,230.000000=172.000000
,237.000000=344.000000
,237.500000=172.000000
,237.750000=86.000000
,238.000000=172.000000
,244.000000=344.000000
,246.000000=172.000000
,253.000000=344.000000
,254.000000=172.000000
;
#STOPS:60.000000=0.130817
,60.250000=0.130817
,60.500000=0.130817
,60.750000=0.130817
,61.000000=0.261627
,61.500000=0.261627
,116.000000=0.261627
,116.500000=0.087207
,117.000000=0.261627
,117.500000=0.087207
,118.000000=0.043605
,118.250000=0.043601
,118.500000=0.043601
,118.750000=0.043601
,122.000000=0.174419
,197.000000=0.130813
,197.250000=0.130813
,197.500000=0.130813
,197.750000=0.130813
,198.000000=0.261627
,198.500000=0.261627
,214.000000=0.043601
,214.250000=0.043609
,214.500000=0.043609
,214.750000=0.043609
,215.000000=0.174423
,223.000000=0.174415
,244.000000=0.043601
,244.250000=0.043609
,244.500000=0.043609
,244.750000=0.043609
,245.000000=0.174423
,253.000000=0.174415
;
#DELAYS:;
#WARPS:;
#TIMESIGNATURES:0.000000=4=4
;
#TICKCOUNTS:0.000000=4
;
#COMBOS:0.000000=1
;
#SPEEDS:0.000000=1.000000=0.000000=0
;
#SCROLLS:0.000000=1.000000
,153.000000=0.500000
,168.000000=1.000000
;
#FAKES:;
#LABELS:0.000000=Song Start
;
#DISPLAYBPM:86.000000:172.000000;
#NOTES:
// measure 0
0000
0000
0000
0000
,  // measure 1
0000
0000
0000
0000
,  // measure 2
0000
0000
0000
0000
,  // measure 3
0000
0000
0000
0000
,  // measure 4
2100
0000
0000
0000
0000
0000
0000
0000
0010
0000
0000
0000
0000
0000
0000
0000
3100
0000
0000
0100
0000
0000
0100
0000
0010
0000
0001
0000
0100
0000
0010
0000
,  // measure 5
0120
0000
1030
0000
0001
0010
0100
1000
,  // measure 6
0102
0000
0000
0000
0000
0000
0000
0000
0010
0000
0000
0000
0000
0000
0000
0000
0103
0000
0000
0100
0000
0000
0100
0000
0010
0000
1000
0000
0100
0000
0010
0000
,  // measure 7
0110
0000
0000
0000
0000
0000
0002
0003
0000
0000
0000
0000
2000
0000
3000
0000
0000
0000
0002
0000
0000
0003
0000
0000
2000
0000
0000
0000
3000
0000
0002
0000
0000
0000
0000
0003
1000
0000
0000
0000
0000
0000
0001
0000
0000
1000
0000
0000
,  // measure 8
1001
0000
0000
0000
0001
0000
0100
0001
0100
0000
0001
0000
1000
0001
1000
0000
,  // measure 9
0100
0000
0000
0000
1000
0000
0100
1000
0100
0000
1000
0000
0001
1000
0001
0000
,  // measure 10
0100
0000
0000
0000
0001
0000
0100
0010
1000
0000
0010
0000
1000
0010
1000
0000
,  // measure 11
0100
0000
0000
0000
1000
0000
0100
0010
0001
0000
0010
0000
0001
0010
0001
0000
,  // measure 12
0100
0000
0000
0000
0101
0000
0100
0010
1000
0000
0001
0000
1000
0100
0010
0000
,  // measure 13
0100
0000
0000
0000
1100
0000
0100
0010
0001
0000
1000
0000
0001
0100
0010
0000
,  // measure 14
0100
0010
0100
0010
1000
0001
1000
0001
0010
0100
0010
0100
1000
0001
0100
0010
,  // measure 15
010M
M000
000M
M000
000M
0000
0MM0
0000
1001
0000
0000
0000
0001
0000
1000
0010
,  // measure 16
1000
0010
0100
0000
0010
0000
1000
0100
1000
0000
0100
0000
0010
0000
0100
1000
,  // measure 17
0100
1000
0010
0000
0100
0000
0010
0100
0002
0000
0000
0000
1003
0000
0001
0010
,  // measure 18
0001
0010
0100
0000
0010
0000
0001
0100
0001
0000
0100
0000
0010
0000
0100
0001
,  // measure 19
0100
0001
0010
0000
0100
1000
0001
0100
0020
0000
0000
0000
1030
0000
0010
1000
,  // measure 20
0010
0000
0001
0000
0010
0000
1000
0000
0002
0000
0000
0000
1003
0000
0010
0100
,  // measure 21
0010
0000
1000
0010
0100
0001
0010
0000
0120
0000
0000
0000
0031
0000
0010
0001
,  // measure 22
0010
0000
0000
0000
1000
0000
0000
0000
0010
0000
0000
0000
0001
0000
0000
0000
2000
0000
0000
0000
3000
0000
0000
0000
1000
0100
0000
1000
0001
0100
0001
0100
,  // measure 23
0010
0000
0000
0000
1000
0000
0010
1000
0001
1000
0100
0000
0010
0000
0100
1000
,  // measure 24
0100
0000
1000
0000
0010
0000
0100
0010
1000
0100
0010
0000
0001
0000
1000
0001
,  // measure 25
0200
0000
0000
0000
0301
0000
0010
0001
1000
0001
0100
0000
0010
0000
0100
0001
,  // measure 26
0100
0000
0001
0000
0010
0000
0100
0010
0001
0100
0010
0000
1000
0010
0100
0001
,  // measure 27
0020
0000
0000
0000
0130
1000
0100
1000
0001
1000
0001
1000
0010
1000
0001
1000
,  // measure 28
0020
0000
0000
0000
0130
0000
0010
0000
0100
0001
1000
0001
0010
0100
0010
0100
,  // measure 29
2000
0000
0001
0000
3002
0000
0100
0000
0103
0001
0100
0001
1000
0100
1000
0000
,  // measure 30
0001
0100
0001
0000
1000
0100
1000
0000
0220
0330
0000
0000
2002
0000
0000
0000
,  // measure 31
0000
0000
3003
0000
1000
0000
0010
1000
0010
0000
0100
0010
0000
0010
0100
0000
,  // measure 32
0010
0000
1000
0000
0001
0000
0010
0001
0010
0000
0100
0010
0000
0010
0100
0000
,  // measure 33
0010
0000
0001
0000
1000
0000
0001
0100
0001
0000
0100
0010
0000
0010
0100
0000
,  // measure 34
0010
1000
0001
1000
0200
0000
0000
0010
0000
0000
0010
0000
0000
0310
0100
0000
,  // measure 35
1001
0000
0000
0000
0001
0000
0100
0001
1000
0000
0001
0010
0000
0010
0100
0000
,  // measure 36
0010
0000
0001
0000
1000
0000
0010
0100
0001
0000
0010
0100
0000
0100
1000
0000
,  // measure 37
0001
0000
0100
0000
0010
0000
0100
0001
0010
0000
0100
1000
0000
1000
0010
0000
,  // measure 38
1000
0001
0100
0020
0200
0000
0000
0000
0000
0000
0000
0000
0330
0000
0000
0000
,  // measure 39
0000
0000
0000
0000
,  // measure 40
0000
2000
0002
0000
,  // measure 41
0000
0000
0000
0000
0000
0000
0000
3003
,  // measure 42
1000
0100
0010
0001
1002
0000
0100
0000
0103
0000
0102
0000
1000
0000
1003
0000
,  // measure 43
1001
0001
2001
0100
3100
2100
0001
3001
,  // measure 44
1001
1000
2001
0010
3001
1002
0010
1003
,  // measure 45
1001
0001
0102
0010
0013
2100
0010
3010
,  // measure 46
1000
0010
0100
0001
0010
0000
0010
0000
1001
0000
0000
0000
1010
0000
0010
0000
,  // measure 47
1001
0000
0011
1000
0101
0000
1010
0001
,  // measure 48
1100
0000
1001
0001
0011
0001
1001
1000
,  // measure 49
1010
0000
1000
0000
1M01
00M0
0M00
00M0
0M00
0000
M00M
0000
0110
0000
0000
0000
,  // measure 50
1002
0000
0013
0100
0010
0000
0001
0000
1000
0001
1000
0000
0001
0000
0100
0010
,  // measure 51
0100
0000
1000
0000
0100
0010
0100
0000
0001
0100
0010
1000
0001
0000
0000
0000
,  // measure 52
2001
0000
3010
0100
0010
0000
1000
0000
0001
1000
0001
0000
1000
0000
0100
0010
,  // measure 53
0100
0000
0001
0000
0100
0010
0100
0000
1000
0001
1000
0001
0200
0300
0000
0000
,  // measure 54
0010
0000
1000
0100
0000
0001
0100
0000
1000
0001
0010
0001
1000
0000
1000
0000
,  // measure 55
1000
0000
0001
0100
0000
1000
0100
0000
0001
1000
0010
1000
0002
0003
0000
0000
,  // measure 56
1000
0000
0001
0010
0000
0100
0010
0000
1000
0010
0100
0010
0002
0000
0003
0000
,  // measure 57
1000
0010
0000
0100
0001
1000
0001
1000
0100
0000
0000
0000
0000
0000
0000
0000
2001
0000
0000
0000
3100
0000
0010
0000
0100
0000
0000
0000
1000
0000
0000
0000
,  // measure 58
0010
0100
0010
0000
1000
0000
0100
0001
0100
0000
1000
0000
0010
0001
0010
0000
,  // measure 59
1000
0100
0010
0001
1000
0000
0000
0000
1002
0000
0103
0010
0100
0000
0001
0000
,  // measure 60
0010
0100
0010
0000
0001
0000
0100
1000
0100
0000
0001
0000
0010
1000
0010
0000
,  // measure 61
0001
1000
0001
1000
0020
0030
0000
0000
1002
0000
0000
0000
0103
0000
2010
0000
,  // measure 62
0000
0000
3100
0010
0001
0000
0100
0000
0100
0000
0100
0000
0001
0000
0010
0000
,  // measure 63
0100
1000
0100
1000
0002
0003
0000
0000
0101
0000
0100
0000
0010
0000
1010
0000
,  // measure 64
1000
0001
1000
0100
0010
0000
0100
0000
0100
0000
0100
0000
0011
0000
0000
0000
,  // measure 65
1100
0001
0000
0000
;

//---------------dance-single - ----------------
#NOTEDATA:;
#CHARTNAME:;
#STEPSTYPE:dance-single;
#DESCRIPTION:;
#CHARTSTYLE:;
#DIFFICULTY:Hard;
#METER:14;
#RADARVALUES:0.577530,0.584338,0.409389,0.648199,0.324099,474.000000,426.000000,48.000000,76.000000,14.000000,0.000000,0.000000,0.000000,0.000000,0.577530,0.584338,0.409389,0.648199,0.324099,474.000000,426.000000,48.000000,76.000000,14.000000,0.000000,0.000000,0.000000,0.000000;
#CREDIT:;
#OFFSET:-0.219057;
#BPMS:0.000000=86.000000
,32.000000=172.000000
,60.000000=344.000000
,62.500000=172.000000
,62.750000=86.000000
,63.000000=172.000000
,70.000000=344.000000
,70.500000=172.000000
,70.750000=86.000000
,71.000000=172.000000
,78.000000=688.000000
,78.250000=344.000000
,78.625000=86.000000
,79.000000=172.000000
,82.000000=688.000000
,82.250000=344.000000
,82.625000=86.000000
,83.000000=172.000000
,86.000000=688.000000
,86.250000=344.000000
,86.625000=86.000000
,87.000000=172.000000
,90.000000=86.000000
,92.000000=344.000000
,92.500000=172.000000
,92.750000=86.000000
,93.000000=172.000000
,100.000000=344.000000
,100.500000=172.000000
,100.750000=86.000000
,101.000000=172.000000
,108.000000=688.000000
,108.250000=344.000000
,108.625000=86.000000
,109.000000=172.000000
,112.000000=688.000000
,112.250000=344.000000
,112.625000=86.000000
,113.000000=172.000000
,116.000000=344.000000
,119.000000=172.000000
,122.000000=344.000000
,123.000000=86.000000
,125.000000=172.000000
,153.000000=86.000000
,169.000000=172.000000
,197.000000=344.000000
,199.500000=172.000000
,199.750000=86.000000
,200.000000=172.000000
,207.000000=344.000000
,207.500000=172.000000
,207.750000=86.000000
,208.000000=172.000000
,214.000000=344.000000
,216.000000=172.000000
,223.000000=344.000000
,224.000000=172.000000
,227.000000=86.000000
,229.000000=344.000000
,229.500000=172.000000
,229.750000=86.000000
,230.000000=172.000000
,237.000000=344.000000
,237.500000=172.000000
,237.750000=86.000000
,238.000000=172.000000
,244.000000=344.000000
,246.000000=172.000000
,253.000000=344.000000
,254.000000=172.000000
;
#STOPS:60.000000=0.130817
,60.250000=0.130817
,60.500000=0.130817
,60.750000=0.130817
,61.000000=0.261627
,61.500000=0.261627
,116.000000=0.261627
,116.500000=0.087207
,117.000000=0.261627
,117.500000=0.087207
,118.000000=0.043605
,118.250000=0.043601
,118.500000=0.043601
,118.750000=0.043601
,122.000000=0.174419
,197.000000=0.130813
,197.250000=0.130813
,197.500000=0.130813
,197.750000=0.130813
,198.000000=0.261627
,198.500000=0.261627
,214.000000=0.043601
,214.250000=0.043609
,214.500000=0.043609
,214.750000=0.043609
,215.000000=0.174423
,223.000000=0.174415
,244.000000=0.043601
,244.250000=0.043609
,244.500000=0.043609
,244.750000=0.043609
,245.000000=0.174423
,253.000000=0.174415
;
#DELAYS:;
#WARPS:;
#TIMESIGNATURES:0.000000=4=4
;
#TICKCOUNTS:0.000000=4
;
#COMBOS:0.000000=1
;
#SPEEDS:0.000000=1.000000=0.000000=0
;
#SCROLLS:0.000000=1.000000
,153.000000=0.500000
,168.000000=1.000000
;
#FAKES:;
#LABELS:0.000000=Song Start
;
#DISPLAYBPM:86.000000:172.000000;
#NOTES:
0000
0000
0000
0000
,
0000
0000
0000
0000
,
0000
0000
0000
0000
,
0000
0000
0000
0000
,
2100
0000
0000
0000
0000
0000
0000
0000
3010
0000
0000
0000
0000
0000
0000
0000
1000
0000
0000
0001
0000
0000
1000
0000
0100
0000
0000
0000
0000
0000
0000
0000
,
0120
0000
0031
0000
1000
0010
0100
0001
,
0102
0000
0000
0000
0000
0000
0000
0000
0013
0000
0000
0000
0000
0000
0000
0000
0001
0000
0000
1000
0000
0000
0001
0000
0000
0100
0000
0000
0010
0000
0000
0000
,
0110
0000
0000
0000
0000
0000
2000
3000
0000
0000
0000
0000
0002
0000
0003
0000
0000
0000
2000
0000
0000
3000
0000
0000
0002
0000
0000
0000
0003
0000
2000
0000
0000
0000
0000
3000
0001
0000
0000
0000
0000
0000
1000
0000
0000
0001
0000
0000
,
1001
0000
1000
0100
0010
0100
0010
0100
,
1000
0000
0001
0100
0010
0100
0010
0100
,
0001
0000
1000
0100
0010
0100
1000
0100
,
0010
0000
0001
0100
0010
0100
0001
0100
,
0010
0010
1000
0100
0001
0100
1000
0001
,
1000
1000
0001
0100
1000
0100
0001
0001
,
0010
0000
1000
0000
0010
0000
0001
0000
1000
0000
0010
0000
0100
0010
0100
0000
,
011M
M000
000M
M000
000M
0000
0MM0
0000
1001
0000
0000
0000
1100
0000
0000
0100
,
0010
0000
0100
0000
0010
0000
1000
0000
0010
0000
0100
0000
0110
0000
0000
0100
,
1000
0000
0001
0000
0100
0000
0010
0000
0100
0000
0000
0000
0101
0000
0000
0100
,
0010
0000
0100
0000
0010
0000
0001
0000
0010
0000
0100
0000
0110
0000
0000
0100
,
0001
0000
1000
0000
0100
0000
0010
0000
0012
0000
0000
0000
1003
0000
0010
0100
,
0010
0000
0100
0000
0100
0000
0010
0000
2010
0000
0000
0000
3001
0000
0010
0100
,
0010
0000
0100
0000
0100
0000
0010
0000
0012
0000
0000
0000
1003
0000
0010
0100
,
0010
0000
0100
0000
0001
0000
1000
0000
2002
0000
3003
0000
0100
0000
0100
0010
,
1001
0000
0000
0000
0011
0000
0000
0001
0010
0000
0100
0000
0001
0000
0100
0000
,
0010
0000
0001
0000
0101
0000
0000
0100
0010
0000
0001
0000
0010
0000
0100
0000
,
0001
0000
0000
0000
1010
0000
0000
1000
0010
0000
0100
0000
1000
0000
0100
0000
,
0010
0000
1000
0000
1100
0000
0000
0100
0010
0000
1000
0000
0010
0000
0001
0000
,
1002
0000
1003
0010
0001
1000
0100
0001
,
2001
0000
0000
0000
3100
0000
0001
0000
1000
0000
0010
0000
0001
0010
0001
0000
,
2000
0001
3002
1000
1003
0001
0200
0310
,
0200
0000
0310
0000
0200
0000
0310
0000
2002
3003
0000
0000
0220
0000
0000
0000
,
0000
0000
0330
0000
1000
0000
0100
0000
1000
0000
0001
0100
0000
0001
0100
0000
,
0001
0000
1000
0000
0001
0000
0010
0000
0001
0000
1000
0010
0000
1000
0010
0000
,
1000
0000
0001
0000
1000
0000
0100
0000
0010
0000
0001
0100
0000
0010
1000
0000
,
0100
0010
0100
0000
0020
0000
0000
0100
0000
0000
0100
0000
0000
0130
0010
0000
,
1001
0000
0000
0000
0001
0000
0100
0000
1000
0000
0100
0001
0000
1000
0100
0000
,
0001
0000
0100
0000
1000
0000
0010
0000
0001
0000
0010
1000
0000
0001
0010
0000
,
1000
0000
0010
0000
0001
0000
0100
0000
0010
0000
1000
0001
0000
1000
0100
0000
,
1000
0001
0100
0000
0220
0000
0000
0000
0000
0000
0000
0000
0330
0000
0000
0000
,
0000
0000
0000
0000
,
0000
2000
0002
0000
,
0000
0000
0000
0000
0000
0000
0000
3003
,
0100
0010
0100
0010
1002
0000
0000
0000
0103
0000
0102
0000
0000
0000
0103
0000
,
0010
0100
2001
0000
3100
2100
0000
3100
,
0010
0100
2001
0000
3001
2010
0000
3010
,
1000
0001
1002
0000
1003
0012
0000
0013
,
0001
0100
1000
0100
1000
0100
0001
0100
,
0001
0100
0001
0010
0001
0010
1000
0010
,
1000
0010
0002
1000
1000
1000
1000
1000
,
1000
0000
1003
0000
10M1
0M00
00M0
0M00
00M0
0000
M00M
0000
0110
0000
0000
0000
,
1002
0000
0000
0023
0000
0000
2030
0000
0000
3002
0000
0000
0203
0000
0000
2300
,
0000
0000
3002
0000
0000
0023
0000
0000
1030
0000
0010
0000
0011
0000
0000
0000
,
2000
0000
0000
3020
0000
0000
0032
0000
0000
2003
0000
0000
3200
0000
0000
0302
,
0000
0000
2003
0000
0000
3020
0000
0000
0130
0001
0100
0001
0200
0300
0000
0000
,
0001
0000
1000
0100
0000
0100
0010
0000
0001
0100
0000
0100
0010
0000
1000
0000
,
0001
0000
0010
0100
0000
0010
0100
0000
1000
0000
0001
0000
0220
0330
0000
0000
,
1000
0000
0010
0100
0000
0001
0010
0000
0100
1000
0000
0001
0200
0000
0000
0000
,
0310
0000
0010
0100
0110
0000
0000
0000
2001
0000
0000
3200
0000
0000
0302
0000
,
0000
2003
0000
0000
3020
0000
0000
0032
0000
0000
0203
0000
0000
2300
0000
0000
,
3001
0000
0010
0000
1010
0000
0000
0000
1002
0000
0000
0203
0000
0000
2300
0000
,
0000
3002
0000
0000
0023
0000
0000
2030
0000
0000
3200
0000
0000
0302
0000
0000
,
0103
0010
0100
0010
0200
0300
0000
0000
1001
0000
0000
0000
1000
0000
1010
0000
,
0000
0000
0001
0010
0001
0000
1000
0000
1000
0000
1000
0000
0010
0000
0100
0000
,
0001
1000
0001
0000
2001
3000
0000
0000
0001
0000
0010
0000
1000
0000
0001
0000
,
0100
0000
1000
0001
1000
0000
0010
0000
0010
0000
0010
0000
0101
0000
0000
0000
,
1010
0001
0000
0000
;

//---------------dance-single - ----------------
#NOTEDATA:;
#CHARTNAME:;
#STEPSTYPE:dance-single;
#DESCRIPTION:;
#CHARTSTYLE:;
#DIFFICULTY:Medium;
#METER:10;
#RADARVALUES:0.406952,0.463974,0.392331,0.605554,0.004264,334.000000,288.000000,46.000000,71.000000,0.000000,0.000000,0.000000,0.000000,0.000000,0.406952,0.463974,0.392331,0.605554,0.004264,334.000000,288.000000,46.000000,71.000000,0.000000,0.000000,0.000000,0.000000,0.000000;
#CREDIT:;
#OFFSET:-0.219057;
#BPMS:0.000000=86.000000
,32.000000=172.000000
,60.000000=86.000000
,62.000000=172.000000
,89.000000=86.000000
,91.000000=172.000000
,120.000000=86.000000
,122.000000=172.000000
,150.000000=86.000000
,166.000000=172.000000
,194.000000=86.000000
,196.000000=172.000000
,223.000000=86.000000
,225.000000=172.000000
;
#STOPS:62.000000=0.174419
,69.500000=0.174419
,91.000000=0.174419
,98.500000=0.174419
,114.000000=0.348834
,114.500000=0.348834
,196.000000=0.174415
,203.500000=0.174415
,225.000000=0.174415
,232.500000=0.174415
;
#DELAYS:;
#WARPS:;
#TIMESIGNATURES:0.000000=4=4
;
#TICKCOUNTS:0.000000=4
;
#COMBOS:0.000000=1
;
#SPEEDS:0.000000=1.000000=0.000000=0
;
#SCROLLS:0.000000=1.000000
;
#FAKES:;
#LABELS:0.000000=Song Start
;
#DISPLAYBPM:86.000000:172.000000;
#NOTES:
0000
0000
0000
0000
,
0000
0000
0000
0000
,
0000
0000
0000
0000
,
0000
0000
0000
0000
,
2100
0000
3001
0000
2000
0010
3010
1000
,
2001
0000
3100
0000
0010
0001
0100
0000
,
0102
0000
1003
0000
0002
0010
0013
0001
,
1001
0200
0010
0010
0010
0010
0310
0000
,
1001
0000
0100
1000
0100
0000
1000
0000
,
0001
0000
0100
0001
0100
0000
0001
0000
,
1000
0000
0100
1000
0010
0000
1000
0000
,
0001
0000
0100
0001
0010
0000
0001
0000
,
0101
0000
0010
0100
0010
0000
1000
0000
,
1100
0000
0010
0100
0010
0000
0001
0000
,
1001
0000
0100
0010
0100
0010
0100
0020
,
0200
0000
0030
0300
1001
0001
0010
0001
,
0010
0001
0000
0010
0100
0010
0000
0001
,
0010
0100
1000
0002
1003
0010
1000
0010
,
1000
0000
0010
0100
0010
0000
1000
0010
,
0100
0001
2000
0000
3100
0010
0000
0010
,
0100
0000
0002
0000
0103
0010
0000
0010
,
0100
0000
2000
0000
3010
0001
0000
0010
,
1000
0000
2002
0000
3003
0000
0110
1000
,
0010
0100
0010
1000
0000
0010
0100
0010
,
0000
0100
0010
1000
0100
0020
0031
0010
,
0100
0010
0001
0000
0010
0100
0010
0000
,
0100
0010
0001
0100
0020
0000
1030
0001
,
1000
0001
0010
0000
0210
0000
1300
0000
,
0001
0100
0010
0000
0200
0320
0130
0000
,
1010
0101
0011
1100
,
0220
0000
0000
0330
1000
0100
1000
0000
,
0100
0010
0100
0000
0010
0001
0010
0000
,
0001
0100
0001
0000
0100
0010
0100
0000
,
0010
1000
0010
0000
0200
0000
1000
0000
,
0301
0000
1001
0000
0001
0010
0100
0000
,
0010
0100
1000
0000
0100
1000
0010
0000
,
1000
0010
0100
0000
0010
0100
0001
0000
,
0100
0001
0010
0000
0220
0000
0000
0000
,
0330
0000
0000
0000
,
0000
0000
2000
0002
,
0000
0000
0000
0000
,
0000
0000
3003
0000
0001
1000
0001
0000
2002
0000
0000
0000
3003
0000
0202
0000
,
0000
0303
1100
0000
2002
0000
3003
2020
,
0000
3030
0011
0000
2200
0000
3300
2020
,
0000
3030
0110
0000
0202
0000
0303
0022
,
0000
0033
0110
0000
2001
0000
3010
0000
,
2001
3100
0012
0103
,
2010
0000
3100
0000
0010
0100
0010
0100
,
0010
0100
0010
0200
0020
0000
0300
0030
,
0110
1002
0000
0000
0203
0000
0000
0320
,
0000
0000
0230
0000
0000
1300
0100
0001
,
2001
0000
0000
3200
0000
0000
0320
0000
,
0000
0230
0000
0000
0301
0100
1000
0000
,
0002
0000
0100
0000
0010
0000
1003
0001
,
2000
0100
3010
1001
,
0110
0000
1000
0010
0100
0001
0020
0000
,
0030
0000
0110
2001
0000
0000
3020
0000
,
0000
0032
0000
0000
2003
0000
0000
3100
,
0001
0100
1002
0000
0000
0023
0000
0000
,
2030
0000
0000
3002
0000
0000
0103
1000
,
0100
0000
2000
0000
3010
0200
0000
0310
,
0002
0000
0013
0000
1000
0200
0000
0010
,
0310
0000
0011
0000
0000
1100
0000
0000
,
0010
0001
0100
0010
0100
0000
1010
0000
,
0001
0000
0000
0000
;

//---------------dance-single - ----------------
#NOTEDATA:;
#CHARTNAME:;
#STEPSTYPE:dance-single;
#DESCRIPTION:;
#CHARTSTYLE:;
#DIFFICULTY:Easy;
#METER:7;
#RADARVALUES:0.289984,0.409389,0.272926,0.383802,0.000000,238.000000,206.000000,32.000000,45.000000,0.000000,0.000000,0.000000,0.000000,0.000000,0.289984,0.409389,0.272926,0.383802,0.000000,238.000000,206.000000,32.000000,45.000000,0.000000,0.000000,0.000000,0.000000,0.000000;
#CREDIT:;
#OFFSET:-0.219057;
#BPMS:0.000000=86.000000
,32.000000=172.000000
,60.000000=86.000000
,62.000000=172.000000
,89.000000=86.000000
,91.000000=172.000000
,120.000000=86.000000
,122.000000=172.000000
,150.000000=86.000000
,166.000000=172.000000
,194.000000=86.000000
,196.000000=172.000000
,223.000000=86.000000
,225.000000=172.000000
;
#STOPS:62.000000=0.174419
,69.500000=0.174419
,91.000000=0.174419
,98.500000=0.174419
,114.000000=0.348834
,114.500000=0.348834
,196.000000=0.174415
,203.500000=0.174415
,225.000000=0.174415
,232.500000=0.174415
;
#DELAYS:;
#WARPS:;
#TIMESIGNATURES:0.000000=4=4
;
#TICKCOUNTS:0.000000=4
;
#COMBOS:0.000000=1
;
#SPEEDS:0.000000=1.000000=0.000000=0
;
#SCROLLS:0.000000=1.000000
;
#FAKES:;
#LABELS:0.000000=Song Start
;
#DISPLAYBPM:86.000000:172.000000;
#NOTES:
0000
0000
0000
0000
,
0000
0000
0000
0000
,
0000
0000
0000
0000
,
0000
0000
0000
0000
,
2100
0000
3001
0000
1000
0000
0010
0010
,
2001
0000
3100
0000
1000
0001
1000
0000
,
0102
0000
1003
0000
0001
0000
0010
0010
,
1002
0200
0000
0303
,
0001
0010
0001
0000
,
1000
0100
1000
0000
,
0010
1000
0010
0000
,
0100
0001
0100
0000
,
0010
1000
0100
0000
,
0010
0001
0100
0000
,
0010
1000
0100
0010
,
0220
0000
0300
0030
1001
0001
0000
0100
,
0000
0001
0000
0100
0000
0001
0000
0100
,
0000
0010
0000
1001
1000
0000
0100
0000
,
1000
0100
1000
0100
,
0010
0012
0003
0010
,
0001
2010
3000
0010
,
1000
0012
0003
0010
,
0001
0000
0200
0000
0300
0000
1001
1000
,
0000
0010
0000
1000
0000
0100
0000
1000
,
0000
0010
0000
1000
0000
1001
0001
0000
,
0010
0001
0100
0001
,
0010
0001
1002
0203
,
0320
1030
2001
3100
,
0200
0000
0320
0000
0032
2003
3001
0000
,
0011
1100
1010
0101
,
2002
0000
0000
3003
1000
0000
0100
0000
,
0010
0100
1000
0010
,
0100
0010
1000
0100
,
0010
0100
2000
0001
,
3001
1001
0001
0100
,
0010
0100
0001
0010
,
0100
0010
0001
0100
,
0010
0100
2002
0000
,
3003
0000
0000
0000
,
0000
0000
2000
0002
,
0000
0000
0000
0000
,
0000
3003
1000
0001
2001
0000
0000
3200
,
0000
0000
2300
0000
3002
0000
0000
0203
,
0000
0000
0302
0000
2003
0000
0000
3020
,
0000
0000
0230
0000
0302
0000
0000
0023
,
0000
0030
0110
0000
1000
0000
1000
0000
,
0001
0001
1000
0001
,
1000
0001
0200
0010
,
0010
0000
0310
0000
0220
0000
0300
0030
,
1001
2000
0000
0000
0001
0000
0000
0001
,
0000
0000
0001
0000
0000
3001
0000
1001
,
0002
0000
0000
1000
0000
0000
1000
0000
,
0000
1000
0000
0000
1003
0000
1001
0000
,
0001
0010
0000
0001
,
1000
0010
0000
1001
,
1000
0100
0010
0200
,
0300
0000
1001
2000
0000
0000
0010
0000
,
0000
0100
0000
0000
0010
0000
0000
3001
,
0000
1001
0002
0000
0000
0010
0000
0000
,
0100
0000
0000
0010
0000
0000
1003
0000
,
1001
0000
0001
0000
0000
0001
0000
0000
,
0001
0100
0001
0010
,
1001
0000
1000
0000
0000
1000
0000
0000
,
1000
0100
0010
0001
,
0100
0000
0000
0000
;

//---------------dance-single - ----------------
#NOTEDATA:;
#CHARTNAME:;
#STEPSTYPE:dance-single;
#DESCRIPTION:;
#CHARTSTYLE:;
#DIFFICULTY:Beginner;
#METER:3;
#RADARVALUES:0.168142,0.307041,0.110876,0.204694,0.000000,138.000000,125.000000,13.000000,24.000000,0.000000,0.000000,0.000000,0.000000,0.000000,0.168142,0.307041,0.110876,0.204694,0.000000,138.000000,125.000000,13.000000,24.000000,0.000000,0.000000,0.000000,0.000000,0.000000;
#CREDIT:;
#OFFSET:-0.219057;
#BPMS:0.000000=172.000000
;
#STOPS:;
#DELAYS:;
#WARPS:;
#TIMESIGNATURES:0.000000=4=4
;
#TICKCOUNTS:0.000000=4
;
#COMBOS:0.000000=1
;
#SPEEDS:0.000000=1.000000=0.000000=0
;
#SCROLLS:0.000000=1.000000
;
#FAKES:;
#LABELS:0.000000=Song Start
;
#DISPLAYBPM:86.000000:172.000000;
#NOTES:
0000
0000
0000
0000
,
0000
0000
0000
0000
,
0000
0000
0000
0000
,
0000
0000
0000
0000
,
0000
0000
0000
0000
,
0000
0000
0000
0000
,
0000
0000
0000
0000
,
0000
0000
0000
0000
,
2002
0000
3003
0000
,
0100
0000
0010
0000
,
0220
0000
0330
0000
,
0100
0000
0000
0000
,
2002
0000
3003
0000
,
0010
0000
0100
0000
,
2002
0000
0000
0000
,
0000
0000
3003
0000
,
0001
0000
0001
0000
,
1000
0000
1000
0000
,
0010
0000
0010
0000
,
0100
0000
0100
0000
,
0001
0001
0001
0000
,
1000
1000
1000
0000
,
0001
0000
1000
0000
,
2002
0000
3000
0003
,
0000
0001
0000
0001
,
0000
0001
0000
0001
,
0000
1000
0000
1000
,
0000
1000
0000
1000
,
2000
3000
0100
0000
,
0020
0030
0001
0000
,
0200
0300
0010
0000
,
0110
0000
0000
0000
,
0000
1000
0000
0010
,
0000
1000
0000
0010
,
0000
0100
0000
0001
,
0000
0100
0000
0001
,
0002
0003
0010
0000
,
0200
0300
1000
0000
,
0001
0000
0000
0000
,
0100
0100
0100
0000
,
2002
0000
0000
3003
,
1000
0000
1000
0000
,
0100
0000
0100
0000
,
0010
0000
0010
0000
,
0001
0000
1000
0000
,
0001
0000
0001
0000
,
0100
0000
0100
0000
,
0010
0000
1000
0000
,
1001
0000
0000
0000
,
0000
0000
0000
0000
,
0000
0000
0000
0000
,
0000
0000
0000
0000
,
0020
0000
0000
0000
,
0000
0000
0000
0000
,
0000
0000
0000
0000
,
0000
0030
0100
0000
,
1000
0000
0010
0000
,
0100
0000
0001
0000
,
0010
0000
0100
0000
,
1000
0000
0001
0000
,
1001
0000
1001
0000
,
1001
0000
1001
0000
,
0010
0010
0010
0000
,
2002
0000
3000
0003
,
0000
2000
0001
0000
,
0000
0001
0001
3000
,
0000
0002
1000
0000
,
0000
1000
1000
0003
,
0000
0001
0001
0000
,
0001
0001
0001
0000
,
0000
1000
1000
0000
,
1000
0000
0000
0000
,
0000
2000
0001
0000
,
0000
0010
0010
3000
,
0000
0002
1000
0000
,
0000
0010
0010
0003
,
0000
0001
0000
1000
,
0000
0001
0000
1000
,
0000
0010
0000
0100
,
0100
0000
0001
1000
,
0001
0000
0000
0000
;
