#VERSION:0.83;
#TITLE:Nice To Meet Ya!;
#SUBTITLE:;
#ARTIST:dj VERTICAI;
#TITLETRANSLIT:;
#SUBTITLETRANSLIT:;
#ARTISTTRANSLIT:;
#GENRE:;
#ORIGIN:;
#CREDIT:;
#BANNER:Nice To Meet Ya!.png;
#BACKGROUND:Nice To Meet Ya!-bg.png;
#PREVIEWVID:;
#JACKET:Nice To Meet Ya!-jacket.png;
#CDIMAGE:;
#DISCIMAGE:;
#LYRICSPATH:;
#CDTITLE:;
#MUSIC:Nice To Meet Ya!.ogg;
#OFFSET:-1.607115;
#SAMPLESTART:26.855034;
#SAMPLELENGTH:15.000000;
#SELECTABLE:YES;
#DISPLAYBPM:152.000000;
#BPMS:0.000=152.000,
148.000=76.000,
148.500=152.000,
149.000=304.000,
150.000=76.000,
150.250=152.000,
150.500=304.000,
151.000=76.000,
151.250=152.000,
151.500=304.000,
152.000=152.000;
#STOPS:56.000=0.789,
58.000=0.789,
320.000=0.789;
#DELAYS:;
#WARPS:;
#TIMESIGNATURES:0.000=4=4;
#TICKCOUNTS:0.000=4;
#COMBOS:0.000=1;
#SPEEDS:0.000=1.000=0.000=0;
#SCROLLS:0.000=1.000;
#FAKES:;
#LABELS:0.000=Song Start;
#BGCHANGES:;
#KEYSOUNDS:;
#ATTACKS:
;

//---------------dance-single - ----------------
#NOTEDATA:;
#CHARTNAME:;
#STEPSTYPE:dance-single;
#DESCRIPTION:;
#CHARTSTYLE:;
#DIFFICULTY:Hard;
#METER:14;
#RADARVALUES:0.665247,0.861449,0.436107,0.303057,0.510023,630.000000,571.000000,59.000000,41.000000,0.000000,0.000000,0.000000,0.000000,0.000000,0.665247,0.861449,0.436107,0.303057,0.510023,630.000000,571.000000,59.000000,41.000000,0.000000,0.000000,0.000000,0.000000,0.000000;
#CREDIT:;
#DISPLAYBPM:152.000000;
#NOTES:
0000
0000
0000
0000
,
0000
0000
0000
0000
,
0000
0000
0000
0000
,
0000
0000
0011
0000
0000
1100
0000
0000
1010
0000
0000
0101
0000
0000
1001
0000
,
0002
0000
0000
0000
1003
0000
0010
0000
0100
0000
0010
1000
0000
0000
0101
0000
,
0000
0000
1100
0000
0001
0000
0010
0000
0100
0000
0010
0001
0000
0001
1000
0001
,
0100
0000
0000
0000
1001
0000
0000
0000
0011
0000
0000
1010
0000
1000
0010
0100
,
0000
0100
0001
0000
0001
0010
0000
0010
0100
0000
0100
1000
0000
1000
0001
0100
,
0010
0000
0100
0000
0001
0000
0100
0000
1000
0000
0100
0010
0000
0010
1000
0000
,
0100
0010
0100
0001
0200
2300
3020
0000
,
1030
0000
0001
0000
0010
0000
1000
0000
0010
0000
0100
0010
0000
0010
0001
0000
,
1000
0010
0001
0010
0000
0110
1001
0000
,
1002
0000
0000
0203
0000
0000
0320
0000
0000
2030
0000
0000
3200
0000
0000
0320
,
0000
0000
0032
0000
2003
0000
3020
0000
0230
0000
0301
0000
1000
0001
0100
0010
,
2000
0000
0000
0001
3002
0000
0003
0000
,
0010
0000
0000
0010
0001
0000
0010
0000
0100
0000
1000
0000
0010
0000
1000
0000
,
0000
0000
0010
1000
0010
0000
0010
0000
0100
0000
0001
0000
0010
0000
0100
0000
,
0010
0000
0000
0010
0001
0000
0010
0000
0100
0000
1000
0000
0010
0000
1000
0000
,
0000
0000
0010
1000
0001
0000
0100
0000
0001
0000
1000
0000
0020
0000
0000
0000
,
1030
0000
0000
0001
0000
0000
0101
0000
1000
0000
0000
0100
0000
0000
0012
0000
,
0000
0000
1003
0000
0010
0000
0100
0000
0001
0000
0000
0010
0000
0000
2100
0000
,
0000
0000
0000
0000
3100
0000
0010
0000
0011
0000
0000
0100
0000
0000
1002
0000
,
0000
1003
0100
0001
0100
1000
0002
0000
,
0013
0000
0000
0010
0100
0000
1000
0000
0001
0000
1000
0000
0020
0000
0130
0000
,
0001
0000
0100
0010
0100
0000
0001
0000
2000
0000
3200
0000
2300
0000
0000
0000
,
3010
0000
0000
0010
0100
0000
0001
0000
1000
0000
0001
0000
0010
0000
0100
0000
,
1000
0000
0100
0010
0100
0000
1000
0000
0001
0000
0100
0000
0001
0010
0001
0010
,
0100
0000
1000
0000
0001
0000
1000
0000
0010
0000
0000
0100
0000
0000
1010
0000
,
0000
1000
0001
0010
0100
1000
0100
0010
,
0000
0011
0000
0101
0000
1100
0000
1010
,
0000
0000
0010
0100
0010
0000
1000
0000
0001
0000
0010
0000
0200
0000
0000
0000
,
1300
0000
1000
0100
1000
0000
1100
0000
0000
1001
0000
0000
0101
0000
0001
0000
,
0001
0100
0001
0000
0000
0011
0000
0000
1010
0000
1000
0000
0001
1000
0001
0100
,
0020
0000
0000
0000
,
0030
0000
0000
0000
,
1000
0000
0100
0010
0000
0010
0001
1000
0001
0000
0100
0010
0000
0010
1000
0001
,
1000
0100
0000
1000
0001
0000
0100
0001
0100
0000
0110
0000
1001
0000
0000
0000
,
0002
0000
0100
0100
,
1003
0100
0010
0000
0001
1000
0100
0000
,
0001
0100
0010
0000
1000
0010
0100
0000
,
0001
0000
0010
0100
0000
0000
0010
0000
0110
0000
0000
0000
1001
0000
0000
0000
,
1000
0000
0000
0100
0000
0010
0000
0100
0000
0000
1000
0000
0001
0000
0000
0001
,
0000
0100
0000
0010
0000
0000
0100
0000
0001
0000
0000
0010
0000
0100
0000
1000
,
0001
0000
0000
1000
0000
0010
0000
1000
0000
0000
0001
0000
0010
0000
0000
0100
,
0000
0010
0000
0001
0000
0000
1000
0001
1000
0000
0000
0000
0110
0000
0000
0000
,
1000
0000
0001
0000
0010
0000
0001
0000
1000
0000
0000
0101
0000
0000
1000
0000
,
0000
1000
0100
0000
0010
0000
0100
0000
1000
0000
0000
1100
0000
0000
0011
0000
,
0001
0000
1000
0000
0010
0000
1000
0000
0001
0000
0000
1100
0000
0000
0001
0000
,
0000
0001
0100
0000
0010
0000
0100
0000
0001
0000
1000
0000
0200
0000
0000
0000
,
1300
0000
0000
0000
1001
0000
0000
0000
0001
0000
0100
0010
0000
0010
0100
0001
,
1000
0000
1000
0000
0100
0000
0010
0000
0100
0000
0000
0100
1000
0000
0001
0000
,
0010
0000
0011
0000
0000
1000
0000
0000
1100
0000
0000
0001
0000
0000
0101
0000
,
1000
0000
0001
0000
0100
0000
0010
0000
1000
0000
0000
1000
0001
0000
0100
0000
,
0110
0000
0000
0000
,
0000
0000
0000
0000
,
1000
0100
0010
0100
1000
0001
0100
0001
,
1000
0000
0100
0000
0010
0100
0000
0100
1000
0001
1000
0000
0020
0000
0000
0000
,
0130
0000
0000
0101
0000
0000
0201
0000
0310
0000
1000
0000
0100
0000
0000
1100
,
0000
0000
1200
0000
0310
0000
0001
0000
1000
0010
0000
0010
0000
0010
0100
0001
,
1000
0000
0000
1010
0000
0000
1001
0000
0001
0000
0000
0011
0000
0000
1001
0000
,
1000
0010
0100
0001
1000
0100
0020
0000
0000
0030
0000
0000
,
0100
0000
1000
0000
0100
0000
0010
0000
0100
0000
1000
0000
0001
1000
0001
0020
,
0000
0000
0031
0000
0100
0000
0010
0000
0100
0000
0001
0000
1000
0001
1000
0000
,
0010
0000
1000
0000
0010
0000
0100
0000
0010
0000
1000
0000
0001
0010
0100
0020
,
0000
0000
0031
0000
0010
0000
1000
0000
0010
0000
0001
0000
1000
0010
0100
0000
,
0001
0000
0100
0000
0010
0000
1000
0000
0001
0000
0100
0000
0001
1000
0001
0020
,
0000
0000
0031
0000
1000
0000
0100
0000
0010
0000
0001
0000
1000
0001
1000
0000
,
1000
0000
0100
0000
0010
0000
0001
0000
1000
0000
0100
0000
1000
0001
1000
0020
,
0000
0000
0130
0000
0100
0000
0010
0000
0010
0100
0010
0100
0002
0000
0000
0000
,
1003
0000
0100
0000
0010
0000
0100
0000
1000
0000
0001
0000
0010
0000
0100
0010
,
0001
0000
0001
0000
1000
0000
0001
0000
0100
0000
0010
0000
1000
0001
0100
0010
,
0100
0000
0001
0000
0100
0000
1000
0000
0100
0000
0010
0000
1000
0000
0001
1000
,
0010
0000
0010
0000
1000
0000
0001
0000
0010
0000
0100
0000
0010
0100
0010
0001
,
1000
0000
0100
0000
0001
0000
0100
0000
1000
0000
0100
0000
0001
0000
0100
0010
,
0001
0000
0100
0000
1000
0000
0100
0000
0001
0000
0100
0000
0010
0100
0010
0100
,
0001
0100
0001
0100
0001
1000
0001
1000
0100
1000
0100
1000
0100
0010
0100
0010
,
0100
0000
0100
1000
0001
0000
0100
0001
1000
0000
0000
1001
0000
0000
1000
0001
,
0020
0000
0000
0000
0130
0000
0000
0000
1100
0000
0000
0011
0000
0000
0110
0000
,
0000
0000
1001
0000
0001
0000
0000
0000
0101
0000
0000
1010
0000
0000
0010
0100
,
0001
0000
1000
0000
0100
0000
0010
0000
0001
1000
0010
0100
0000
0000
0220
0000
,
0330
0000
0000
1001
0000
0000
0000
0000
;

//---------------dance-single - ----------------
#NOTEDATA:;
#CHARTNAME:;
#STEPSTYPE:dance-single;
#DESCRIPTION:;
#CHARTSTYLE:;
#DIFFICULTY:Medium;
#METER:11;
#RADARVALUES:0.433995,0.475282,0.236532,0.325232,0.162616,411.000000,379.000000,32.000000,44.000000,0.000000,0.000000,0.000000,0.000000,0.000000,0.433995,0.475282,0.236532,0.325232,0.162616,411.000000,379.000000,32.000000,44.000000,0.000000,0.000000,0.000000,0.000000,0.000000;
#CREDIT:;
#DISPLAYBPM:152.000000;
#NOTES:
0000
0000
0000
0000
,
0000
0000
0000
0000
,
0000
0000
0000
0000
,
0000
0000
1000
0000
0000
0001
0000
0000
0100
0000
0000
0010
0000
0000
1000
0000
,
0002
0000
0000
0000
0010
0000
0000
0000
1003
0000
0000
0001
0000
0000
1000
0000
,
0000
0000
2000
0000
0010
0000
0000
0000
3001
0000
0000
1000
0000
0000
1000
0000
,
0002
0000
0000
0000
0100
0000
0000
0000
1003
0000
0000
0001
0000
0000
0010
0000
,
0000
0000
0002
0000
0000
0203
0000
0000
2300
0000
0000
3200
0000
0000
0302
0000
,
1003
0000
0000
0000
1100
0000
0000
0000
0110
0000
0000
1100
0000
0000
1000
0000
,
0001
0000
0101
0000
0001
0100
0020
0000
,
1030
0000
0000
0000
0101
0000
0000
0000
0110
0000
0000
0101
0000
0000
0001
0000
,
1000
0000
1100
0000
0100
1000
2000
0000
,
3001
0000
0000
0100
0000
0000
0010
0000
0000
0100
0000
0000
1000
0000
0000
0100
,
0000
0010
1000
0001
0010
0100
0010
0001
,
2000
0000
0000
0001
3002
0000
0003
0000
,
1000
0000
0100
0000
0010
0001
0010
0001
,
0000
0001
0100
0000
0010
1000
0010
0000
,
1000
0000
0100
0000
0010
0001
0010
0001
,
0000
0001
0100
0000
0001
1000
0010
0000
,
1001
0000
0000
1100
0000
0000
0101
0000
,
0000
1001
0000
0100
2000
0000
3001
0000
,
1001
0000
0000
0011
0000
0000
1010
0000
,
0000
1001
0000
0010
0002
0000
1003
1000
,
0001
0000
0100
0000
0001
1000
0010
0000
,
1000
0001
1000
0100
0010
0000
0110
0000
,
1000
0000
0100
0000
1000
0001
0010
0000
,
0001
1000
0010
0000
0010
0100
0002
0000
,
1003
0100
1000
0100
0000
0010
0001
0010
,
0000
0001
0100
0001
0000
1000
0010
0100
,
0000
0101
0000
1001
0000
1100
0000
1001
,
0000
1000
0100
0010
0001
0010
0200
0000
,
1300
0000
0000
0000
0001
0000
1000
0000
0000
0010
0000
0000
1000
0000
0000
0000
,
1000
0000
0001
0000
0000
0010
0000
0000
0001
0000
0000
0000
0200
0000
0000
0000
,
0320
0000
0000
0000
,
0030
0000
0000
0000
,
1000
0010
0100
0000
0001
0010
0100
0000
,
1000
0000
0000
0001
0000
0000
0001
0000
1000
0000
0000
0000
1001
0000
0000
0000
,
0002
0000
0100
0100
,
0103
0001
1000
0001
,
0100
0010
1000
0010
,
0100
0001
1000
1000
,
1000
0000
0000
1000
0000
0100
0000
1000
0000
0000
1000
0000
0001
0000
0000
1000
,
0000
0100
0000
1000
0000
0000
0100
0000
1000
0000
0000
0010
0000
0100
0000
0100
,
0001
0000
0000
0001
0000
0100
0000
0001
0000
0000
0001
0000
1000
0000
0000
0001
,
0000
0100
0000
0001
0000
0000
0100
0000
0020
0000
0000
0000
0130
0000
0000
0000
,
2000
0100
0001
0100
,
0010
0000
0100
0000
0001
0000
3010
0001
,
0002
0100
1000
0100
,
0010
0100
1000
0013
,
1001
0000
1001
0000
1000
0100
0010
0000
,
0001
0000
1000
0000
0001
0100
0010
0000
,
0100
0001
0100
0000
0010
1000
0010
0000
,
1000
1010
0001
0011
,
1001
0000
0000
0000
,
0000
0000
0000
0000
,
2000
3200
0320
0032
,
0203
0320
2030
3001
,
1000
0000
0000
0100
0000
0000
0100
0000
1000
0000
0001
0000
0001
0000
0000
0100
,
0000
0000
0100
0000
0001
0000
1000
0000
0100
0000
0000
0010
0000
0000
0010
0000
,
0001
0000
0000
1000
0000
0000
0010
0000
1000
0000
0000
0001
0000
0000
0010
0000
,
0100
0000
1000
0001
0000
0001
0200
0000
0000
0300
0000
0000
,
0001
0000
0100
0000
1000
0000
0000
0000
1000
0000
0100
0000
0001
0000
0000
1000
,
0000
0001
0010
0000
1000
0010
0001
0000
,
1000
0000
0010
0000
0001
0000
0000
0000
0001
0000
0010
0000
1000
0000
0000
0001
,
0000
1000
0100
0000
0001
0100
1000
0000
,
0001
0000
0100
0000
0010
0000
0000
0000
0010
0000
1000
0000
0100
0000
0000
0010
,
0000
0100
1000
0000
0010
0100
0001
0000
,
1000
0000
0100
0000
0010
0000
0000
0000
0010
0000
0001
0000
0100
0000
0000
0010
,
0000
0100
0001
0000
0010
0100
2000
0000
,
3002
0000
0100
0000
0010
0000
0103
0010
,
2000
0000
0100
0000
0010
0000
3100
0010
,
0002
0000
0203
0000
0320
0000
1030
0010
,
0200
0000
1000
0000
0301
1000
0100
1000
,
0002
0010
2003
0010
,
3002
0000
0100
0000
1003
0200
0000
0000
,
0310
0001
1000
0001
0100
0001
1000
0020
,
0000
0000
0030
0000
1000
0001
1000
0000
,
1001
0000
0000
0000
1000
0000
0000
0000
0100
0000
0000
0010
0000
0000
0110
0000
,
0000
0000
0010
0000
0001
0000
0000
0000
1000
0000
0000
0001
0000
0000
0000
0000
,
1001
0000
0000
0000
0001
0000
0000
0000
0100
0000
0000
0010
0000
0000
0220
0000
,
0330
0000
0000
1001
0000
0000
0000
0000
;

//---------------dance-single - ----------------
#NOTEDATA:;
#CHARTNAME:;
#STEPSTYPE:dance-single;
#DESCRIPTION:;
#CHARTSTYLE:;
#DIFFICULTY:Easy;
#METER:7;
#RADARVALUES:0.274547,0.356462,0.133050,0.206966,0.018479,260.000000,242.000000,18.000000,28.000000,0.000000,0.000000,0.000000,0.000000,0.000000,0.274547,0.356462,0.133050,0.206966,0.018479,260.000000,242.000000,18.000000,28.000000,0.000000,0.000000,0.000000,0.000000,0.000000;
#CREDIT:;
#DISPLAYBPM:152.000000;
#NOTES:
0000
0000
0000
0000
,
0000
0000
0000
0000
,
0000
0000
0000
0000
,
0000
0000
0000
0000
,
1001
0000
0000
0000
0000
0000
0000
0101
,
0000
1100
0000
0000
0000
0000
0000
0000
,
0110
0000
0000
0000
0000
0000
0000
1001
,
0000
0000
1000
0000
0000
0100
0000
0000
0010
0000
0000
0001
0000
0000
1000
0000
,
0001
0001
0100
0100
,
0010
0010
2000
3000
,
1000
1000
0100
0100
,
0010
0010
0000
1001
,
1100
0000
0000
0110
0000
0000
0011
0000
,
0000
0101
0000
0000
0100
0000
0010
0000
,
2000
0000
3002
0003
,
1000
0100
0010
0100
,
1000
0100
0010
0010
,
0001
0100
0010
0100
,
0001
0100
0010
1000
,
0002
0003
0020
0030
,
2000
3000
0010
0001
,
2000
3000
0020
0030
,
0002
0003
0010
0100
,
0001
1000
0010
1000
,
0100
1000
0001
0001
,
1000
0001
0010
0001
,
0100
0001
1000
0020
,
1030
1000
0001
0001
,
0010
0001
1000
0010
,
1000
1000
0001
0001
,
0100
0001
1000
0100
,
1000
0000
0000
1000
0000
0000
0001
0000
,
0000
0001
0000
0000
1000
0000
0100
0000
,
0020
0000
0000
0000
,
0030
0000
0000
0000
,
0001
0100
0010
1000
,
0100
0010
0200
0300
,
1001
0000
0000
0000
,
0001
0000
0100
0001
,
0100
0000
0010
0100
,
0010
0000
1000
1000
,
1000
0000
1000
0100
,
1000
0000
1000
0001
,
1000
0000
1000
0010
,
0100
0000
0100
0010
,
1000
0000
1000
0000
,
0001
0000
0001
0000
,
0010
0000
0010
0000
,
0100
0000
0100
0200
,
1300
1000
0100
0100
,
1000
0001
1000
0100
,
0010
0010
0001
0001
,
1000
0010
1000
0001
,
1001
0000
0000
0000
,
0000
0000
0000
0000
,
1000
0100
1000
0001
,
0010
0001
1000
0010
,
1000
0000
0000
1000
0000
0000
2000
0000
3000
0000
0000
0000
0001
0000
0000
0001
,
0000
0000
0002
0000
0003
0000
0000
0000
1000
0000
0000
0001
0000
0000
1000
0000
,
0100
0100
0010
0010
,
0100
1000
0002
0003
,
1000
0100
0001
1000
,
0001
0100
1000
0001
,
1000
0010
0001
1000
,
0001
0010
1000
1000
,
0001
0010
1000
0001
,
1000
0010
0001
1000
,
0001
0100
1000
0001
,
1000
0100
0002
0003
,
1000
0010
1000
0100
,
0010
0001
0100
0001
,
1000
0010
0100
0010
,
1000
0001
0010
0100
,
0020
0032
2003
3200
,
2300
3020
0230
0302
,
0023
0000
0000
0030
,
0100
0100
0100
0110
,
1001
0000
0000
0000
0000
0000
0000
0101
,
0000
1100
0000
0000
0000
0000
0000
0000
,
0110
0000
0000
0000
0000
0000
0000
2002
,
3003
0000
0000
0100
0000
0000
0000
0000
;

//---------------dance-single - ----------------
#NOTEDATA:;
#CHARTNAME:;
#STEPSTYPE:dance-single;
#DESCRIPTION:;
#CHARTSTYLE:;
#DIFFICULTY:Beginner;
#METER:3;
#RADARVALUES:0.161560,0.207936,0.073916,0.036958,0.000000,153.000000,143.000000,10.000000,5.000000,0.000000,0.000000,0.000000,0.000000,0.000000,0.161560,0.207936,0.073916,0.036958,0.000000,153.000000,143.000000,10.000000,5.000000,0.000000,0.000000,0.000000,0.000000,0.000000;
#CREDIT:;
#DISPLAYBPM:152.000000;
#NOTES:
0000
0000
0000
0000
,
0000
0000
0000
0000
,
0000
0000
0000
0000
,
0000
0000
0000
0000
,
1001
0000
0000
0000
0000
0000
0000
0220
,
0000
0330
0000
0000
0000
0000
0000
0000
,
1001
0000
0000
0000
0000
0000
0000
0110
,
0000
0000
0000
0000
,
0001
0100
0001
0100
,
0001
0100
0000
0000
,
1000
0100
1000
0100
,
1000
0100
0000
0000
,
1000
0000
0000
0001
0000
0000
1000
0000
,
0000
0001
0000
0000
0001
0000
0100
0000
,
0010
0000
0010
0000
,
1000
0000
1000
0000
,
0100
0000
0100
0000
,
1000
0000
1000
0000
,
0100
0000
0100
0010
,
0001
0000
0100
0000
,
0001
0000
1000
0000
,
0001
0000
0010
0000
,
0001
0000
1000
0000
,
0001
0000
0001
0000
,
0100
0000
0100
0000
,
0001
0000
0001
0000
,
0100
0000
0100
0010
,
1000
0000
0000
0000
,
0001
0000
0000
0000
,
1000
0000
0000
0000
,
0000
0001
0001
0001
,
1000
0000
0000
0100
0000
0000
0010
0000
,
0000
0001
0000
0000
0001
0000
0100
0000
,
0020
0000
0000
0000
,
0030
0000
0000
0000
,
0000
0000
0000
0000
,
0110
0000
0000
0000
,
1001
0000
0000
0000
,
1000
0000
0000
1000
,
0100
0000
0000
0010
,
0001
0000
0000
0000
,
1000
0000
0000
0000
,
0100
0000
0000
0000
,
0001
0000
0000
0000
,
0100
0000
0000
0000
,
1000
1000
0000
0000
,
0001
0001
0000
0000
,
1000
1000
0000
0000
,
0001
0001
0000
0000
,
1000
0000
1000
0000
,
0010
0000
0010
0000
,
0100
0000
0100
0000
,
0001
0000
0001
0000
,
1001
0000
0000
0000
,
0000
0000
0000
0000
,
0000
0000
0000
0000
,
0000
0000
0000
1001
,
0001
0000
0001
0100
,
0000
0100
0010
0000
,
1000
0000
1000
0000
,
0001
1000
0001
0000
,
1000
0000
1000
0000
,
0100
0000
0100
0000
,
0010
0000
0010
0000
,
0001
0000
1000
0000
,
0001
0000
0001
0000
,
0100
0000
0100
0000
,
0010
0000
0010
0000
,
1000
0000
0001
1000
,
0100
0000
0100
0000
,
1000
0000
1000
0000
,
0010
0000
0010
0000
,
1000
0000
1000
0001
,
0100
0000
0100
0000
,
0001
0000
0001
0000
,
0010
0000
0010
0000
,
0001
1000
1000
0001
,
0010
0000
0000
0000
0000
0000
0000
0220
,
0000
0330
0000
0000
0000
0000
0000
0000
,
1001
0000
0000
0000
0000
0000
0000
0010
,
0000
0000
0000
0100
0000
0000
0000
0000
;

//---------------dance-single - ----------------
#NOTEDATA:;
#CHARTNAME:;
#STEPSTYPE:dance-single;
#DESCRIPTION:;
#CHARTSTYLE:;
#DIFFICULTY:Challenge;
#METER:16;
#RADARVALUES:0.834199,0.920860,0.510023,0.206966,0.927651,790.000000,721.000000,69.000000,28.000000,0.000000,0.000000,0.000000,0.000000,0.000000,0.834199,0.920860,0.510023,0.206966,0.927651,790.000000,721.000000,69.000000,28.000000,0.000000,0.000000,0.000000,0.000000,0.000000;
#CREDIT:;
#DISPLAYBPM:152.000000;
#NOTES:
// measure 0
0000
0000
0000
0000
,  // measure 1
0000
0000
0000
0000
,  // measure 2
0000
0000
0000
0000
,  // measure 3
0000
0000
1100
0000
0000
1001
0000
0000
0011
0000
0000
0110
0000
0000
1001
0000
,  // measure 4
0001
0000
0100
0001
0100
0000
0001
0000
1000
0000
0010
1000
0000
1000
0100
1000
,  // measure 5
0000
0000
1100
0000
0100
0000
1000
0000
0001
0000
0010
0001
0000
0001
0100
0001
,  // measure 6
1000
0000
0010
0100
0010
0000
1000
0000
0001
0000
0010
0100
0010
0001
0010
0100
,  // measure 7
0000
0000
1100
0000
0000
0110
0000
0000
0101
0000
0000
0110
0000
0100
1000
0001
,  // measure 8
1000
0000
0001
0000
0101
0000
0001
0000
0011
0000
0001
1000
0000
1000
0010
0100
,  // measure 9
0001
0000
1000
0000
1100
0000
1000
0010
2000
0000
3002
0000
0023
0000
0000
0000
,  // measure 10
0031
0000
0010
0000
0110
0000
0010
0000
0011
0000
0001
1000
0000
1000
0010
0100
,  // measure 11
0001
0100
0110
0200
0000
0310
1001
0000
,  // measure 12
0101
0000
0000
0011
0000
0000
1010
0000
0000
1100
0000
0000
0011
0000
0000
1010
,  // measure 13
0000
0000
0101
0000
0110
0000
1010
0000
1000
0000
0001
0000
0100
0001
0100
0010
,  // measure 14
2000
0000
0000
0100
0002
0000
3003
0000
,  // measure 15
1000
0000
0000
1000
0100
0000
0010
0000
0001
0000
0010
0000
1000
0000
0010
0000
,  // measure 16
0001
0000
0001
0100
0010
0000
0100
0000
0001
0000
0100
0000
1000
0000
0100
0000
,  // measure 17
0010
0000
0000
0010
1000
0000
0001
0000
0010
0000
0100
0000
1000
0000
0100
0000
,  // measure 18
0010
0000
0010
0001
1000
0000
0001
0000
0100
0000
0100
0000
0020
0000
0000
0000
,  // measure 19
1030
0000
0100
1000
0010
0000
0100
0000
0100
0001
0010
0000
0100
0000
0100
1000
,  // measure 20
0010
0000
0100
0000
0100
0001
0010
0000
1000
0000
0010
0000
0001
0000
1000
0000
,  // measure 21
0001
0000
0100
0001
0010
0000
0100
0000
0100
1000
0010
0000
0100
0000
0110
0000
,  // measure 22
0000
0000
0010
1000
0001
0000
0010
0001
1000
0000
0100
0000
0010
0100
0010
0100
,  // measure 23
1000
0000
0000
1000
0001
0000
0100
0000
0010
0000
0100
0000
2000
0000
3100
0000
,  // measure 24
0001
0000
1000
0100
1000
0000
0001
0010
0002
0000
1003
0000
0002
0000
1003
0000
,  // measure 25
0100
0000
0010
0100
1000
0000
0100
0010
0001
0000
0010
0000
2000
0000
3010
0000
,  // measure 26
0001
0000
0000
0001
0100
0000
0010
0000
1000
0000
0000
1000
0010
1000
0001
1000
,  // measure 27
0100
0010
0100
0010
0000
0001
0010
0001
0000
1000
0001
1000
0010
0000
0010
0000
,  // measure 28
1000
0100
1000
0100
0000
0010
0100
0010
0000
0010
0001
1000
0001
0100
0001
0000
,  // measure 29
1000
0010
1000
0010
0000
0100
0010
0100
0000
0001
0100
0001
0100
0000
0010
0000
,  // measure 30
1000
0000
0000
1000
0001
0000
0000
0001
0010
0000
0000
0010
0100
1000
0100
0010
,  // measure 31
0001
0000
0010
0100
0010
0100
1000
0000
0000
0110
0000
0000
1001
0000
0001
0100
,  // measure 32
0010
1000
0010
0000
0000
0110
0000
0000
1001
0000
0001
0000
0100
0001
1000
0100
,  // measure 33
0020
0000
0000
0000
,  // measure 34
0030
0000
0000
0000
,  // measure 35
0001
1000
0100
0010
0001
1000
0010
0100
0010
1000
0001
0010
0100
1000
0001
0100
,  // measure 36
0001
1000
0000
1000
0001
0000
0100
0001
1000
0000
0100
0000
0120
0000
0000
0000
,  // measure 37
0230
0000
0010
0310
,  // measure 38
1000
0000
0000
0100
0000
0010
0100
0000
0000
1000
0000
0000
0001
0000
0000
0010
0000
0000
0100
0000
1000
0001
0000
0000
,  // measure 39
0001
0000
0000
0100
0000
0010
0100
0000
0000
0001
0000
0000
0010
0000
0000
1000
0000
0000
0010
0000
0001
1000
0000
0000
,  // measure 40
0001
0000
0000
0100
0000
0001
0100
0000
0000
0010
0000
1000
0010
0000
0000
0100
0000
0000
1001
0000
0000
0000
0000
0000
,  // measure 41
1000
0000
1000
0100
0000
0010
0000
0100
0000
0000
1000
0001
1000
0000
0001
0100
,  // measure 42
0000
0010
0000
0100
0000
0000
0100
0001
0010
0000
0010
0100
0000
0010
0000
0010
,  // measure 43
0001
0000
0001
0100
0000
0010
0000
0100
0000
0000
0001
1000
0001
0000
1000
0100
,  // measure 44
0000
0010
0000
0100
0000
0000
0100
1000
0010
0000
0000
0100
0001
0000
1000
0000
,  // measure 45
1100
0000
0100
0000
0110
0000
1000
0000
1001
0000
0001
0100
0000
0100
0001
1000
,  // measure 46
0000
1000
0010
0000
0100
0010
0100
0010
1000
0000
1000
0010
0000
1000
0001
0000
,  // measure 47
0101
0000
0100
0000
0110
0000
0001
0000
1001
0000
1000
0100
0000
0100
1000
0001
,  // measure 48
0000
0001
0010
0000
0100
1000
0100
1000
0001
0000
1000
0001
0020
0000
0000
0000
,  // measure 49
0031
0000
0000
0000
1001
0000
0000
0000
1000
0000
0100
1000
0001
0000
0100
0001
,  // measure 50
1000
0000
0001
0100
0000
0100
0010
0000
1000
0000
0100
0010
0000
0010
0100
1000
,  // measure 51
0001
0010
0001
0010
0100
1000
0100
1000
0010
1000
0010
1000
0000
1000
0001
1000
,  // measure 52
0001
0100
0001
0100
0001
0010
0001
0010
0100
0000
1000
0100
0000
1000
0001
1000
,  // measure 53
0020
0000
0000
0000
0000
0000
0000
0000
0030
0000
0010
0000
0000
0010
0000
0000
,  // measure 54
0020
0000
0000
0000
0030
0000
0000
0000
0010
0000
0000
1000
0000
0000
0020
0000
,  // measure 55
0000
0000
1030
0000
0001
0000
1000
0000
0100
0000
1000
0000
0010
0100
0010
0100
,  // measure 56
0002
0000
1000
0020
0003
0000
0130
0000
,  // measure 57
1100
0000
0000
0110
0000
0000
1100
0000
0001
0000
1000
0000
0101
0000
0000
0110
,  // measure 58
0000
0000
0101
0000
1000
0000
0001
0000
1000
0100
0000
0010
0000
0010
0001
0000
,  // measure 59
1001
0000
0000
1010
0000
0000
1100
0000
0110
0000
0000
0011
0000
0000
0101
0000
,  // measure 60
0001
0000
0100
0000
1000
0000
0100
0000
0001
0000
0010
0000
1000
0000
0000
0010
0000
0000
1001
0000
0000
0000
0000
0000
,  // measure 61
0001
0000
0100
0000
0010
0000
0100
0001
1000
0001
0100
0000
0001
0100
0010
2000
,  // measure 62
0000
0000
0000
0000
0000
0000
3100
0000
0000
0000
0000
0000
0010
0000
0000
0100
0000
0000
1000
0000
0000
0000
0000
0000
0100
0000
0000
1000
0000
0000
0001
0000
0000
0010
0000
0000
0100
0000
0000
0010
0000
0000
0001
0000
1000
0000
0001
0000
,  // measure 63
1000
0000
0000
0010
0000
0000
0100
0000
0000
0000
0000
0000
0001
0000
0000
0100
0000
0000
0010
0000
0000
0000
0000
0000
1000
0000
0000
0001
0000
0000
1000
0000
0000
0001
0000
0000
0010
0000
0001
0000
0010
0000
0200
0000
0000
0000
0000
0000
,  // measure 64
0000
0000
0000
0000
0000
0000
1300
0000
0000
0000
0000
0000
1100
0000
0000
0000
0000
0000
0001
0000
0000
0000
0000
0000
0100
0000
0001
0000
0100
0000
0001
0000
0000
1000
0000
0000
0100
0000
0000
0010
0000
0000
0001
0000
0000
1000
0000
0000
,  // measure 65
0001
0000
0010
0000
0100
0000
0010
0001
1000
0001
0010
0000
0100
1000
0010
0200
,  // measure 66
0000
0000
0000
0000
0000
0000
0301
0000
0000
0000
0000
0000
0100
0000
0000
0010
0000
0000
1000
0000
0000
0000
0000
0000
0010
0000
0000
1000
0000
0000
0001
0000
0000
0010
0000
0000
0100
0000
0000
0010
0000
0000
0001
0000
1000
0000
0001
0000
,  // measure 67
1000
0000
0000
0100
0000
0000
0010
0000
0000
0000
0000
0000
0001
0000
0000
0010
0000
0000
0100
0000
0000
0000
0000
0000
1000
0000
0000
0001
0000
0000
1000
0000
0000
0001
0000
0000
0100
0000
0010
0000
1000
0000
0020
0000
0000
0000
0000
0000
,  // measure 68
0000
0000
1030
0000
1010
0000
0001
0000
0011
0000
0010
0000
0100
1000
0001
1000
,  // measure 69
0010
0000
1000
0100
0010
0000
0100
1000
0010
0000
1000
0100
0001
0000
0100
0000
,  // measure 70
1000
0000
0010
0100
0001
0000
0010
0001
0100
0000
0001
0010
1000
0010
0001
1000
,  // measure 71
0010
0000
0100
0001
1000
0000
0100
1000
0020
0000
0000
0000
0130
0001
1000
0001
,  // measure 72
0010
0000
0100
0000
1000
0000
0001
0000
1000
0000
0100
0010
0100
0000
1000
0001
,  // measure 73
0010
0000
0001
1000
0100
0000
1000
0001
0010
0000
0001
1000
0100
0000
0100
0000
,  // measure 74
1000
0000
0001
1000
0010
0000
1000
0001
0100
0000
0020
0000
0130
0000
0010
0000
,  // measure 75
1000
0010
0100
0001
1000
0100
0010
0100
1000
0001
0100
0010
0100
0010
1000
0001
,  // measure 76
0010
0100
0010
0100
1000
0001
1000
0001
0100
0000
0000
0110
0000
0100
0010
1000
,  // measure 77
0001
0000
0000
0000
1100
0000
0000
0000
0101
0000
0000
0110
0000
0000
1100
0000
,  // measure 78
0000
0000
0110
0000
1010
0000
0000
0000
0011
0000
0000
0110
0000
1000
0100
0010
,  // measure 79
0001
0000
0000
0000
1100
0000
0000
0000
0011
0000
0000
0110
0000
0000
2002
0000
,  // measure 80
0000
3003
0000
0100
0000
0000
0000
0000
;
