#TITLE:Nhelv;
#SUBTITLE:;
#ARTIST:Silentroom;
#TITLETRANSLIT:;
#SUBTITLETRANSLIT:;
#ARTISTTRANSLIT:;
#GENRE:;
#CREDIT:;
#MUSIC:Nhelv.ogg;
#BANNER:Nhelv.png;
#BACKGROUND:Nhelv-bg.png;
#CDTITLE:;
#SAMPLESTART:67.357;
#SAMPLELENGTH:15.000;
#SELECTABLE:YES;
#OFFSET:1.376;
#BPMS:0.000=87.294
,36.000=174.588
,228.000=87.294
,244.000=174.588
,276.000=87.294
,280.000=174.588
,288.000=87.294
,292.000=174.588
;
#STOPS:;
#BGCHANGES:2.000=Nhelv.avi=1.000=0=0=0=StretchNoLoop====,
99999.000=-nosongbg-=1.000=0=0=0=StretchNoLoop====
;
#FGCHANGES:;

//--------------- dance-single - ----------------
#NOTES:
     dance-single:
     :
     Beginner:
     5:
     0,0,0,0,0:
0000
0000
0000
0000
,
0000
0000
0000
0000
,
0000
0000
0000
0000
,
0000
0000
0000
0000
,
0000
0000
0000
0000
,
1000
0000
1000
0000
,
1000
0000
0000
0000
,
0001
0000
0001
0000
,
0001
0000
0000
0000
,
1000
0000
0100
0000
,
1000
0000
0000
0000
,
0001
0000
0010
0000
,
0001
0000
0000
0000
,
1000
0000
0010
0000
,
0100
0000
0000
0000
,
0001
0000
0010
0000
,
0200
0000
0300
0000
,
1000
0000
0100
0000
,
0010
0000
0001
0000
,
1000
0000
0100
0000
,
0010
0000
0001
0000
,
0100
0100
0010
0000
,
0010
0010
0100
0000
,
0001
0001
1000
1000
,
0001
1000
1001
0000
,
1000
0000
0100
0000
,
1000
1000
0010
0000
,
0100
0000
0001
0000
,
0010
0010
0100
0100
,
0010
0000
0001
0000
,
0100
0100
0010
0000
,
1000
0000
0100
0000
,
1000
1000
0001
0001
,
0100
0000
0001
0000
,
0010
0010
0100
0100
,
1000
0000
0001
0000
,
0100
0100
0010
0010
,
1000
0000
0100
0000
,
0010
0010
0001
0000
,
0001
0000
0100
0000
,
0010
0010
1000
0000
,
0001
0000
0100
0000
,
0001
0010
0001
0000
,
0100
0000
0010
0000
,
0110
0000
1001
0000
,
1000
0000
0100
0000
,
1000
0010
1000
0000
,
0001
0000
0100
0000
,
0110
0000
1001
0000
,
1000
1000
0001
0001
,
0100
0000
0010
0000
,
0100
0100
0010
0010
,
0100
0000
0001
0000
,
1000
1000
0100
0000
,
0010
0010
0001
0000
,
1000
1000
0001
0001
,
1000
1000
0001
0001
,
1000
0000
0001
0001
,
0100
0100
0010
0010
,
0100
0000
0001
0001
,
1000
1000
0001
0001
,
0010
0000
0100
0000
,
0010
0010
0001
0000
,
0100
0000
0010
0000
,
1000
1000
0100
0000
,
1000
1000
0010
0000
,
0100
0100
0001
0000
,
1000
1000
0001
0001
,
1000
0000
1001
0000
,
0220
0000
0000
0330
,
1000
0100
0010
0010
,
0001
0010
0100
0000
,
0220
0000
0000
0330
,
1000
0001
0100
0100
,
0001
1000
0100
0100
,
1000
0000
0010
0010
,
0100
0100
0010
0010
,
0100
0000
0001
0001
,
0010
0010
0100
0000
,
2002
0000
3003
0000
,
2002
0000
3003
0000
,
0001
0001
0001
0001
,
1000
1000
1000
1000
,
0010
0000
0000
0000
;

//--------------- dance-single - ----------------
#NOTES:
     dance-single:
     :
     Easy:
     9:
     0,0,0,0,0:
0000
0000
0000
0000
,
0000
0000
0000
0000
,
0000
0000
0000
0000
,
0000
0000
0000
0000
,
0000
0000
0000
0000
,
0010
0000
0100
0000
,
0001
0000
0010
0000
,
0100
0000
1000
0000
,
0010
0000
0100
0000
,
0010
0100
0001
0010
,
0001
1000
0100
0000
,
0010
0100
1000
0010
,
1000
0001
0100
0000
,
0010
1000
0010
1000
,
0100
0010
0001
0000
,
0010
0001
0010
0001
,
2002
0000
0000
3003
,
1000
0010
0100
0100
,
0001
0010
0001
0000
1000
0100
1000
0000
,
0001
0010
0100
0100
,
1000
0100
1000
0000
0001
0010
0001
0000
,
0100
0010
0100
0010
,
1000
0001
1000
0001
,
1000
0100
1000
0000
0001
0100
0001
0000
,
0010
0100
0220
0330
,
1000
0100
1000
0010
,
0100
0001
0100
0000
0010
0000
0100
0000
,
0001
1000
0010
1000
,
0100
0010
0100
0000
0010
0000
0001
0000
,
1000
0010
0100
0001
,
0010
0100
0010
0000
0002
0000
0000
0000
,
1003
0010
0100
0010
,
2000
0001
3010
0110
,
0001
0100
0001
0010
,
0100
1000
0100
0000
0010
0000
0100
0000
,
1000
0001
0010
0001
,
0100
0010
0100
0000
0010
0000
1000
0000
,
0002
0010
1000
0010
,
0103
0100
0010
0010
,
2000
0100
0001
0100
,
3010
0010
0220
0330
,
0001
0001
0010
0010
,
0100
1000
0100
0000
1000
0010
1000
0000
,
0001
0001
0100
0010
,
1000
0010
0100
0001
,
1000
1000
0100
0100
,
0010
0001
0010
0000
0001
0100
0001
0000
,
0100
0010
1000
1000
,
0010
0100
0001
0001
,
1000
0100
0001
0000
0100
0000
1000
0000
,
0010
0100
0110
0000
,
0001
0100
1000
0000
0100
0000
0001
0000
,
0010
0100
0110
0000
,
1000
0000
0010
0000
0100
0010
0100
0000
,
0001
0000
0010
0000
0100
0010
0100
0000
,
1000
0000
0010
0000
0100
0010
0100
0000
,
0001
0000
0010
0000
0100
0010
0100
0000
,
2000
0001
0020
3030
,
0002
1000
0010
0013
,
2000
0001
0200
3300
,
0002
1000
0100
0103
,
0001
0010
0100
0100
,
1000
0010
1000
0000
0001
0100
0001
0000
,
1000
0010
0100
0100
,
0001
0100
0001
0000
1000
0010
1000
0000
,
0100
0010
0100
0010
,
0001
1000
0001
1000
,
0001
0100
0001
0000
1000
0100
1000
0000
,
0010
0100
0220
0330
,
0002
0000
0000
0000
0000
0000
0000
1000
,
1003
0010
0100
0000
0001
0010
0100
0000
,
0010
0001
0100
0000
0010
0100
0010
0000
,
2000
3200
0000
0320
,
0031
0100
0001
0100
0010
0100
0010
0000
,
1000
0100
1000
0100
0010
0100
0010
0000
,
0001
0100
0001
0010
,
0001
0100
1000
0000
0100
0000
0001
0000
,
1000
0100
1000
0010
,
1000
0100
0001
0000
0100
0000
1000
0000
,
2002
0000
0000
3003
,
0220
0000
0000
0330
,
1000
0000
0000
1000
0000
0000
0001
0000
0000
0001
0000
0000
0100
0000
0000
0010
,
0000
1000
0000
0000
0100
0000
0000
0001
0000
0100
0000
0000
2000
0000
0000
0002
,
0000
0000
0000
0000
,
3003
0000
0000
0000
;

//--------------- dance-single - ----------------
#NOTES:
     dance-single:
     :
     Medium:
     14:
     0,0,0,0,0:
0000
0000
0000
0000
,
0000
0000
0000
0000
,
0000
0000
0000
0000
,
0000
0000
0000
0000
,
0000
0000
0000
0000
,
1000
0000
1000
0000
0000
0110
0000
0001
0001
0000
0001
0000
0000
0110
0000
1000
,
0100
0000
0100
0000
0011
0000
0000
0000
0001
0000
0100
0000
0000
1010
0000
0000
,
0010
0000
0100
0000
0110
0001
0000
0001
0001
0000
0010
0000
0110
1000
0000
1000
,
1000
0000
1100
0000
0000
0000
0000
0000
0001
0000
0101
0000
0000
0010
0010
1000
,
0001
0000
0010
0001
0010
0001
0100
0010
,
1000
0000
0100
0001
0100
1000
0000
0010
,
0100
0000
0010
1000
0100
1000
0100
0010
,
0001
0000
0000
0000
0100
0000
0001
1000
0000
0001
1000
0000
0100
0000
0100
0000
,
1000
0000
0010
1000
0010
1000
0100
0010
,
0001
0000
0100
1000
0100
0001
0000
0010
,
0100
0000
0010
0001
0100
0001
0100
0010
,
1000
0000
0000
0000
0200
0000
0000
0010
0000
0310
0000
0001
2000
0000
0000
0000
,
3001
0100
0000
0001
0100
0000
0010
0000
1000
0000
0001
0000
0100
0000
0001
0000
,
1000
0100
0000
1000
0100
0000
0010
0000
0001
0000
1000
0000
0001
0000
0100
0000
,
0010
1000
0000
0010
1000
0000
0100
0000
0010
0000
0001
0000
0100
0000
0010
0000
,
0100
0001
0000
0100
0001
0000
0010
0000
0100
0000
0100
0000
0010
0000
0010
0000
,
0100
1000
0100
1000
0001
0010
0001
0100
,
0010
1000
0010
1000
0001
0100
0001
1000
,
0010
0100
0001
0000
1000
0000
0010
0000
1000
0100
0010
0000
0001
0000
0100
0000
,
0001
0010
0001
1000
0010
1000
0020
0000
0000
0000
0000
0000
,
1030
0000
0100
0000
0010
0000
0100
0000
1000
0000
0100
0000
0010
0000
0000
0001
,
0100
0000
0010
0000
0100
0000
0001
0010
0000
0100
0010
0000
0001
0000
0100
0000
,
0010
0000
1000
0000
0001
0000
1000
0000
0010
0000
1000
0000
0001
0000
0000
0010
,
0100
0000
1000
0000
0010
0100
0010
0000
1000
0000
0100
0000
0010
0000
0000
0001
,
0100
0010
0100
0001
1000
1000
0100
0010
,
0001
0000
0001
0000
0100
0000
0020
0000
0000
0000
1030
0000
0001
0000
1000
0001
,
1000
0000
0100
0000
0010
0000
0001
0000
0010
0000
0100
0000
0010
0000
0000
0001
,
0100
0000
0010
0000
0100
0000
0010
0000
1000
0001
1000
0000
0001
1000
0001
0000
,
0010
0000
0001
0000
0100
0000
0001
0000
0010
0000
0001
0000
0100
0000
0000
0010
,
1000
0000
0100
0000
1000
0000
0010
0100
0000
0001
0100
0000
0010
0000
1000
0000
,
0100
0000
0010
0000
0001
0000
0010
0000
0100
0000
0010
0000
0001
0000
0000
0100
,
0010
0000
1000
0000
0100
0000
0001
0000
0100
0000
1000
0000
0100
0010
0100
0010
,
0100
0000
0000
0000
0020
0000
0000
0032
0000
2003
0000
0000
0000
0000
0000
3020
,
0100
0000
0000
0100
0000
0000
0230
0000
0000
0000
0310
0000
1000
0001
1000
0000
,
1001
0000
0000
0000
0002
0000
0023
0000
0000
0230
0000
0000
0000
0000
0000
0310
,
0002
0000
0000
1000
0000
0000
1000
0000
1003
0100
1000
0000
0001
0100
0001
0000
,
1000
0000
0010
0000
0100
0000
0010
0000
0001
0000
0010
0000
1000
0000
0000
0001
,
0100
0000
0010
0000
0100
0000
1000
0000
0100
0000
0001
0000
1000
0000
0000
0100
,
0010
0001
0100
0001
0010
0010
0100
1000
,
0010
0000
0010
0000
0100
0000
0001
0000
0010
0000
0010
0000
0010
0000
0000
0100
,
0010
0000
0001
0000
0010
0000
1000
0000
0010
0000
0001
0000
1000
0000
0000
0100
,
1000
0000
0010
0000
1000
0000
0010
0000
0001
0000
0010
0000
1000
0000
0000
0001
,
0100
0100
0010
1000
0100
0100
0010
0001
,
0100
0001
0100
0000
0010
0100
0010
0000
1000
0010
1000
0000
0001
0000
0010
0000
,
0001
0100
0010
1000
0100
0001
0100
1000
,
0001
0000
0010
0000
0100
0000
1000
0100
0000
0010
0001
0000
1001
0000
0000
0000
,
1000
0100
0010
0001
0100
1000
0100
0001
,
1000
0000
0010
0000
0100
0000
0001
0100
0000
0010
1000
0000
1001
0000
0000
0000
,
0002
0000
0103
0020
0000
0130
0002
0000
,
1003
0100
1000
0000
0001
0100
0001
0000
,
1000
0100
0010
0001
0100
0010
1000
1000
,
0001
0000
0100
0000
0001
0000
0010
0000
0001
0000
0100
0000
0001
1000
0001
1000
,
0002
0000
0000
0203
0000
0000
2300
0000
0000
3002
0000
0010
0013
0000
1010
0000
,
2000
0000
0000
3200
0000
0000
0302
0000
0000
2003
0000
0010
3010
0000
0011
0000
,
0201
0000
0000
2300
0000
0000
3200
0000
0000
0302
0000
0010
0013
0000
0110
0000
,
1200
0000
0000
0302
0000
0000
0203
0000
1300
0010
1000
0010
0100
0001
0100
0001
,
1000
0100
0000
1000
0100
0000
0010
0000
0001
0000
1000
0000
0100
0000
1000
0000
,
0001
0100
0000
0001
0100
0000
0010
0000
1000
0000
0001
0000
1000
0000
0100
0000
,
0010
0001
0000
0010
0001
0000
0100
0000
0010
0000
1000
0000
0100
0000
0010
0000
,
0100
1000
0000
0100
1000
0000
0010
0000
0100
0000
0100
0000
0010
0000
0010
0000
,
0100
0001
0100
0001
1000
0010
1000
0100
,
0010
0001
0010
0001
1000
0100
1000
0001
,
0010
0100
1000
0000
0001
0000
0010
0000
0001
0100
0010
0000
1000
0000
0100
0000
,
2000
3002
0023
0000
,
0230
0000
0000
0000
0000
0000
0000
0000
0000
0000
0000
0000
0000
0010
0310
0001
,
1000
0100
0000
1000
0100
0000
0010
0000
0001
0000
1000
0000
0010
0000
1000
0000
,
0001
0100
0000
0001
0100
0000
0010
0000
1000
0000
0001
0000
1000
0000
0100
0000
,
0020
0000
0000
0000
0032
0000
0000
0000
2003
0000
0000
0000
0001
0001
3001
0000
,
0001
0100
0010
1000
0010
0000
0100
0000
0010
0000
1000
0000
0001
0000
0000
0000
,
1000
0100
0010
0001
0010
0000
0100
0000
1000
0000
0001
0000
0100
0000
0010
0000
,
1000
0100
0010
0001
0100
1000
0100
0001
,
1000
0000
0010
0000
0100
0000
0001
0100
0000
0010
1000
0000
0001
0000
0010
0000
,
0001
0100
0010
1000
0100
0001
0100
1000
,
0001
0000
0010
0000
0100
0000
1000
0100
0000
0010
0001
0000
1000
0000
0010
0100
,
0020
1000
0100
1000
,
0230
0001
0010
0301
,
1000
0000
0000
1100
0000
0000
0001
0000
0000
0101
0000
0000
1000
0000
0000
0100
,
0000
1000
0000
1000
0010
0000
1000
0010
0000
0100
0000
0100
0001
0000
0100
0002
,
0000
0000
0000
0000
,
0003
0000
0000
0000
;

//--------------- dance-single - ----------------
#NOTES:
     dance-single:
     :
     Hard:
     17:
     0,0,0,0,0:
0000
0000
0000
0000
,
0000
0000
0000
0000
,
0000
0000
0000
0000
,
0000
0000
0000
0000
,
0000
0000
0000
0000
,
1000
0000
0000
0000
1000
0000
0000
0000
1100
0000
0010
0000
0000
0000
0010
0000
0001
0000
0000
0000
0001
0000
0000
0000
0101
0000
0010
0000
0000
0000
0000
0010
,
1000
0000
1000
0000
0110
0000
0000
0000
0001
0000
0001
0000
1000
1000
0000
1000
,
0001
0000
0000
0000
0100
0000
0000
0000
0110
0000
1000
0000
0000
0000
1000
0000
0001
0000
0000
0000
0001
0000
0000
0000
0110
0000
1000
0000
0000
0000
0000
1000
,
0100
0000
0000
0000
0010
0000
0000
0000
0011
0000
0000
0000
0000
0000
0000
0000
1000
0000
0000
0000
0010
0000
0000
0000
0100
0000
0000
0000
0001
1000
0001
1000
,
0001
0000
0001
0100
0010
0100
0000
1000
,
0100
0000
0001
0010
0100
0100
1000
0000
,
0110
0000
1000
0010
0100
0010
0000
0001
,
0010
0000
0000
0000
1000
0000
0100
0000
0010
0001
0010
0001
0010
0000
0001
0000
,
0101
0000
1000
0100
1000
0010
0000
0001
,
0010
0000
1000
0001
0100
0001
0010
0000
,
1100
0000
0001
0010
0001
0100
0000
0010
,
2000
0000
0000
0000
3001
0000
0000
0010
0000
0001
0000
0010
0200
0000
0000
0000
,
0310
0000
0001
0100
0001
0000
0100
0000
0010
1000
0000
0100
1000
0000
0001
0000
,
0100
0000
0010
1000
0010
0000
0100
0000
0001
0010
0000
0001
0100
0000
0010
0000
,
1000
0000
0100
0010
0100
0000
0010
0000
0001
0100
0000
0010
0100
0000
0001
0000
,
0010
0000
0100
1000
0100
0000
1000
0000
0010
0100
0000
0010
1000
0000
0001
0000
,
0010
0100
0010
1000
0010
0100
0010
0001
,
0100
0010
0100
1000
0100
0010
0100
0001
,
1000
0100
1000
0100
1000
0100
1000
0100
1000
0010
1000
0010
0100
0001
0100
0001
,
0010
0100
0010
0100
1000
0001
0020
0000
0000
0000
0000
0000
,
0130
0000
1000
0000
0100
0000
0010
0001
0000
1000
0100
1000
0200
0000
0320
0000
,
0031
0000
1000
0000
0010
0000
1000
0000
0001
0010
0001
0010
0100
0000
1000
0000
,
0001
0000
0100
0000
0010
0000
1000
0001
0000
0100
0010
0100
0020
0000
0230
0000
,
0301
0010
0001
0010
0100
0000
0010
0001
0000
1000
0100
0010
0100
0000
0010
0000
,
0001
0000
1000
0000
0010
0000
0100
0000
1000
0100
1000
0100
0001
0000
0010
0000
,
0100
0001
0200
0000
2300
0000
3020
0000
0000
0000
0130
0000
0001
1000
0001
1000
,
0001
0000
0100
0000
0001
0000
0010
0100
0000
1000
0010
0100
0010
0000
0001
0000
,
0020
0000
2030
0000
3020
0000
0130
1000
0000
0100
0000
0001
0010
0100
0010
0100
,
2000
0000
3002
0000
0023
0000
0031
0100
0000
0010
1000
0010
0100
0000
0001
0000
,
0010
0000
0100
1000
0100
0000
0010
0001
0000
1000
0000
0001
1000
0000
0010
0000
,
0100
0001
0100
0000
0001
0000
0010
0100
0000
1000
0010
1000
0010
0000
0100
0000
,
0001
0000
0010
0000
0001
0000
0100
0001
0000
0010
0001
0010
0100
0010
0100
0010
,
0002
0000
0000
0000
2003
0000
0000
3020
0000
0032
0000
0000
0000
0000
0000
0013
,
2000
0000
0000
3200
0000
0000
0320
0000
0000
0000
0130
0000
1000
0100
1000
0100
,
0010
0001
0010
0000
0200
0000
0320
0000
0000
0032
0000
0000
0000
0000
0000
0103
,
2000
0000
0000
3200
0000
0000
0302
0000
0013
0100
0010
0100
1000
0100
1000
0100
,
0010
0000
0001
0000
0100
0000
0001
0000
0100
0000
0010
0000
1000
0000
0100
0010
,
0001
0000
1000
0100
0010
0000
0001
0000
0010
0000
1000
0000
0010
0000
0001
0000
,
1000
0000
0100
0000
1000
0000
0100
0000
0010
0000
0001
0100
0001
0000
1000
0000
,
0100
0000
1000
0010
1000
0000
0001
0000
0100
0000
0001
0010
0001
0000
0100
0000
,
0010
0000
1000
0000
0010
0000
1000
0000
0010
0000
0001
0000
0010
0000
1000
0001
,
0100
0000
0001
1000
0100
0000
0001
0000
0100
0000
0001
0000
0100
0000
1000
0000
,
0010
0000
0100
0001
0100
0000
0010
0000
1000
0000
0100
1000
0100
0000
0010
0000
,
0001
0000
0100
0000
0001
0000
0010
0000
0001
0100
0001
0100
0001
0010
0001
0010
,
0200
0302
0203
2300
3002
0203
0320
2030
,
3001
0000
0100
0001
0010
0000
0100
0000
0010
0000
0100
1000
0010
0000
0100
0000
,
0020
0032
0023
2030
3002
0203
0302
0023
,
0130
0000
1000
0100
0010
0000
0001
0000
0010
0000
0100
0010
0001
0000
1000
0000
,
0010
0100
0010
0000
1000
0000
0020
0000
0000
0000
0130
0000
0010
0000
1000
0000
,
0001
0000
0010
0001
0100
0000
0001
0000
1000
0000
0100
1000
0010
0000
0100
0000
,
0001
0010
0001
0010
1000
0010
0001
0010
,
0001
0100
0001
0100
0010
1000
0010
1000
0001
0100
0010
0100
0001
0100
0010
0100
,
0002
0000
0000
0023
0000
0000
2030
0000
0000
3020
0000
0001
0031
0000
0101
0000
,
2100
0000
0000
3020
0000
0000
0032
0000
0000
0023
0000
0000
1000
1000
1030
0000
,
0102
0000
0000
2003
0000
0000
3200
0000
0000
0302
0000
0100
0103
0000
1100
0000
,
0012
0000
0000
0000
0000
0000
0203
0000
0000
0000
0000
0000
2300
0000
0000
0000
3100
0000
0001
0000
0010
0000
0100
0000
1000
0001
1000
0001
1000
0001
1000
0001
,
1000
0000
0010
0100
0001
0000
0010
0000
0100
1000
0000
0100
0001
0000
0100
0000
,
0010
0000
0001
0100
0010
0000
1000
0000
0010
0001
0000
0010
1000
0000
0100
0000
,
0010
0000
0001
0100
0010
0000
0100
0000
1000
0100
0000
0001
0100
0000
0010
0000
,
1000
0000
0100
0010
0001
0000
0010
0000
0100
0001
0000
0100
1000
0000
0010
0000
,
0100
0001
0100
0001
0010
0001
0100
0010
,
1000
0100
1000
0100
0010
0100
1000
0100
,
0010
0001
0010
0001
0010
0001
0010
0001
1000
0010
1000
0010
1000
0010
0100
0010
,
2000
0000
3002
0000
,
0023
0000
0000
0000
0000
0000
0000
0000
0000
0000
0000
0000
0000
0000
0000
0000
0000
0000
0000
0000
0000
0000
0000
0000
0000
0000
0001
0000
0000
0001
0000
0000
,
0031
0100
0000
0001
0100
0010
1000
0000
0100
1000
0000
0100
1000
0100
0010
0000
,
0001
0100
0000
0001
0100
0010
1000
0000
0100
0010
0000
0100
0010
0001
0010
0001
,
2000
0000
0000
0000
3020
0000
0000
0032
0000
0000
0023
0000
1000
1000
1030
0000
,
0001
0010
0001
0010
0100
1000
0100
1000
0001
0010
0100
1000
0001
0010
0100
0000
,
1000
0010
1000
0010
0100
0001
0100
0001
1000
0010
0100
0001
1000
0010
0100
0010
,
2000
3200
0302
2003
3020
0032
0203
0320
,
1030
0000
0100
1000
0100
0000
0001
0100
0000
1000
0100
0000
0010
0000
0001
0000
,
2000
3020
0032
2003
3200
0302
2003
3200
,
0310
0000
0001
0100
0001
0000
0100
1000
0000
0100
0001
0000
0010
0000
0100
0000
,
0210
1000
0001
1300
,
0120
0001
1000
0031
,
0102
0000
0000
1003
0000
0000
2100
0000
0000
3001
0000
0000
0102
0000
0000
1003
,
0000
0010
0100
0010
0100
0001
0100
0001
0100
0010
1000
0010
0100
0010
1000
0200
,
0000
0000
0000
0000
,
0300
0000
0000
0000
;
