#TITLE:NUMBER 26 ft. 黒沢ダイスケ×Daisuke from SEVER BLACK PARANOIA;
#SUBTITLE:;
#ARTIST:lapix;
#TITLETRANSLIT:;
#SUBTITLETRANSLIT:;
#ARTISTTRANSLIT:;
#GENRE:;
#CREDIT:;
#MUSIC:NUMBER 26 ft. Daisuke Kurosawa x Daisuke from SEVER BLACK PARANOIA.ogg;
#BANNER:NUMBER 26 ft. Daisuke Kurosawa x Daisuke from SEVER BLACK PARANOIA.png;
#BACKGROUND:NUMBER 26 ft. Daisuke Kurosawa x Daisuke from SEVER BLACK PARANOIA-bg.png;
#CDTITLE:;
#SAMPLESTART:35.295;
#SAMPLELENGTH:15.000;
#SELECTABLE:YES;
#OFFSET:1.411;
#BPMS:0.000=170.000
,72.000=85.000
,84.000=170.000
,284.000=85.000
,296.000=170.000
;
#STOPS:;
#BGCHANGES:;
#FGCHANGES:;

//--------------- dance-single - chrononical ----------------
#NOTES:
     dance-single:
     chrononical:
     Beginner:
     4:
     0,0,0,0,0:
0000
0000
0000
0000
,
0000
0000
0000
0000
,
0000
0000
0000
0000
,
0000
0000
0000
0000
,
0000
0000
0000
0000
,
0000
0000
0000
0000
,
1000
0000
0100
0000
,
0010
0000
0001
0000
,
1000
0000
0010
0000
,
0100
0100
0200
0000
,
0301
1000
0001
0000
,
1000
0010
1000
0000
,
0001
0010
0001
1000
,
0001
0100
0001
0001
,
1000
0100
1000
0000
,
0001
1000
0001
0000
,
1000
1000
1000
1000
,
2000
0000
0000
3001
,
0001
0100
0010
1000
,
1000
0001
0002
0010
,
1003
0010
0100
0001
,
1000
0001
0000
1000
,
0002
0000
0000
0000
,
1003
0000
0100
0000
,
0010
0010
0010
0000
,
0001
0000
0100
0000
,
0010
0010
0010
0010
,
1000
0000
0100
0000
,
0010
0010
0010
0000
,
0100
0000
1000
0000
,
0001
0000
1000
0000
,
0002
0000
0000
0000
,
0203
0000
0000
0000
,
0320
0000
0000
0000
,
1030
0001
1000
0002
,
2003
0000
0000
0000
,
3200
0000
0000
0000
,
0320
0000
0000
0000
,
0031
1000
0002
0000
,
1003
0000
2002
0000
,
0000
0000
3003
0000
,
0202
0000
0000
0000
,
0303
0000
0001
1000
,
0001
0000
1000
0000
,
2002
0000
3003
0000
,
0001
0100
0001
0000
,
1000
0010
1000
0001
,
2000
0000
3100
0000
,
0010
0000
0001
0001
,
0001
0000
1000
0000
,
0010
0010
0020
0000
,
1030
0100
0010
0000
,
0001
0100
0010
0000
,
1000
0100
0010
0000
,
0010
0001
1000
1000
,
0001
0010
0001
0000
,
1000
0010
1000
0000
,
0001
1000
0001
0000
,
0010
0100
0010
0010
,
0100
1000
0100
0000
,
1000
0001
1000
0000
,
0001
0001
0001
0001
,
0002
1000
1000
1003
,
0001
0000
0010
0000
,
0100
0100
0100
0000
,
1000
0000
0010
0000
,
0100
0001
1000
0001
,
1000
0000
0100
0000
,
0010
0010
0010
0000
,
0001
0000
1000
0000
,
0001
0001
0001
0001
,
1000
0100
0010
0001
,
1000
0010
0001
0010
,
1000
0100
0010
0010
,
0001
0000
1000
0000
,
0001
1000
0002
0000
,
2003
0000
0000
0000
,
3020
0000
0000
0000
,
0230
0000
0000
0000
,
0302
0000
0000
0000
,
2000
0000
0000
0000
,
0000
0000
0000
0000
,
0000
0000
0000
0000
,
0000
0000
0000
0000
,
3003
0000
0000
0000
;

//--------------- dance-single - chrononical ----------------
#NOTES:
     dance-single:
     chrononical:
     Easy:
     8:
     0,0,0,0,0:
0000
0000
0000
0000
,
0000
0000
0000
0000
,
0000
0000
0000
0000
,
0000
0000
0000
0000
,
0000
0000
0000
0000
,
0000
0000
0000
0000
,
1000
0000
0100
0000
0010
0001
0010
0000
,
0001
0000
0100
0000
0010
1000
0010
0000
,
0100
0000
0001
0000
1000
0001
1000
0000
,
0100
0010
0100
0000
0010
0001
0010
0000
,
0001
0100
0110
1001
,
1000
0100
0110
1001
,
0001
0100
1000
0100
,
0001
0010
0110
1001
,
1000
0010
1010
1001
,
0001
0010
0011
1001
,
1000
0100
0010
0001
,
2000
0000
0000
3001
,
0001
0010
1000
0010
0001
0100
0010
0100
,
0001
0100
0010
2001
3002
0000
0010
0000
,
1003
0100
0001
0100
1000
0010
0001
0010
,
1000
0000
1010
0000
0000
1001
0000
0000
,
0001
0000
0010
0000
0100
0000
1000
0001
,
2000
3100
0002
0103
,
2000
3010
0002
0013
,
2000
3100
0200
0310
,
0020
0000
0031
1000
0000
1000
0001
0000
,
2000
3010
0002
0013
,
2000
3100
0002
0103
,
2000
3010
0020
0130
,
0110
0000
0000
1001
0000
0000
2000
0000
,
3002
0000
0000
0200
0000
0000
0303
0000
,
0002
0000
0000
0020
0000
0000
0033
0000
,
0002
0000
0000
2000
0000
0000
3003
0000
,
0001
0000
0010
0100
0010
0000
0200
0000
,
2300
0000
0000
0020
0000
0000
3030
0000
,
2000
0000
0000
0200
0000
0000
3300
0000
,
2000
0000
0000
0002
0000
0000
3003
0000
,
0001
0000
0100
0010
0200
0000
0000
0000
,
0301
0010
0220
0000
,
0000
0000
0330
0000
2002
0000
3003
0202
,
0000
0000
0000
0303
,
2002
0000
0000
0000
,
3003
0000
0000
0000
1000
0100
0000
0220
,
0000
0000
0330
0100
2000
0000
3002
0000
,
0103
0000
0010
0000
1000
0001
1000
0000
,
0100
0000
0010
0000
0001
1000
0001
2000
,
0000
0000
0000
3001
,
1000
0000
0010
0000
0100
0010
0100
0000
,
0001
0010
1000
0010
,
0001
0100
2000
3200
,
0301
0010
0011
1001
,
1000
0010
1010
1001
,
0001
0010
1000
0010
,
0100
1000
1100
1001
,
0001
0100
0110
1001
,
0001
0010
0110
1001
,
0001
0100
1000
0100
,
0010
0100
0101
1001
,
1000
0100
0101
1100
,
1000
0010
0011
1010
,
1000
0100
0010
0001
,
2000
0000
0000
3001
,
0001
0100
0001
0000
1000
0100
1000
0000
,
0001
0010
1000
0100
,
0001
0010
0001
0000
1000
0010
1000
0000
,
0001
0100
1000
0010
,
0001
0100
0001
0000
1000
0100
1000
0000
,
0001
0010
1000
0100
,
0001
0010
0001
0000
1000
0010
1000
0000
,
0001
0010
0200
2300
,
3001
0100
0010
0000
0010
0100
0001
0000
,
0010
0001
0100
0000
0010
1000
0100
0020
,
0031
0100
1000
0100
0001
0010
1000
0010
,
0001
0000
0101
0000
0000
1001
0000
0000
,
1000
0100
0010
0001
,
2000
0000
0000
0000
,
3200
0000
0000
0000
,
0320
0000
0000
0000
,
0032
0000
0000
0000
,
2000
0000
0000
0000
,
0000
0000
0000
0000
,
0000
0000
0000
0000
,
0000
0000
0000
0000
,
3003
0000
0000
0000
;

//--------------- dance-single - chrononical ----------------
#NOTES:
     dance-single:
     chrononical:
     Medium:
     12:
     0,0,0,0,0:
0000
0000
0000
0000
,
0000
0000
0000
0000
,
0000
0000
0000
0000
,
0000
0000
0000
0000
,
0000
0000
0000
0000
,
0000
0000
0000
0000
,
1000
0000
0000
0100
0000
0000
0010
0000
0001
0000
0100
0000
1000
0000
0100
0000
,
0001
0000
0000
0100
0000
0000
0010
0000
1000
0000
0100
0000
0001
0000
0100
0000
,
1000
0000
0000
0010
0000
0000
0100
0000
0001
0000
0010
0000
1000
0000
0010
0000
,
0001
0100
1000
0100
0010
1000
0001
1000
,
0001
0010
0100
1000
1100
0000
1001
0000
,
0001
0100
0010
1000
1010
0000
1001
0000
,
0001
0010
0100
1000
0010
0001
0010
1000
,
0100
0010
0001
1000
1010
0000
1001
0000
,
0001
0100
0010
0100
0110
0000
1001
0000
,
0001
0010
0100
0010
0110
0000
1001
0000
,
0001
0100
0010
0100
0010
1000
0001
1000
,
0002
0010
0100
1003
,
1000
0100
0010
0100
0010
0001
1000
0001
1000
0010
0100
0010
0100
1000
0100
0001
,
1000
0100
0010
0000
0110
0000
2001
0000
3002
0000
0203
0000
0310
1000
0002
0000
,
1003
0100
0010
0100
1000
0010
0100
0010
1000
0100
0010
0001
1000
0010
0100
0001
,
1000
0010
0100
0000
0100
0001
0010
0000
,
0100
1000
0010
0100
0001
0010
0001
1000
,
1002
0103
2001
3100
,
0010
0002
0000
2003
0000
3010
0100
0001
,
1000
1002
0013
2001
,
3010
0100
0000
0110
0000
1001
1000
0100
,
0010
2001
3100
1002
,
0103
0010
0000
0110
0000
1001
0001
0010
,
0200
0000
0301
0100
0000
0100
1000
0010
,
0100
0010
0000
0100
0000
0000
0010
0100
0000
0020
0000
0000
2030
0000
0000
0000
,
3002
0000
0000
0203
0000
0000
0000
0000
,
0320
0000
0000
2030
0000
0000
0000
0000
,
3002
0000
0000
0023
0000
0000
0000
0000
,
0230
0000
1300
0001
0100
0010
2000
0000
,
3002
0000
0000
0203
0000
0000
0000
0000
,
2300
0000
0000
3200
0000
0000
0000
0000
,
0302
0000
0000
0023
0000
0000
0000
0000
,
0230
0000
1300
0001
0100
0020
0000
0000
,
1030
0100
0010
0001
2001
0000
0000
0000
,
0000
0000
0000
0000
3200
0000
0301
0200
,
0000
0000
0000
0000
0000
0000
1300
0010
,
0200
0000
1000
0010
,
0301
0100
0010
1000
0001
0101
0000
2001
,
0000
0000
0000
3001
0010
1000
0001
0100
,
1000
0010
0001
0010
1000
0100
0001
0100
,
1000
0010
0100
1000
0100
0010
0100
0002
,
0000
0000
0000
1000
1000
0000
1003
0100
,
0001
1000
0010
0001
1000
0010
0100
0010
,
1000
0100
0001
0100
1000
0010
0001
0010
,
1000
0100
0010
0001
2000
0000
3010
0100
,
0001
0010
0100
0010
0011
0000
1001
0000
,
0001
0100
0010
0100
0101
0000
1001
0000
,
0001
0010
1000
0010
0100
0001
0100
1000
,
0001
0100
0010
0100
0110
0000
1001
0000
,
1000
0100
0001
0100
0110
0000
1001
0000
,
0001
0100
1000
0100
0110
0000
1001
0000
,
1000
0100
0001
0100
0010
1000
0010
0001
,
1000
0010
0001
0010
0110
0000
1001
0000
,
0001
0100
0010
0100
1100
0000
0101
0000
,
0001
0010
0100
0010
1010
0000
0011
0000
,
0001
0100
0010
0100
0010
1000
0001
1000
,
0002
0010
0010
1003
,
0001
0000
0100
0000
0010
0000
1000
0000
0001
0000
0100
0010
0000
0100
0010
0000
,
1000
0100
0010
0001
1000
0010
0001
0010
,
1000
0000
0010
0000
0100
0000
0001
0000
1000
0000
0010
0100
0000
0010
0100
0000
,
0001
0010
0100
1000
0001
0100
1000
0100
,
0001
0000
0010
0000
0100
0000
0001
0000
0100
0000
0010
0100
0000
0100
1000
0000
,
0001
0100
0010
0100
0001
0010
1000
0010
,
0001
0000
0100
0000
0010
0000
0001
0000
0010
0000
0100
0010
0000
0010
1000
0000
,
0002
0000
0000
0010
0000
0000
2000
0000
0000
0000
0000
0000
0000
0000
0003
0000
,
3001
0010
1000
0010
0100
0001
0100
1000
0001
0100
0000
0110
0000
0010
1000
0001
,
1000
0000
0100
0000
0010
0000
0001
0000
1000
0000
0001
0000
0000
0000
0000
0000
1000
0000
0000
0010
0000
0000
0001
0000
0000
0000
0010
0000
1000
0000
0001
0000
,
1000
0100
0001
0100
1000
0010
0001
0010
1000
0010
0100
0001
1000
0001
1000
0000
,
1001
0000
0011
0000
0010
0001
0000
0001
,
1000
0010
0100
0001
1000
0100
0010
0001
,
2000
0000
0000
0100
0000
0000
0001
0000
,
3002
0000
0000
0000
,
2003
0000
3200
0000
,
0320
0000
0032
0000
,
2000
0000
0000
0000
,
0000
0000
0000
0000
,
0000
0000
0000
0000
,
0000
0000
0000
0000
,
3003
0000
0000
0000
;

//--------------- dance-single - chrononical ----------------
#NOTES:
     dance-single:
     chrononical:
     Hard:
     16:
     0,0,0,0,0:
0000
0000
0000
0000
,
0000
0000
0000
0000
,
0000
0000
0000
0000
,
0000
0000
0000
0000
,
0000
0000
0000
0000
,
0000
0000
0000
0000
,
1000
0010
0000
0100
0001
0000
0010
0000
0001
1000
0100
0010
0001
1000
0010
0100
,
0010
1000
0000
0001
1000
0000
0010
0000
1000
0010
0100
0001
1000
0100
0010
0100
,
1000
0001
0000
0010
0100
0000
1000
0000
0100
0010
0100
1000
0001
0100
0010
1000
,
0010
0100
0001
1000
0100
0010
0001
1000
0001
0010
0100
0010
0100
1000
0001
1000
,
0001
0100
1000
0100
0110
0010
1000
0100
,
0010
1000
0010
0001
0011
0010
0001
0100
,
0010
0001
0010
1000
1010
0010
1000
0100
,
0001
0100
0010
0100
0110
0000
0011
0001
,
1000
0010
0100
1000
0100
0010
1000
1000
,
0001
0010
0100
0001
0100
0010
0001
0001
,
0100
0010
0100
0010
1000
0001
1000
0001
0010
0100
0010
0100
1000
0001
1000
0001
,
2000
0000
3010
0000
1010
1000
2001
0000
,
3001
0010
1000
0010
0001
0100
1000
0100
0001
0010
1000
0010
0001
1000
0010
0010
,
0100
0000
0100
0000
0001
0000
0000
0000
1001
0000
0000
0000
2010
0000
0000
0000
3010
0000
0000
0000
0110
0000
0000
0000
0100
0000
0001
0000
1000
0001
1000
0000
,
0001
0010
1000
0001
0100
1000
0010
0001
1000
0100
0001
1000
0100
0001
1000
0010
,
0001
0000
1000
0000
1010
0000
0000
0000
0010
0000
0110
0000
0000
0000
0100
0001
,
1000
0100
0010
0100
0010
0001
1000
0001
1000
0010
0100
0010
0100
0001
1000
0001
,
2000
0000
3100
0000
0100
0010
0001
0100
,
0010
1010
0000
1001
0000
0011
0010
0100
,
1000
0010
0200
0000
0302
1000
2003
0000
,
3010
0000
0100
0000
0010
0000
0110
0000
0000
0000
0101
0000
0001
1000
0001
0000
,
1001
1000
0200
0000
0320
0100
0230
0000
,
1300
0010
0100
0101
0000
1001
1000
0001
,
0010
0000
0100
0000
1000
0000
0020
0000
0000
0000
0100
0000
0130
0000
0001
1000
,
0001
0010
0000
0100
0000
0000
1000
0010
0000
0100
0001
1000
0001
0010
0100
0010
,
0002
0000
0000
2000
0003
0000
0000
0000
,
3200
0000
0000
0320
0000
0000
0000
0000
,
0032
0000
0000
2003
0000
0000
0000
0000
,
3002
0000
0103
1000
0100
0010
0210
0000
,
0302
0000
0000
0023
0000
2030
0000
0000
,
3020
0000
0000
0230
0000
2300
0000
0000
,
3002
0000
0000
0203
0000
2300
0000
0000
,
3200
0000
0000
0000
0310
0000
0001
0000
0010
0100
0010
1000
0001
0010
0100
1000
,
0001
0100
0010
1000
0200
0000
0001
0000
,
1000
0000
0010
0010
0302
0000
0203
0320
,
1000
0000
0000
0000
0001
0000
0000
0000
1000
0000
0000
0000
1030
0000
0001
1000
,
0200
0000
0000
0000
1000
0000
0000
0000
0001
0000
0000
0000
1300
0000
0100
0010
,
0100
0010
0001
0100
0010
1000
0001
2002
,
0000
0000
0000
0000
3003
0000
0001
0100
0010
0100
0001
1000
0001
0010
0100
1000
,
0001
0100
0010
0000
0010
1000
0001
0000
0001
1000
0100
0000
0100
1000
0001
0000
,
0001
0000
0010
0000
0100
0010
0001
0000
0100
0010
0100
0010
1000
0001
1000
0002
,
0000
0000
0000
0000
0000
0000
1003
0000
0010
0000
0000
0100
0000
0010
1000
0001
,
1000
0100
0010
0100
1000
0001
1000
0010
0100
0000
0010
1000
0001
0000
0010
0001
,
1000
0100
0001
0100
1000
0010
0001
0010
,
1000
0000
0100
0000
0001
0000
0100
0000
0020
0000
0000
0000
0031
0000
1000
0001
,
1000
0000
0100
0000
0010
0000
0100
0000
0110
0000
0000
0000
0011
0000
0001
1000
,
0001
0000
0100
0000
0010
0000
0100
0000
0110
0000
0000
0000
1010
0000
1000
0001
,
1000
0100
0010
0001
0011
0010
0100
0001
,
0100
0000
1000
0000
0010
0000
0100
0000
0110
0000
0000
0000
0101
0000
0001
1000
,
0001
0010
1000
0010
0110
0100
1000
0010
,
0100
1000
0100
0010
0110
0010
1000
0100
,
0010
1000
0010
0001
0011
0001
0100
0010
,
1000
0010
0001
0010
0110
0000
1010
0010
,
1000
0100
0010
1000
0010
0100
1000
1000
,
0001
0100
0010
0001
0010
0100
0001
0001
,
1000
0100
0010
0001
1000
0100
0010
0100
0010
0001
1000
0001
1000
0010
0100
0010
,
0100
0000
0100
0000
0100
0010
0110
0000
,
1001
0000
1000
0100
0010
0000
0001
0100
0010
0100
0001
1000
0000
1000
0001
0000
,
0010
0000
1000
0000
0010
0000
0001
0000
0100
0010
0100
0010
0000
1000
0001
1000
,
0001
0000
0010
0001
1000
0000
0010
1000
0001
0000
0001
0010
0000
0010
0001
0000
,
0100
1000
0100
0000
0010
0000
1000
0000
0010
1000
0001
0000
0010
0001
1000
0001
,
1000
0000
0100
0010
0100
0000
0100
0001
0100
0010
0100
1000
0000
0010
0100
0000
,
0001
0000
0100
0000
1000
0000
0100
0000
0010
1000
0001
0010
0000
0100
1000
0001
,
1000
0000
0010
0100
0010
0000
0010
0001
0010
0000
0010
0100
0000
0001
1000
0000
,
0100
0010
0001
1000
0010
0100
0001
1000
0100
0010
0100
0010
0001
0010
0100
1000
,
0001
0100
0010
0100
0110
0010
1000
0001
1000
0100
0000
0010
0110
0100
0010
0001
,
1000
0000
0001
0000
0100
0000
0010
0000
0110
0000
0100
0000
0000
0000
0001
0000
1000
0000
0100
0000
0000
0000
0010
0000
0110
0000
0100
0000
1000
0001
1000
0000
,
0001
0001
0010
0100
0001
0001
0100
1000
0010
0010
0001
0010
1000
1000
0010
0100
,
0001
0000
0010
0000
0011
0000
0001
0000
1000
0000
1100
0000
0100
0000
0010
0001
,
1000
0010
0100
0001
1000
0010
0100
0001
1000
0100
0010
0001
1000
0100
0010
0001
,
2000
0000
0000
0010
0000
0000
0001
0000
,
3020
0000
0000
0100
0000
0001
0000
0000
,
2030
0000
0001
0000
,
3200
0000
2300
0000
,
0002
0000
0000
0000
,
0000
0000
0000
0000
,
0000
0000
0000
0000
,
0000
0000
0000
0000
,
3003
0000
0000
0000
;
