#VERSION:0.83;
#TITLE:NEXTLVL;
#SUBTITLE:;
#ARTIST:Astrophysics (from No Agreements);
#TITLETRANSLIT:;
#SUBTITLETRANSLIT:;
#ARTISTTRANSLIT:;
#GENRE:;
#ORIGIN:;
#TAGS:;
#CREDIT:;
#BANNER:NEXTLVL.png;
#BACKGROUND:NEXTLVL-bg.png;
#PREVIEWVID:;
#JACKET:NEXTLVL-jacket.png;
#CDIMAGE:;
#DISCIMAGE:;
#LYRICSPATH:;
#CDTITLE:;
#MUSIC:NEXTLVL.ogg;
#OFFSET:0.005000;
#SAMPLESTART:35.974998;
#SAMPLELENGTH:15.000000;
#SELECTABLE:YES;
#BPMS:0.000000=160.000000,
80.000000=80.000000,
88.000000=160.000000,
180.000000=80.000000,
182.000000=160.000000,
326.000000=80.000000;
#STOPS:;
#DELAYS:;
#WARPS:;
#TIMESIGNATURES:0.000000=4=4,
180.000000=2=4,
182.000000=4=4;
#TICKCOUNTS:0.000000=4;
#COMBOS:0.000000=1;
#SPEEDS:0.000000=1.000000=0.000000=0;
#SCROLLS:0.000000=1.000000;
#FAKES:;
#LABELS:0.000000=Song Start;
#LASTSECONDHINT:132.073166;
#BGCHANGES:;
#KEYSOUNDS:;
#ATTACKS:
;

//---------------dance-single - ----------------
#NOTEDATA:;
#CHARTNAME:;
#STEPSTYPE:dance-single;
#BANNER:;
#DESCRIPTION:;
#CHARTSTYLE:;
#DIFFICULTY:Beginner;
#METER:3;
#METERF:0.000000;
#RADARVALUES:0.132116,0.249624,0.097744,0.172932,0.000000,123.000000,110.000000,13.000000,23.000000,4.000000,0.000000,0.000000,0.000000,0.000000,0.132116,0.249624,0.097744,0.172932,0.000000,123.000000,110.000000,13.000000,23.000000,4.000000,0.000000,0.000000,0.000000,0.000000;
#CREDIT:DJEmbrace;
#NOTES:
0000
0000
0000
0000
,
0000
0000
0000
0000
,
0000
0000
0000
0000
,
0000
0000
0000
0000
,
0001
0000
0000
0000
,
2000
0000
3000
0000
,
0001
0000
0000
0000
,
0020
0000
0030
0000
,
0100
0000
0000
0000
,
2000
0000
3000
0000
,
0001
0000
0000
0000
,
0200
0000
0300
0000
,
0010
0000
0010
0000
,
0100
0000
0100
0000
,
0010
0000
0010
0000
,
1000
0000
0000
0001
,
0001
0000
0000
0000
,
0010
0000
0010
0000
,
0100
0000
0000
0000
,
1000
0000
1000
0000
,
000M
0010
0000
0100
,
0000
0010
0000
1000
,
100M
0000
0000
0000
,
0001
0000
0001
0000
,
0010
0000
0000
0000
,
0100
0000
0100
0000
,
0020
0000
0030
0000
,
0200
0000
0300
0000
,
2000
0000
3000
0000
,
0020
0000
0030
0000
,
1001
0000
0000
0000
,
0001
0000
0001
0000
,
0100
0000
0000
0000
,
0010
0000
0010
0000
,
1000
0000
0000
0000
,
0001
0000
0000
0000
,
1000
0000
0000
0000
,
0010
0000
0000
0000
,
0110
0000
0010
0000
,
0010
0000
0010
0000
,
0110
0000
0100
0000
,
0100
0000
0100
0000
,
1001
0000
1000
0000
,
1001
0000
0001
0000
,
1001
0000
1000
0000
,
011M
0000
011M
0000
,
0000
0000
0001
0000
,
0000
0000
1000
0000
,
0000
0000
0001
0000
,
0000
0000
0010
0000
,
0010
0000
0100
0000
,
0000
0000
1000
0000
,
1000
0000
0001
0000
,
0000
0000
2000
0000
,
3000
0000
0002
0000
,
0003
0000
0020
0000
,
0030
0000
0002
0000
,
0003
0000
0200
0000
,
0300
0000
0020
0000
,
0030
0000
2000
0000
,
3000
0000
0200
0000
,
0300
0000
0110
0000
,
0001
0000
1000
0000
,
0001
0000
0110
0000
,
1000
0000
0001
0000
,
1000
0000
1001
0000
,
0010
0000
0100
0000
,
0010
0000
1001
0000
,
0100
0000
0010
0000
,
0010
0000
1001
0000
,
0000
0000
0002
0000
,
0003
0000
2000
0000
,
3000
0000
0010
0000
,
0000
0000
0100
0000
,
0100
0000
0100
0000
,
0100
0000
0100
0000
,
0000
0000
0010
0000
,
0000
0000
2000
0000
,
3000
0000
0020
0000
,
0030
0000
0200
0000
,
0300
0000
0002
0000
,
0003
0000
2000
0000
,
0000
0000
0000
0000
,
3000
0000
0000
0000
,
0000
0000
0000
0000
,
0000
0000
0000
0000
,
0000
0000
0000
0000
,
0000
0000
0000
0000
,
0000
0000
0000
0000
,
0000
0000
0000
0000
,
0000
0000
0000
0000
,
0000
0000
0000
0000
,
0000
0000
0000
0000
,
0000
0000
0000
0000
,
0000
0000
0000
0000
,
0000
0000
0000
0000
,
0000
0000
0000
0000
,
0000
0000
0000
0000
,
0000
0000
0000
0000
,
0000
0000
0000
0000
,
0000
0000
0000
0000
,
0000
0000
0000
0000
,
0000
0000
0000
0000
,
0000
0000
0000
0000
,
0000
0000
0000
0000
,
0000
0000
0000
0000
,
0000
0000
0000
0000
,
0000
0000
0000
0000
,
0000
0000
0000
0000
,
0000
0000
0000
0000
,
0000
0000
0000
0000
,
0000
0000
0000
0000
,
0000
0000
0000
0000
,
0000
0000
0000
0000
,
0000
0000
0000
0000
,
0000
0000
0000
0000
,
0000
0000
0000
0000
,
0000
0000
0000
0000
,
0000
0000
0000
0000
,
3000
0000
0000
0000
;

//---------------dance-single - ----------------
#NOTEDATA:;
#CHARTNAME:;
#STEPSTYPE:dance-single;
#BANNER:;
#DESCRIPTION:;
#CHARTSTYLE:;
#DIFFICULTY:Easy;
#METER:7;
#METERF:0.000000;
#RADARVALUES:0.377014,0.436842,0.180451,0.375940,0.000000,351.000000,327.000000,24.000000,50.000000,4.000000,0.000000,0.000000,0.000000,0.000000,0.377014,0.436842,0.180451,0.375940,0.000000,351.000000,327.000000,24.000000,50.000000,4.000000,0.000000,0.000000,0.000000,0.000000;
#CREDIT:DJEmbrace;
#NOTES:
0000
0000
0000
0000
,
0000
0000
0000
0000
,
0000
0000
0000
0000
,
0000
0000
0000
0000
,
1002
0010
0010
0013
,
0100
1000
0000
0100
1000
0000
0100
1000
,
0001
0000
0000
0001
0000
0000
0001
0000
,
0100
0100
0100
0100
,
1002
0000
0013
0000
0100
0010
0100
0000
,
1002
0203
2300
3200
,
0310
0000
0010
0010
0000
0010
0010
0000
,
2000
0000
0000
3002
0000
0000
1003
0000
,
0110
0001
0100
1000
,
0110
1000
0100
0001
,
0110
1000
0010
0001
,
2002
0000
3003
0110
,
2001
0100
0100
3200
,
0310
0000
0010
0010
0000
0010
0010
0000
,
0001
0000
1000
0001
0000
0001
0100
0000
,
0010
0000
0000
0010
0000
0000
0020
0000
,
103M
0002
0013
0002
,
0103
0020
1030
0200
,
031M
0010
0001
0001
,
1000
0000
1000
1000
0000
1000
1000
0000
,
0001
0000
0001
0001
0000
0001
0001
0000
,
0100
0000
0000
0100
0000
0000
0010
0000
,
1001
0000
0000
0110
0000
0000
1000
0000
,
0001
0000
0100
0001
0000
1000
0100
0000
,
0010
0000
0010
0010
0000
0010
0010
0000
,
0100
0000
0100
0100
0000
0100
0100
0000
,
2000
0001
0010
3001
,
0002
0100
1000
0103
,
0020
1000
0100
1030
,
0002
0010
1000
0013
,
0001
0000
0000
0001
0000
0000
0001
0000
,
1000
0000
0000
1000
0000
0000
1000
0000
,
0001
0000
0000
0001
0000
0000
0001
0000
,
1000
0010
0100
0010
,
1001
0001
0001
0001
,
0010
0000
0010
0000
0010
0010
0010
0000
,
0100
0100
0100
0100
,
1000
0000
1000
0000
1000
1000
1000
0000
,
0001
0000
0001
0001
0000
1000
1000
0000
,
0010
0000
1000
1000
0000
0100
0100
0000
,
0010
0000
0001
0001
0000
0100
0100
0000
,
002M
0000
0030
0110
101M
0000
1000
0001
,
0000
1000
0100
1000
0100
0000
0010
0100
,
0000
0010
0100
0000
0010
0000
0001
1000
,
0000
0001
1000
0000
0001
0000
0100
0000
,
0010
1000
0002
0000
0013
0000
0100
0000
,
1000
1001
0002
0000
,
0000
0100
0100
0100
0103
0000
0010
0000
,
1000
0010
0100
0001
,
1000
0001
1000
0000
0200
0000
0310
0000
,
0001
1000
0020
0130
,
0002
0013
0200
1300
,
0001
1000
0200
1300
,
0020
0130
0001
1000
,
0100
0010
0100
0000
0010
0000
0001
0000
,
1000
0001
1000
0000
0010
0000
0100
0000
,
0001
1000
0001
0000
0010
0000
0010
0010
,
0000
0010
0010
0000
0110
0000
1000
0000
,
1000
1000
0110
0001
,
0001
1000
0001
0000
1010
0000
0001
0000
,
0001
0001
0101
1000
,
0010
1000
0020
0000
0130
0000
0001
0000
,
0010
0010
0110
1000
,
0010
0100
0010
0000
1001
0000
1000
0000
,
0100
0000
0010
0000
0001
0000
1000
0010
,
0000
1000
0020
0000
2030
0000
0000
0001
,
0000
0000
0001
0000
3001
0000
0100
0001
,
0000
0100
0001
0000
0010
0000
0100
0010
,
0000
0100
0010
0000
0001
0000
1000
0010
,
0000
1000
0010
0000
0200
0000
0320
0000
,
2030
3200
0320
0032
,
0203
0000
0302
0000
0023
0000
0000
0230
,
0000
0000
2300
0000
0001
0000
0000
0001
,
0000
0000
3001
0000
0210
0000
0000
0010
,
0000
0000
0310
0000
1002
0000
0000
1000
,
0000
0000
1003
0000
0201
0000
0000
0001
,
0000
0000
0302
0000
1003
0000
0000
1000
,
0000
0000
0002
0000
,
0000
0000
2000
0000
,
3003
0000
0000
0000
;

//---------------dance-single - ----------------
#NOTEDATA:;
#CHARTNAME:;
#STEPSTYPE:dance-single;
#BANNER:;
#DESCRIPTION:;
#CHARTSTYLE:;
#DIFFICULTY:Medium;
#METER:12;
#METERF:0.000000;
#RADARVALUES:0.606874,0.780075,0.406015,0.563910,0.210526,565.000000,511.000000,54.000000,75.000000,4.000000,0.000000,0.000000,0.000000,0.000000,0.606874,0.780075,0.406015,0.563910,0.210526,565.000000,511.000000,54.000000,75.000000,4.000000,0.000000,0.000000,0.000000,0.000000;
#CREDIT:DJEmbrace;
#NOTES:
// measure 0
0000
0000
0000
0000
,  // measure 1
0000
0000
0000
0000
,  // measure 2
0000
0000
0000
0000
,  // measure 3
0000
0000
0000
0000
,  // measure 4
0110
0000
0001
0100
0010
0100
0001
0000
,  // measure 5
1000
0020
0000
1030
0200
0000
1300
0010
,  // measure 6
1010
0000
1000
1010
0000
1000
1010
0000
,  // measure 7
0001
0010
0001
0010
0100
1000
0100
1000
,  // measure 8
1001
0000
0001
0010
0000
0010
0100
0000
,  // measure 9
0100
0010
0001
0100
0010
0100
0001
0010
,  // measure 10
0100
1000
0000
0000
0100
0000
0010
0001
0000
0000
0010
0000
0100
1000
0000
0000
,  // measure 11
1002
0000
0000
0100
0000
0000
0013
0000
,  // measure 12
1100
0000
0000
0000
0001
0000
0100
0001
0000
0000
0010
0000
0010
0000
0000
0000
,  // measure 13
0011
0000
0000
0000
1000
0000
0010
1000
0000
0000
0100
0000
0100
0000
0000
0000
,  // measure 14
0110
0000
0001
1000
0000
1000
0010
0000
,  // measure 15
1000
0001
0000
1000
0001
0000
1000
0001
0000
1000
0001
0000
0020
0000
0000
0000
,  // measure 16
0230
1000
0010
1300
,  // measure 17
0001
0000
0000
0000
0011
0000
0000
1000
0000
0010
0000
1000
0010
0000
0000
0000
,  // measure 18
0200
0000
0010
0010
0000
0001
0301
0000
,  // measure 19
1000
0000
0000
0000
1100
0000
0000
0001
0000
0100
0000
0001
0100
0000
0010
0000
,  // measure 20
100M
0000
0100
0000
1000
1000
1000
1000
0001
0000
0100
0000
0001
0001
0001
0001
,  // measure 21
0010
0000
0100
0000
0010
0010
0010
0010
0001
0000
1000
0000
0010
0010
0010
0010
,  // measure 22
010M
0010
0100
0001
1000
0001
0010
0100
,  // measure 23
1000
0010
0100
0010
1000
0001
0010
0100
,  // measure 24
0100
0010
0001
1000
0010
0100
0010
1000
,  // measure 25
0001
0010
0100
1000
0001
1000
0010
0100
,  // measure 26
0101
0000
1000
1100
0000
0100
0010
0000
,  // measure 27
0001
0100
1000
0100
0010
0100
0001
1000
,  // measure 28
1010
0000
0001
0011
0000
0010
0100
0000
,  // measure 29
1001
0000
0000
0000
1010
0000
0000
0001
0000
0100
0000
0001
0100
0000
0010
0000
,  // measure 30
2000
0000
3100
0001
0100
1000
0001
0000
,  // measure 31
0200
0000
0000
0000
0310
0000
0000
1000
0000
0001
0000
1000
0100
0000
1000
0000
,  // measure 32
0020
0000
0130
1000
0100
0001
1000
0001
,  // measure 33
0020
0000
0000
0000
0130
0000
0000
1000
0000
0100
0000
1000
0001
0000
0100
0000
,  // measure 34
0201
0000
0000
0320
0000
0000
2030
0000
,  // measure 35
3002
0000
0000
0203
0000
0000
0302
0000
,  // measure 36
0023
0000
0000
0230
0000
0000
2300
0000
,  // measure 37
3001
0000
0001
0000
1000
0010
0100
0001
,  // measure 38
1001
0000
0001
0010
0000
0010
0001
0000
,  // measure 39
1000
0000
1000
0010
1000
0100
1000
0000
,  // measure 40
1001
0000
0001
0100
0000
0100
0010
0000
,  // measure 41
1000
0000
1000
0100
0010
0001
0010
0000
,  // measure 42
1001
0000
0001
1001
0000
1000
1100
0000
,  // measure 43
0110
0000
0010
0011
0000
0001
1001
0000
,  // measure 44
1010
0000
0010
0110
0000
0100
0101
0000
,  // measure 45
M110
0000
0000
0110
0000
0000
0101
0000
0000
0101
0000
0000
0200
0000
0000
0000
M301
0000
0000
0000
0001
0000
0000
0000
1000
0000
0000
0000
0001
0000
0000
0000
,  // measure 46
0001
0010
0001
0001
0100
0000
0001
0100
,  // measure 47
0000
0010
1000
0000
0010
0000
0100
0000
0001
0000
0000
0000
1000
0000
0001
0010
,  // measure 48
0000
0001
0010
0000
0100
0000
1000
0000
0001
0000
0000
0000
0100
0000
0010
0000
,  // measure 49
0100
0000
0100
0000
0001
1000
0001
0000
1000
0000
0000
0000
0001
0000
0010
0000
,  // measure 50
1000
0010
0001
0000
1000
0010
1000
0010
,  // measure 51
0100
0010
1000
0100
0110
0000
0010
0001
,  // measure 52
1000
0001
0100
0010
1010
0000
1000
0001
,  // measure 53
0010
0000
1000
0000
0010
0000
0000
0000
0120
0000
0000
0000
0031
0000
1000
0010
,  // measure 54
0000
1000
0001
0000
0010
0000
0000
0000
0021
0000
0000
0000
0130
0000
1000
0001
,  // measure 55
0000
0100
0010
0000
1000
0000
0000
0000
2100
0000
0000
0000
3001
0000
0100
0010
,  // measure 56
0000
0010
1000
0000
0100
0000
0010
0000
0012
0000
0000
0000
0103
0000
0010
0100
,  // measure 57
0000
0100
0001
0000
1000
0000
0001
0000
1001
0000
1000
0000
0100
0000
0010
0100
,  // measure 58
0000
0010
0100
0000
1000
0000
0001
0000
0101
0000
0100
0000
0010
0000
1000
0001
,  // measure 59
0000
1000
0001
0000
0100
0000
0001
0000
0011
0000
0010
0000
0100
0000
1000
0100
,  // measure 60
0000
1000
0100
0000
0010
0000
0100
0000
2100
0000
3002
0000
0203
0000
2300
0000
,  // measure 61
3200
0302
0023
0130
1001
1000
0010
1000
,  // measure 62
0001
0001
0100
0100
0010
0100
0001
0010
,  // measure 63
0100
0000
0100
0000
1000
0001
1000
0000
0010
0000
0100
0000
0010
0000
1000
0000
,  // measure 64
0001
0001
0010
0010
0100
0010
0100
1000
,  // measure 65
0001
0000
0001
0000
0100
0010
0100
0000
0001
0000
1000
0000
0100
0000
0001
0000
,  // measure 66
0100
0100
0010
0010
0001
1000
0010
0001
,  // measure 67
0010
0000
0010
0000
0100
0001
0100
0000
0010
0000
1000
0000
0100
0000
0010
0000
,  // measure 68
0001
0001
1000
1000
0110
0000
0001
0110
,  // measure 69
0000
1000
0110
0000
1002
0000
0000
1000
,  // measure 70
0000
0000
1000
0000
0203
2300
3200
0302
,  // measure 71
0023
2030
3020
0031
0011
0000
1000
1001
,  // measure 72
0000
0001
0101
0000
0110
0000
0100
0100
,  // measure 73
0000
0010
0010
0000
2000
3200
0302
0203
,  // measure 74
0302
0203
2300
3002
0203
2300
3200
2300
,  // measure 75
3200
0320
2030
3002
0023
0000
2030
3020
,  // measure 76
0032
2003
3020
0032
0013
0000
0010
0010
,  // measure 77
0000
0010
0010
0000
0202
0000
0300
0200
,  // measure 78
0000
0300
0200
0303
2000
0000
3000
2000
,  // measure 79
0000
3000
2000
3000
0022
0000
0030
0020
,  // measure 80
0000
0030
0020
0033
1000
0000
0000
1000
,  // measure 81
0000
0000
0002
0000
,  // measure 82
0000
0000
2000
0000
,  // measure 83
3003
0000
0000
0000
;

//---------------dance-single - ----------------
#NOTEDATA:;
#CHARTNAME:;
#STEPSTYPE:dance-single;
#BANNER:;
#DESCRIPTION:;
#CHARTSTYLE:;
#DIFFICULTY:Hard;
#METER:15;
#METERF:0.000000;
#RADARVALUES:0.770140,1.810150,0.639098,0.563910,0.323308,717.000000,632.000000,85.000000,75.000000,4.000000,0.000000,0.000000,0.000000,0.000000,0.770140,1.810150,0.639098,0.563910,0.323308,717.000000,632.000000,85.000000,75.000000,4.000000,0.000000,0.000000,0.000000,0.000000;
#CREDIT:DJEmbrace;
#OFFSET:0.005000;
#BPMS:0.000000=160.000000
,80.000000=80.000000
,88.000000=160.000000
,180.000000=80.000000
,182.000000=320.000000
,374.000000=160.000000
,422.000000=80.000000
;
#STOPS:;
#DELAYS:;
#WARPS:;
#TIMESIGNATURES:0.000000=4=4
,180.000000=2=4
,182.000000=4=4
;
#TICKCOUNTS:0.000000=4
;
#COMBOS:0.000000=1
;
#SPEEDS:0.000000=1.000000=0.000000=0
;
#SCROLLS:0.000000=1.600000
,80.000000=2.000000
,88.000000=1.600000
,180.000000=2.000000
,182.000000=1.000000
,374.000000=1.600000
,422.000000=1.000000
;
#FAKES:;
#LABELS:0.000000=Song Start
;
#NOTES:
// measure 0
0000
0000
0000
0000
,  // measure 1
0000
0000
0000
0000
,  // measure 2
0000
0000
0000
0000
,  // measure 3
0000
0000
0000
0000
,  // measure 4
0011
0000
1100
0001
0100
0010
1000
0000
,  // measure 5
0002
0010
1003
0002
0010
1003
0010
1000
,  // measure 6
2100
0000
3001
2100
0000
3001
1200
0000
,  // measure 7
1300
0010
1000
0001
0100
0001
1000
0100
,  // measure 8
1100
0000
0000
0000
1001
0000
0001
0100
0000
0100
0010
0000
1001
0000
0000
0000
,  // measure 9
0010
1000
1000
0100
1000
1000
0001
0100
,  // measure 10
0010
0100
0001
0000
1000
0000
0010
0100
0001
0000
1000
0000
1100
0000
0000
0000
,  // measure 11
0120
0000
0001
0230
0000
1000
0310
0000
,  // measure 12
1001
0000
0000
0000
0101
0000
0001
1000
0000
1000
0100
0000
0110
0000
0000
0000
,  // measure 13
1100
0000
0000
0000
0101
0000
0100
0010
0000
0010
1000
0000
1001
0000
0000
0000
,  // measure 14
0011
0000
0002
0103
0000
0002
0013
0000
,  // measure 15
0100
1000
0000
0001
1000
0000
0010
1000
0000
0100
1000
0000
0001
1000
0001
0100
,  // measure 16
0020
0001
0100
1030
,  // measure 17
0001
0000
0010
0000
0010
0000
0100
1000
0000
1000
0001
0010
0001
0000
0100
0000
,  // measure 18
0002
0000
0100
0100
0000
0010
0013
0000
,  // measure 19
0100
0000
1000
0000
0100
0000
1000
0010
0000
0010
0100
0001
0100
0000
0010
1000
,  // measure 20
001M
0000
0000
0000
0101
0000
0000
0000
1000
0100
1000
0100
1000
0100
1000
0100
0010
0000
0000
0000
1001
0000
0000
0000
0010
1000
0010
1000
0010
1000
0010
1000
,  // measure 21
0001
0000
0000
0000
0110
0000
0000
0000
1000
0001
1000
0001
1000
0001
1000
0001
0100
0000
0000
0000
1100
0000
0000
0000
0001
0010
0001
0010
0001
0010
0001
0010
,  // measure 22
M100
1000
0010
0100
1000
0100
0001
0010
,  // measure 23
1000
0000
0010
0000
0001
0000
1000
0100
0000
0001
0000
0100
0010
0000
0001
0000
,  // measure 24
1001
1000
0010
0100
1000
0100
0001
1000
,  // measure 25
0001
0000
0010
0000
0100
0000
0001
0100
0000
0010
0000
1000
0010
0000
0001
0000
,  // measure 26
1001
0000
0000
0000
1100
0000
0201
0000
0000
0310
0100
0000
0001
0000
0010
0000
,  // measure 27
0001
0200
0010
0301
0200
0010
0301
1000
,  // measure 28
1001
0000
0000
0000
0101
0000
0021
0000
0000
0130
0010
0000
0001
0000
0100
0000
,  // measure 29
0101
0000
0000
0000
1001
0000
1010
0000
0000
1001
0000
1000
0100
1000
0100
0000
,  // measure 30
0210
0000
0000
0000
1300
0000
0010
0000
1000
0001
0100
0000
0010
0000
1000
0000
,  // measure 31
0200
0000
0000
0000
0301
0000
0100
0010
0000
0001
0000
0001
1000
0001
1000
0000
,  // measure 32
0020
0000
0000
0000
1030
0000
1000
0010
0000
0010
0100
0000
0001
0000
0010
0000
,  // measure 33
2000
0000
0000
0000
3010
0000
0100
1000
0000
0001
0000
0001
0100
0010
0100
0000
,  // measure 34
2001
0000
0000
0000
3100
0000
0020
0000
0000
0031
1000
0000
0010
0000
0100
0000
,  // measure 35
2000
0000
0000
0000
3100
0000
0002
0000
0000
0013
0000
0010
0100
0010
0001
0000
,  // measure 36
2000
0000
0000
0000
3010
0000
2000
0000
0000
3001
0100
0000
0020
0000
0000
0000
,  // measure 37
0031
0000
0000
0000
0010
0000
1000
0001
0000
0010
0000
0010
0100
0010
0001
0000
,  // measure 38
0101
0000
0101
0001
1000
0001
0101
0000
,  // measure 39
0101
0000
0000
0000
0101
0000
0001
1000
0000
0001
1000
0000
0101
0000
0000
0000
,  // measure 40
0011
0000
0011
0010
0100
0010
0011
0000
,  // measure 41
0011
0000
0001
0000
0011
0000
0010
0100
0000
1000
0001
0000
0011
0000
0000
0000
,  // measure 42
1010
0000
1000
1001
0000
0001
1100
0000
,  // measure 43
0011
0000
1000
0110
0000
1000
0101
0000
,  // measure 44
1001
0000
0011
1010
0000
0110
1001
0000
,  // measure 45
110M
0000
0000
0101
0000
0000
1010
0000
0000
0011
0000
0000
0001
0010
0100
0010
M001
0000
0000
0000
0000
0000
0000
0000
1000
0000
0000
0000
0100
0000
0000
0000
,  // measure 46
0010
0000
0100
0000
1000
0100
0010
0000
,  // measure 47
0100
0000
0010
0001
0100
0000
0001
1000
,  // measure 48
0010
0000
0010
0100
0000
0100
1000
0000
,  // measure 49
0100
0010
1010
1000
,  // measure 50
0001
0000
0010
0100
0000
0100
0001
0000
,  // measure 51
0100
1000
1001
0001
,  // measure 52
0010
0000
0001
0010
2000
0000
3010
0000
,  // measure 53
0100
1000
0100
1000
0010
0000
0100
0000
,  // measure 54
0001
0000
0100
0010
1000
0001
0010
0000
,  // measure 55
0100
0010
1002
0203
,  // measure 56
0310
0100
1000
0000
1100
0000
0110
0000
,  // measure 57
0101
1001
1100
0100
,  // measure 58
0010
0000
0001
1000
0010
0100
0001
0000
,  // measure 59
0010
0100
0110
1000
,  // measure 60
0001
0000
0100
0001
1000
0001
0010
0000
,  // measure 61
0100
0010
1002
0000
,  // measure 62
0103
0000
0010
1000
0000
0010
1000
0000
,  // measure 63
0001
0010
0021
0000
,  // measure 64
0130
0000
1000
0001
0200
0000
0010
0000
,  // measure 65
0310
1000
2001
0000
,  // measure 66
3100
0000
0010
0001
0000
0010
0001
0000
,  // measure 67
1000
0010
0200
0000
,  // measure 68
0301
0000
0010
0100
2000
0000
0001
0000
,  // measure 69
3001
0010
1002
0000
,  // measure 70
0103
0010
1000
0001
0000
0001
0010
0000
,  // measure 71
0100
1000
0102
0000
,  // measure 72
1003
0010
0100
0001
0000
0001
0010
0000
,  // measure 73
0100
0010
2001
0000
,  // measure 74
3010
0100
0001
0010
0000
0010
0100
0000
,  // measure 75
1000
0010
0102
1000
,  // measure 76
0023
0230
0001
0010
,  // measure 77
2300
0000
3001
0000
0011
0000
0010
0001
,  // measure 78
0000
0001
0010
0000
0100
0000
0010
0001
,  // measure 79
0010
0001
0010
0000
0100
0000
1000
0010
,  // measure 80
0000
0010
1000
0000
0001
0000
1000
0100
,  // measure 81
0010
0001
1000
0000
1001
0000
0001
0100
,  // measure 82
0000
0100
0001
0000
0010
0000
0100
1000
,  // measure 83
0100
1000
0001
0000
0100
0000
0001
0010
,  // measure 84
0000
0010
0001
0000
1000
0000
0001
0100
,  // measure 85
0010
1000
0001
0000
1001
0000
1000
0100
,  // measure 86
0000
0100
0010
0000
0001
0000
0100
0001
,  // measure 87
1000
0010
0100
0000
0001
0000
1000
0100
,  // measure 88
0000
0100
0010
0000
0001
0000
0010
0001
,  // measure 89
1000
0001
0100
0000
0110
0000
0010
1000
,  // measure 90
0001
1000
0100
0000
0110
0000
0100
1000
,  // measure 91
0001
1000
0010
0000
2010
0000
0010
0000
,  // measure 92
3001
0102
0100
1003
,  // measure 93
0010
0100
0010
1000
0020
0000
0000
0200
,  // measure 94
0300
0000
0200
0300
2030
3020
0100
2030
,  // measure 95
3020
0100
2030
3020
0230
0000
1000
1000
,  // measure 96
0000
0001
0001
0000
0310
0000
1000
0001
,  // measure 97
0000
0010
0100
0000
1200
1000
0010
1000
,  // measure 98
0010
1000
0010
1000
0320
0001
0100
0001
,  // measure 99
0100
0001
0100
0001
0230
0000
2300
3020
,  // measure 100
0230
2300
3200
0302
2003
0000
0100
0100
,  // measure 101
0000
0010
0010
0000
3200
0000
0000
0020
,  // measure 102
0030
0000
2300
0000
3002
0000
0000
0020
,  // measure 103
0030
0000
0200
0300
0023
0000
0000
0200
,  // measure 104
0300
0000
0200
0330
1000
0000
0000
1000
,  // measure 105
0000
0000
0002
0000
,  // measure 106
0000
0000
2000
0000
,  // measure 107
3003
0000
0000
0000
;
