#TITLE:Movie Love (Radio Edit);
#SUBTITLE:;
#ARTIST:Discoholic;
#TITLETRANSLIT:;
#SUBTITLETRANSLIT:;
#ARTISTTRANSLIT:;
#GENRE:;
#CREDIT:;
#BANNER:Movie Love (Radio Edit).png;
#BACKGROUND:Movie Love (Radio Edit)-bg.png;
#LYRICSPATH:;
#CDTITLE:CDtitle.png;
#MUSIC:Movie Love (Radio Edit).ogg;
#OFFSET:-0.045000;
#SAMPLESTART:38.917000;
#SAMPLELENGTH:17.288000;
#SELECTABLE:YES;
#BPMS:0.000000=118.000000
;
#STOPS:
;
#BGCHANGES:;
#KEYSOUNDS:;
#ATTACKS:;

//---------------dance-single - ----------------
#NOTES:
     dance-single:
     :
     Beginner:
     2:
     0.107458,0.170352,0.017699,0.017699,0.000000,85.000000,83.000000,2.000000,2.000000,0.000000,0.000000,0.107458,0.170352,0.017699,0.017699,0.000000,85.000000,83.000000,2.000000,2.000000,0.000000,0.000000:
// measure 0
0000
0000
0000
0000
,  // measure 1
0000
0000
0000
0000
,  // measure 2
0000
0000
0000
0000
,  // measure 3
0000
0000
1000
0000
,  // measure 4
0000
0000
0000
0001
,  // measure 5
0000
0000
0000
0100
,  // measure 6
0000
0000
0000
0010
,  // measure 7
0000
0000
1000
0000
,  // measure 8
0000
0000
0000
0000
,  // measure 9
0000
0000
0001
0000
,  // measure 10
1000
0000
0010
0000
,  // measure 11
0000
0000
0100
0000
,  // measure 12
0000
0000
0001
0000
,  // measure 13
0000
0000
0010
0000
,  // measure 14
0100
0100
0100
0000
,  // measure 15
0000
0000
1000
0000
,  // measure 16
0000
0000
0010
0000
,  // measure 17
0000
0000
0100
0000
,  // measure 18
0001
0001
0001
0000
,  // measure 19
0000
0000
2000
0000
,  // measure 20
3000
0000
0001
0000
,  // measure 21
0000
0000
0020
0000
,  // measure 22
0030
0000
0100
0000
,  // measure 23
0000
0000
0010
0000
,  // measure 24
0001
0000
1000
0000
,  // measure 25
0000
0000
0010
0000
,  // measure 26
1000
0000
0001
0001
,  // measure 27
0001
0000
1001
0000
,  // measure 28
0010
0000
0000
0000
,  // measure 29
0000
0000
1001
0000
,  // measure 30
0100
0000
0000
0000
,  // measure 31
0000
0000
1000
0000
,  // measure 32
0000
0000
0001
0000
,  // measure 33
0000
0000
0100
0100
,  // measure 34
0100
0000
0010
0010
,  // measure 35
0010
0000
1000
0000
,  // measure 36
0100
0000
1000
0000
,  // measure 37
0010
0000
0100
0100
,  // measure 38
0100
0000
0001
0001
,  // measure 39
0001
0000
1000
0000
,  // measure 40
0001
0000
0100
0000
,  // measure 41
0010
0000
0100
0000
,  // measure 42
0010
0010
0010
0000
,  // measure 43
0100
0000
0001
0000
,  // measure 44
0010
0000
0001
0000
,  // measure 45
1000
0000
0001
0000
,  // measure 46
0100
0100
0100
0000
,  // measure 47
0000
0000
0010
0000
,  // measure 48
0000
0000
1000
0000
,  // measure 49
0000
0000
0001
0000
,  // measure 50
0000
0000
1000
0000
,  // measure 51
0000
0000
0001
0000
,  // measure 52
1000
0000
0010
0000
,  // measure 53
0000
0000
0100
0000
,  // measure 54
0010
0000
1000
0001
,  // measure 55
1000
0000
0000
0000
;

//---------------dance-single - ----------------
#NOTES:
     dance-single:
     :
     Easy:
     5:
     0.174461,0.220020,0.088495,0.035398,0.000000,138.000000,128.000000,10.000000,4.000000,0.000000,0.000000,0.174461,0.220020,0.088495,0.035398,0.000000,138.000000,128.000000,10.000000,4.000000,0.000000,0.000000:
0000
0000
0000
0000
,
0000
0000
0000
0000
,
0000
0000
0000
0000
,
0000
0000
1001
0000
,
0000
0000
0001
1000
0000
0000
0000
0000
,
0000
0110
1001
0000
,
0000
0000
1000
0001
0000
0000
0000
0000
,
0000
0000
1001
0000
,
0000
0000
1000
0001
0000
0000
0000
0000
,
0000
0100
0000
0000
0010
0000
0000
0000
,
0100
0000
0001
0000
,
0000
0000
0000
0000
1000
0000
0000
0100
,
0000
0000
1000
0000
0001
0000
0000
0100
,
0000
0001
0010
0000
,
0100
1000
0010
0000
,
0100
0000
0001
0000
1000
0000
0000
0001
,
0000
0000
0010
0000
0100
0000
0000
1000
,
0000
0100
1000
0000
,
0001
0100
0010
0000
,
0000
0000
1001
0000
,
0010
0000
1000
0001
,
1000
0000
0110
0000
,
0001
0000
1000
0100
,
0010
0001
1001
0000
,
0001
1000
0010
1000
,
0100
0010
0000
0000
,
0100
1000
0010
0100
,
0001
0000
1000
0000
,
0001
0000
0000
0000
0000
0010
0000
0000
,
0000
0000
0100
0000
,
0010
0000
0000
0000
0000
0001
0000
0000
,
0000
0000
1000
0000
,
0001
0000
0100
0000
,
0010
0000
0100
0010
,
1000
0000
0001
0001
,
0001
0000
1000
0000
,
0001
0000
0010
0000
,
0100
0000
0010
0001
,
1000
0000
0010
0010
,
0010
0000
1000
1000
,
1000
0001
0100
0100
,
0100
0010
0000
0000
,
0100
0010
1001
0000
,
0000
0000
0001
0001
,
0001
0010
0100
0100
,
0100
1000
0010
0000
,
0100
0010
1001
0000
,
0000
0001
0200
0000
,
0300
0000
0020
0000
,
0030
0000
2000
0000
,
3000
0000
0001
0010
,
0100
1000
1001
0000
,
0001
1000
0010
1000
,
0100
0100
0000
0000
,
0010
0100
1000
0001
,
0200
0300
0000
0000
;

//---------------dance-single - ----------------
#NOTES:
     dance-single:
     :
     Medium:
     8:
     0.274334,0.342254,0.176990,0.230086,0.035398,217.000000,197.000000,20.000000,26.000000,0.000000,0.000000,0.274334,0.342254,0.176990,0.230086,0.035398,217.000000,197.000000,20.000000,26.000000,0.000000,0.000000:
0000
0000
0000
0000
,
0000
0000
0000
0000
,
0000
0000
0000
0000
,
0000
0000
1001
0000
,
0000
0000
0001
0100
0000
0000
0000
0000
,
0000
1010
0101
0000
,
0000
0000
0010
1001
0000
0000
0000
0000
,
1000
0100
0110
0000
,
0000
0000
0100
1000
0000
0000
0000
0000
,
0000
0001
0000
0000
0100
0000
0010
0000
,
1000
0000
0001
0000
1000
0001
1000
0000
,
0000
0000
0000
0000
0002
0000
0000
0103
,
0000
0000
0010
0000
2000
0000
0000
3100
,
0000
0010
0100
0010
0000
0000
0000
0100
,
1000
0000
0010
0000
0200
0000
0301
1000
,
0100
0010
0001
2000
0000
0000
3010
0000
,
0000
0000
0100
0000
0002
0000
0000
1003
,
0000
0100
0010
0100
0000
0000
0000
0010
,
0001
0100
0010
1000
0001
0000
0000
0000
,
1000
0000
0000
0000
0020
0200
0000
0000
,
0030
0000
0300
0000
0000
0000
0001
0000
1000
0000
0000
1000
0000
0000
1000
0000
,
0000
0100
0010
0001
2000
0002
0000
0000
,
3000
0003
0000
0000
0101
0000
0101
0000
,
1100
0011
1001
0000
,
0001
0100
0001
0000
0100
0000
0010
0000
,
1000
1000
1000
0000
0100
0000
0000
0000
,
0010
0000
0100
0000
1000
0100
0010
0001
,
1000
0000
0000
0000
1001
0000
0000
0001
,
0100
0000
0000
0000
0000
0000
0000
0000
0000
0000
0010
0000
0000
1000
0000
0000
,
0001
0000
0010
0000
1100
0000
0000
1000
,
0001
0000
0000
0000
0000
0000
0000
0000
0000
0000
0100
0000
0000
0100
0000
0000
,
0100
0000
0010
1000
,
0001
0010
0001
1000
,
0010
0000
1000
0000
0001
0010
0100
1000
,
0001
1000
0002
2003
,
0100
3100
0011
0001
,
0100
0001
0100
0000
0010
0000
1000
0000
,
1001
0000
0101
0000
0001
0010
0100
1000
,
0001
1000
0002
0203
,
0020
0330
2000
3200
,
0302
0103
2000
3020
,
0032
0000
0013
0100
0000
0000
0000
0010
,
0100
0001
1000
0100
0010
0000
0000
0000
,
0100
0010
0002
0023
,
2030
3010
0002
0203
,
1300
0100
0001
1000
0000
0000
0000
0001
,
0000
1000
0100
0010
0001
0000
0000
0000
,
0000
0000
0000
0000
0000
0000
0000
0000
0000
0000
1000
0000
0000
1000
0000
0000
,
1000
0000
0000
1000
0000
0000
0000
0000
0001
0000
0000
0000
0010
0000
0000
0100
,
0000
0000
0000
0000
0010
0000
0000
0000
0000
0000
0001
0000
0000
0001
0000
0000
,
0001
0000
0000
0001
0000
0000
0000
0000
1001
0000
0000
0000
1001
0000
0000
0000
,
1010
0110
0101
0000
,
1000
0010
1000
0000
0010
0000
0100
0000
,
0001
0001
0001
0000
0000
0000
0000
0000
,
0010
0000
0100
0000
0010
0001
1000
0010
,
0200
0300
0000
0000
;

//---------------dance-single - ----------------
#NOTES:
     dance-single:
     :
     Hard:
     11:
     0.379263,0.440040,0.265484,0.256635,0.092920,300.000000,270.000000,30.000000,29.000000,0.000000,0.000000,0.379263,0.440040,0.265484,0.256635,0.092920,300.000000,270.000000,30.000000,29.000000,0.000000,0.000000:
0000
0000
0000
0000
,
0000
0000
0000
0000
,
0000
0000
0000
0000
,
0000
0000
1001
0000
,
0000
0000
0001
0100
0000
0000
0000
0000
,
0000
0110
1001
0000
,
0000
0000
0000
0000
1000
0001
0010
0000
0000
0000
0000
0000
0000
0000
0000
0000
,
0100
0010
1001
0000
,
0000
0000
1000
0010
0000
0000
0000
0000
,
0000
1002
0000
0000
1003
0000
0010
0000
,
0100
0000
0010
1000
0001
0010
0100
0000
,
0010
0000
0001
0000
2000
0000
0100
3100
,
0000
1000
0010
0100
0002
0000
0010
0013
,
0000
0100
0010
0001
0000
0000
0000
1000
,
0100
0010
0001
1000
0002
0000
0100
0103
,
0010
0100
0010
2000
0000
0000
0010
3010
,
0000
0100
0001
0010
0002
0000
0010
0013
,
0000
0100
0010
0100
0000
0000
0000
0010
,
0001
0100
1000
0100
0001
0000
0000
0000
,
1000
0100
0010
0001
1001
1002
0000
0000
,
0100
0000
0103
0000
0000
0000
0010
0000
1000
0000
0000
0100
0000
0000
1000
0000
,
0000
0100
1000
0001
1001
2001
0000
0000
,
0010
3010
0000
0100
0110
0000
1001
0000
,
1010
0000
0000
0000
0011
0000
0000
0000
1001
0000
0000
0000
0000
0000
0001
1000
,
0100
0000
0010
0000
0100
0000
0000
0000
0010
0000
0001
0010
0001
0000
1000
0000
,
0001
0000
0100
0000
0001
0000
0000
0000
0000
0000
0000
0000
0000
0000
1000
0100
,
0010
0000
0100
0000
1000
0000
0010
0100
0001
0000
1000
0000
0100
0010
0001
0000
,
1000
0000
0000
0000
1001
0000
0000
0001
,
0011
0000
0000
0000
0000
0000
0000
0000
0000
0000
1100
0000
0000
0001
0000
0000
,
1000
0010
0000
0000
0101
0000
0000
0000
1001
0000
0000
0000
0000
0000
1000
0000
,
1010
0000
0000
0000
0000
0000
0000
0000
0000
0000
1100
0000
0000
0101
0000
0000
,
1001
0000
2000
0100
,
0010
3001
0002
0100
,
0010
0000
1003
0000
0001
0010
0100
1000
,
0001
0100
0001
1000
1001
0000
0110
0000
,
2001
0000
3002
0000
1003
0100
0001
0100
,
1000
0001
1001
0000
0000
1000
0010
0001
,
0020
0000
0230
0000
0301
0010
0100
1000
,
0001
1000
0100
0010
0011
0000
1100
0000
,
1001
1000
0100
0010
0002
0000
2003
0000
,
3100
1000
0001
1000
0002
0000
2003
0000
,
3010
0100
0001
1000
0000
0000
0000
1000
,
0001
0100
1000
0010
0001
0000
0000
0000
,
1000
0010
1000
0001
2000
0000
3002
0000
,
0013
0100
1000
0001
2000
0000
3002
0000
,
0013
0001
0100
0001
0000
0000
0000
2000
,
0000
0000
3001
0000
0100
0000
1000
0000
0010
0000
0001
0000
0000
0001
0000
0000
,
0001
0000
1000
0000
0100
0000
0010
0000
0001
0000
0100
0000
0000
0100
0000
0000
,
0100
0000
0000
0100
0000
0000
0010
0000
2000
0000
0000
0000
0001
0000
0000
3001
,
0000
0000
0010
0000
0100
0000
1000
0000
0001
0000
0100
0000
0000
0100
0000
0000
,
0100
0000
0000
0100
0000
0000
0010
0000
0200
0000
0000
0000
0302
0000
0000
0000
,
0023
0000
0000
0000
0230
0000
0000
0000
1300
0000
0000
0000
0000
0000
0001
1000
,
0010
0000
1000
0000
0100
0000
0000
0000
0010
0000
0100
0010
0001
0000
0010
0000
,
0001
0000
1000
0000
0001
0000
0000
0000
0000
0000
0000
0000
0000
0000
1000
0001
,
0100
0000
0001
0000
0010
0000
0100
1000
0010
0000
0100
0000
0010
1000
0001
0000
,
0020
0030
0000
0000
;

//---------------dance-double - ----------------
#NOTES:
     dance-double:
     :
     Easy:
     5:
     0.170669,0.317807,0.115043,0.035398,0.000000,135.000000,122.000000,13.000000,4.000000,0.000000,0.000000,0.170669,0.317807,0.115043,0.035398,0.000000,135.000000,122.000000,13.000000,4.000000,0.000000,0.000000:
00000000
00000000
00000000
00000000
,
00000000
00000000
00000000
00000000
,
00000000
00000000
00000000
00000000
,
00000000
00000000
10010000
00000000
,
00000000
00100000
00000000
00000000
,
00000000
00001000
00010000
00000000
,
00000000
00000000
00000000
00011000
00000000
00000000
00000000
00000000
,
00000000
00000000
00000100
00000000
,
00000000
00001000
00000000
00000000
,
00000000
00000010
00000000
00000000
00000100
00000000
00000000
00000000
,
00000001
00000000
00001000
00000000
,
00000000
00000000
00000001
00000000
,
00000100
00000000
00000010
00001000
,
00000010
00000000
00010000
00000000
,
00001000
00001000
00001000
00000000
,
01000000
00100000
10000000
00000000
,
00000000
01000000
00100000
00000000
,
00000000
01000000
10000000
00000000
,
00010000
00000000
00110000
00000000
,
00000000
00000000
00002000
00000000
,
00013000
00000000
00000100
00000100
,
00000100
00001000
00000002
00000000
,
00000103
00000000
00000110
00001001
,
00000110
00001001
00000110
00000000
,
00000010
00010000
00001000
01000000
,
00100000
10000000
00000000
00000000
,
01000000
00100000
00001000
00010000
,
00011000
00000000
00010000
00000000
,
00000100
00000000
00000000
00000000
00000000
00001000
00000000
00000000
,
00000000
00000000
00000010
00000000
,
00000100
00000000
00000000
00000000
00000000
00000001
00000000
00000000
,
00000000
00000000
00000010
00000000
,
00000100
00000000
00001000
00000000
,
00000100
00000100
00010000
00000000
,
00001000
00000000
01000000
00100000
,
01000000
00000000
00100000
00000000
,
10000000
00000000
00010000
00100000
,
00010000
00000000
00100000
00100000
,
00100000
00000000
00001000
00010000
,
00011000
00000000
00010000
00000100
,
00010000
00000000
00001000
00010000
,
00001000
00000000
01000000
00000000
,
00100000
01000000
10010000
00000000
,
10000000
01000000
00100000
00010000
,
00100000
00000000
00001000
00010000
,
00001000
00000000
00010000
00000000
,
00000010
00000000
00000110
00000000
,
00000000
00000000
00000002
00000000
,
00000000
00000000
00001003
00001000
,
00001000
00000000
00000100
00000000
,
00000000
00000000
00010000
00001000
,
01000000
00100000
10010000
00000000
,
10000000
01000000
00100000
00001000
,
00010000
00000100
00000000
00000000
,
00001000
00000010
00000100
00000001
,
00002000
00003000
00000000
00000000
;

//---------------dance-double - ----------------
#NOTES:
     dance-double:
     :
     Medium:
     8:
     0.281919,0.391147,0.221237,0.203538,0.035398,223.000000,198.000000,25.000000,23.000000,0.000000,0.000000,0.281919,0.391147,0.221237,0.203538,0.035398,223.000000,198.000000,25.000000,23.000000,0.000000,0.000000:
00000000
00000000
00000000
00000000
,
00000000
00000000
00000000
00000000
,
00000000
00000000
00000000
00000000
,
00000000
00000000
10010000
00000000
,
00000000
00000000
00100000
00001000
00000000
00000000
00000000
00000000
,
00000000
00010000
00011000
00000000
,
00000000
00000000
00010000
00010100
00000000
00000000
00000000
00000000
,
00000100
00001000
00000110
00000000
,
00000000
00000000
00000100
00000101
00000000
00000000
00000000
00000000
,
00000000
00000002
00000000
00000000
00001003
00000000
00000100
00000000
,
00010000
00000000
00001000
00000000
01000000
00100000
01000000
00000000
,
00100000
00000000
10000000
00000000
02000000
00000000
00100000
03100000
,
00000000
01000000
10000000
00000000
00200000
00000000
01000000
01300000
,
00000000
00010000
10000000
00010000
00000000
00000000
00000000
00100000
,
00001000
00000000
00010000
00000100
00010000
00000000
00000000
00000000
,
00000100
00000000
00001000
00000000
00000020
00000000
00000100
00000130
,
00000000
00000001
00000010
00000000
00000200
00000000
00000010
00000310
,
00000000
00000100
00001000
00000001
00000000
00000000
00000000
00000100
,
00000010
00010000
00022000
00000000
,
00033000
00000000
00102000
00000000
,
00010000
00000000
00013000
00000000
00000000
00000000
00000000
00000000
00001000
00000000
00000000
01000000
00000000
00000000
00100000
00000000
,
00000000
10000000
01000000
00000000
00120000
00000000
00000000
00000000
,
01000000
01030000
00000000
00000000
01100000
00000000
10010000
00000000
,
01100000
10010000
01010000
00000000
,
00010000
01000000
00010000
00000000
00100000
00000000
00001000
00000000
,
00010000
00010000
00010000
00000000
00000000
00000000
00000000
00000100
,
00001000
00000000
00000100
00000000
00000010
00000001
00000100
00000010
,
00001000
00000000
00000000
00000000
00001001
00000000
00000000
00000001
,
00000100
00000000
00000000
00000000
00000000
00000000
00000000
00000000
00000000
00000000
00000010
00000000
00000000
00010000
00000000
00000000
,
00001000
00000000
00010000
00000000
00011000
00000000
00000000
00001000
,
01000000
00000000
00000000
00000000
00000000
00000000
00000000
00000000
00000000
00000000
00100000
00000000
00000000
00100000
00000000
00000000
,
00100000
00000000
10000000
01000000
,
00010000
01000000
10000000
00010000
,
00100000
00001000
00010000
00000100
,
00001000
00000010
00000002
00000023
,
00002030
00003001
00000010
00000100
,
00001000
00001000
00000100
00000000
00010000
00000000
00001000
00000000
,
00011000
00000000
00101000
00000000
00001000
01000000
00100000
10000000
,
01000000
00100000
00110000
11000000
,
00110000
00000000
00200000
00302000
,
00023000
00031000
00020000
00030200
,
00001300
00000100
00001000
00000000
,
00000010
00000100
00000001
00001000
00000010
00000000
00000000
00000000
,
00000100
00000001
00002000
00003200
,
00020300
00031000
00020000
00030200
,
00001300
00000100
00000010
00000001
00000000
00000000
00000000
00001000
,
00000000
00000001
00000100
00000010
00001000
00000000
00000000
00000000
,
00000000
00000000
00000000
00000000
00000000
00000000
00000000
00000000
00000000
00000000
00000100
00000000
00000000
00000100
00000000
00000000
,
00010000
00000000
00000000
00010000
00000000
00000000
00001000
00000000
01000000
00000000
00000000
00000000
00100000
00000000
00000000
10000000
,
00000000
00000000
00000000
00000000
00010000
00000000
00000000
00000000
00000000
00000000
00100000
00000000
00000000
00100000
00000000
00000000
,
00001000
00000000
00000000
00001000
00000000
00000000
00000000
00000000
00011000
00000000
00000000
00000000
00001100
00000000
00000000
00000000
,
00000110
00000011
00001001
00000000
,
00000001
00000100
00000001
00000000
00000100
00000000
00000010
00000000
,
00001000
00001000
00001000
00000000
00000000
00000000
00000000
00000000
,
00000100
00000000
00010000
00000000
00001000
01000000
00001000
00010000
,
00002000
00003000
00000000
00000000
;

//---------------dance-double - ----------------
#NOTES:
     dance-double:
     :
     Hard:
     10:
     0.356508,0.391147,0.300882,0.230086,0.070796,282.000000,248.000000,34.000000,26.000000,0.000000,0.000000,0.356508,0.391147,0.300882,0.230086,0.070796,282.000000,248.000000,34.000000,26.000000,0.000000,0.000000:
00000000
00000000
00000000
00000000
,
00000000
00000000
00000000
00000000
,
00000000
00000000
00000000
00000000
,
00000000
00000000
10010000
00000000
,
00000000
00000000
01000000
00001000
00000000
00000000
00000000
00000000
,
00000000
00011000
00001010
00000000
,
00000000
00000000
00000100
00001001
00000000
00000000
00000000
00000000
,
00000001
00001000
00001100
00000000
,
00000000
00000000
00000100
00010100
00000000
00000000
00000000
00000000
,
00000000
00002000
00000000
00000000
01003000
00000000
00100000
00000000
,
10000000
00000000
01000000
10000000
00100000
01000000
00010000
00000000
,
00100000
00000000
00001000
00000000
00020000
00000000
00000100
00030100
,
00000000
00001000
00000010
00001000
00000200
00000000
00010000
00010300
,
00000000
00001000
00010000
00001000
00000000
00000000
00000000
00010000
,
00001000
01000000
10000000
01000000
00020000
00000000
10000000
10030000
,
00100000
01000000
00001000
00020000
00000000
00000000
00000010
00030010
,
00000000
00000100
00000001
00001000
00000200
00000000
00010000
00010300
,
00000000
00001000
00010000
00001000
00000000
00000000
00000000
00010000
,
00000010
00000001
00000010
00001000
00000001
00000000
00000000
00000000
,
00000110
00000000
00000000
00000000
00000010
00020000
00000000
00000000
,
00001000
00000000
00031000
00000000
00000000
00000000
00100000
00000000
00001000
00000000
00000000
00010000
00000000
00000000
00011000
00000000
,
00000000
00001000
01000000
00001000
00010000
00000200
00000000
00000000
,
00001000
00001300
00000000
00000100
00000110
00000000
00001100
00000000
,
00010100
00000000
00000000
00000000
00011000
00000000
00000000
00000000
01001000
00000000
00000000
00000000
00000000
00000000
01000000
00100000
,
01000000
00010000
10000000
00000000
00010000
00100000
00001000
00010000
,
00001000
00000000
00001000
00000000
00001000
00000000
00000000
00000000
00000000
00000000
00000000
00000000
00000000
00000000
00010000
00000100
,
00010000
00000000
00000100
00000000
00001000
00000000
00000010
00000100
00000010
00000000
00001000
00000000
00000001
00001000
00000001
00000000
,
00000200
00000000
00000300
00000000
00000110
00000000
00000000
00000010
,
00001010
00000000
00000000
00000000
00000000
00000000
00000000
00000000
00000000
00000000
00001100
00000000
00000000
00011000
00000000
00000000
,
01001000
00000000
01100000
00000000
10010000
00000000
00000000
10000000
,
11000000
00000000
00000000
00000000
00000000
00000000
00000000
00000000
00000000
00000000
01100000
00000000
00000000
00110000
00000000
00000000
,
00101000
00000000
00010000
00000100
,
00001000
00000100
00001000
00000000
00000010
00000000
00000100
00000000
,
00000102
00000000
00000013
00000000
00000100
00000010
00000001
00001000
,
00000010
00000000
00010000
00001000
00020000
00000000
00030200
00000000
,
00001300
00000000
00001001
00000000
00000001
00000100
00001000
00000100
,
00000001
00001000
00000010
00000000
00000000
00010000
00000100
00010000
,
00002000
00000000
01003000
00000000
00100000
01000000
00010000
10000000
,
01000000
00100000
00001000
00010000
00002000
00000000
00023000
00000000
,
00002000
00033000
00200000
00302000
,
00013000
00011000
00020000
00030200
,
00001300
00000000
00010100
00000000
00000000
00000000
00000000
00001000
,
00100000
00001000
00010000
00000010
00000100
00000000
00000000
00000000
,
00000010
00001000
00000100
00010000
00002000
00000000
02003000
00000000
,
03100000
01100000
02000000
03002000
,
00013000
00000100
00010000
00001000
00000000
00000000
00000000
00100000
,
00000000
00000000
01000000
00000000
10000000
00000000
00100000
00000000
01000000
00000000
00010000
00000000
00000000
00010000
00000000
00000000
,
00010000
00000000
00000000
00000000
00000000
00000000
00000000
00000000
00000000
00000000
00100000
00000000
00000000
00100000
00000000
00000000
,
00001000
00000000
00000000
00001000
00000000
00000000
00000000
00000000
00020000
00000000
00000000
00000000
00000100
00000000
00000000
00030100
,
00000000
00000000
00001000
00000000
00000010
00000000
00000100
00000000
00000001
00000000
00001000
00000000
00000000
00001000
00000000
00000000
,
00000100
00000000
00000000
00000100
00000000
00000000
00001000
00000000
00001100
00000000
00000000
00000000
00010100
00000000
00000000
00000000
,
00011000
00000000
00000000
00000000
00101000
00000000
00000000
00000000
00110000
00000000
00000000
00000000
00000000
00000000
01000000
10000000
,
01000000
10000000
00100000
00000000
01000000
10000000
01000000
00010000
,
00100000
00000000
00100000
00000000
00100000
00000000
00000000
00000000
00000000
00000000
00000000
00000000
00000000
00000000
00001000
00100000
,
00001000
00000000
00010000
00000000
00000100
00000000
00001000
00000100
00001000
00000000
00000100
00000000
00000001
00000000
00000100
00000000
,
00002000
00003000
00000000
00000000
;
