#TITLE:Mi Amor;
#SUBTITLE:;
#ARTIST:Dhurata Dora ft. Noizy;
#TITLETRANSLIT:;
#SUBTITLETRANSLIT:;
#ARTISTTRANSLIT:;
#GENRE:;
#CREDIT:;
#BANNER:Mi Amor.png;
#BACKGROUND:Mi Amor-bg.png;
#LYRICSPATH:;
#CDTITLE:;
#MUSIC:Mi Amor.ogg;
#OFFSET:-0.026000;
#SAMPLESTART:50.365002;
#SAMPLELENGTH:15.000000;
#SELECTABLE:YES;
#BPMS:0.000000=118.000000
;
#STOPS:
;
#BGCHANGES:;
#KEYSOUNDS:;
#ATTACKS:;

//---------------dance-single - ----------------
#NOTES:
     dance-single:
     :
     Hard:
     15:
     0.639970,0.791090,0.362826,0.236948,0.599773,605.000000,556.000000,49.000000,32.000000,0.000000,0.000000,0.639970,0.791090,0.362826,0.236948,0.599773,605.000000,556.000000,49.000000,32.000000,0.000000,0.000000:
// measure 0
0000
0000
0000
0000
,  // measure 1
0000
0000
0000
0000
,  // measure 2
0000
0000
0000
0000
,  // measure 3
0000
0000
0000
0000
,  // measure 4
1000
0000
0001
0000
1000
0000
0001
0000
0020
0000
0000
0000
0130
0010
0100
0000
,  // measure 5
1000
0000
0010
0000
1000
0000
0010
0000
0100
0001
0100
0001
0010
0000
0000
0000
,  // measure 6
0001
0000
1000
0000
0001
0000
1000
0000
0200
0000
0000
0000
0310
0100
0010
0000
,  // measure 7
0001
0000
0100
0000
0010
1000
0100
0000
0010
0001
0100
0000
0110
0000
0100
0000
,  // measure 8
2002
0000
0000
3003
,  // measure 9
0002
0000
0000
0103
0001
0000
0010
0000
0200
0000
0000
1300
0100
0000
0010
0000
,  // measure 10
0002
0000
0000
0103
0001
0000
0010
0000
0100
0000
1000
0010
0100
0000
0001
0000
,  // measure 11
2000
0000
0000
3100
1000
0000
0010
0000
0100
0000
0001
0010
0100
0000
1000
0000
,  // measure 12
0001
0000
1000
0000
0100
0000
0010
0000
1000
0000
0010
0000
0001
0000
0100
0010
,  // measure 13
1000
0000
0001
0000
0202
0000
0303
0000
0001
0100
0000
0010
0100
0000
0001
1000
,  // measure 14
0100
0000
0010
0000
0220
0000
0330
0000
0100
1000
0000
0010
1000
0000
0100
0010
,  // measure 15
0001
1000
0001
0000
2002
0000
3003
0000
0001
0010
0000
0100
0010
0001
1000
0010
,  // measure 16
1000
0000
0100
0010
0000
0100
1000
0000
0010
0000
0100
0001
0000
0010
0001
0000
,  // measure 17
2001
0000
0000
3010
0100
0000
0001
0000
0010
0001
0010
0001
0100
0010
1000
0000
,  // measure 18
0100
0000
1000
0010
1000
0000
0100
0000
0010
0000
0001
0100
0001
0000
1000
0000
,  // measure 19
1002
0000
0000
0013
0100
0000
1000
0000
0010
1000
0010
1000
0010
0100
0001
0000
,  // measure 20
0010
0000
0001
0000
0100
0000
0010
0000
0001
0000
0010
0100
0010
0000
1000
0000
,  // measure 21
1001
0000
0000
0000
1000
0001
0100
0010
1000
0000
0001
0000
0011
0000
0000
0000
,  // measure 22
0100
1000
0001
0000
0101
0000
0100
0001
1000
0000
0100
0000
1100
0000
0000
0000
,  // measure 23
1001
0000
0000
0000
0001
0010
0100
1000
0001
0000
0100
0000
0101
0000
0000
0000
,  // measure 24
0001
0010
1000
0010
0001
0000
0100
0010
,  // measure 25
1000
0001
0100
0010
1000
0000
0100
0001
,  // measure 26
0100
1000
0000
0010
0000
0100
0001
0000
0010
0001
0000
0100
0000
0010
1000
0000
,  // measure 27
0001
1000
0100
0010
0001
0000
0100
1000
,  // measure 28
0100
0001
0000
1000
0000
0100
1000
0000
0020
0000
0000
0000
0230
0000
0000
0300
,  // measure 29
0102
0000
0000
0103
0001
0000
0010
0000
2100
0000
0000
3100
1000
0000
0010
0000
,  // measure 30
0100
0001
0000
0001
1000
0000
0100
0000
1100
0000
0100
0010
0100
0000
1000
0000
,  // measure 31
2010
0000
0000
3010
1000
0000
0100
0000
0012
0000
0000
0013
0001
0000
0100
0000
,  // measure 32
0010
1000
0000
1000
0001
0000
0100
0000
0010
0000
0000
0000
0000
1000
0100
1000
,  // measure 33
0010
0000
0100
0000
0000
0100
0001
0000
0001
1000
0000
1000
0000
1000
0010
0100
,  // measure 34
0001
0000
0010
0100
0001
0000
0100
1000
0010
0100
0000
0100
0000
0100
0001
0010
,  // measure 35
0001
0000
1000
0000
0000
0010
1000
0000
1000
0001
0000
0001
0000
0001
0010
0001
,  // measure 36
1000
0000
1000
0000
0010
0100
1000
0000
0100
0001
0000
0001
1000
0100
0010
0000
,  // measure 37
0011
0000
1010
0000
1100
0000
0101
0000
1001
0000
0001
0010
0001
0000
1000
0010
,  // measure 38
1010
0000
0011
0000
0101
0000
1100
0000
1001
0000
1000
0010
1000
0100
0010
0001
,  // measure 39
0101
0000
1100
0000
1010
0000
0011
0000
1001
0000
1000
0010
1000
0000
0001
1000
,  // measure 40
1001
0000
0110
0000
1001
0000
0110
0000
1001
0000
0000
0001
0100
0001
0100
1000
,  // measure 41
0100
0000
0001
0000
0000
0000
0010
0100
0010
0000
0001
0000
0100
0010
1000
0001
,  // measure 42
0010
0000
0100
1000
0000
0001
1000
0000
0010
0000
0100
0000
0001
0100
1000
0100
,  // measure 43
0001
0000
1000
0000
0000
0000
0100
0010
0100
0000
1000
0000
0010
0100
0001
1000
,  // measure 44
0100
0000
0010
0001
0000
1000
0001
0000
0100
0000
0010
0000
1000
0100
0001
0100
,  // measure 45
1000
0000
0001
0000
0000
0000
0110
0000
1001
0000
0000
0000
0000
1000
0010
0100
,  // measure 46
0001
0000
0010
0001
0000
0001
0100
0000
0010
0000
1000
0100
0000
0100
0010
0001
,  // measure 47
1000
0000
0001
0000
0000
0000
0110
0000
1001
0000
0000
0000
0001
0010
0100
0010
,  // measure 48
0001
0000
0100
0000
0000
0000
0100
0010
1001
0000
0000
0000
1000
0000
0010
0000
,  // measure 49
1000
0001
0100
0010
1000
0000
0100
0001
,  // measure 50
0100
1000
0000
0010
0000
0100
0001
0000
0010
0001
0000
0100
0000
0010
1000
0000
,  // measure 51
0001
1000
0100
0010
0001
0000
0100
1000
,  // measure 52
0100
0001
0000
1000
0000
0100
1000
0000
0020
0000
0000
0000
0230
0000
0000
0300
,  // measure 53
0102
0000
0000
0103
0001
0000
0010
0000
2100
0000
0000
3100
1000
0000
0010
0000
,  // measure 54
0100
0001
0000
0001
1000
0000
0100
0000
1100
0000
0100
0010
0100
0000
1000
0000
,  // measure 55
2010
0000
0000
3010
1000
0000
0100
0000
0012
0000
0000
0013
0001
0000
0100
0000
,  // measure 56
0010
1000
0000
1000
0001
0000
0010
0000
0100
0000
0100
0000
0100
0000
0100
0000
,  // measure 57
0100
0000
0010
0001
0100
0000
0010
0000
0200
0000
0000
0301
0010
0001
0010
0000
,  // measure 58
0100
0000
1000
0010
0100
0010
1000
0000
0001
0010
0100
0010
0001
0000
0000
0000
,  // measure 59
0100
0000
0010
1000
0100
0000
0010
0001
0200
0000
0000
0301
0010
0001
0010
0000
,  // measure 60
0100
0000
1000
0000
0010
0100
0001
0000
0010
0100
1000
0000
0010
0100
0001
0000
,  // measure 61
0001
0000
0100
0000
0010
0000
1000
0000
0200
0000
0000
1300
0010
1000
0010
0000
,  // measure 62
0100
0000
0100
0001
0010
0000
0100
0000
1000
0010
0100
0010
1000
0000
0000
0000
,  // measure 63
0100
0000
0010
0001
0100
0000
0010
1000
0200
0000
0000
1300
0010
1000
0010
0000
,  // measure 64
1000
0000
1000
0000
0001
0000
0001
0000
1000
0010
0100
0001
1001
0000
0000
0000
;

//---------------dance-single - ----------------
#NOTES:
     dance-single:
     :
     Beginner:
     4:
     0.155497,0.286558,0.185115,0.000000,0.000000,147.000000,122.000000,25.000000,0.000000,0.000000,0.000000,0.155497,0.286558,0.185115,0.000000,0.000000,147.000000,122.000000,25.000000,0.000000,0.000000,0.000000:
0000
0000
0000
0000
,
0000
0000
0000
0000
,
0000
0000
0000
0000
,
0000
0000
0000
0000
,
1000
0000
0000
0000
,
1000
0000
1000
0000
,
1000
0000
0000
0000
,
1000
0000
1000
0000
,
1001
0000
0000
0000
,
1000
0000
0000
0000
,
1000
0000
0000
0000
,
1000
0000
0000
0000
,
1000
0000
0000
0000
,
1000
1000
1000
0000
,
1000
1000
1000
0000
,
1000
1000
1000
0000
,
1000
0000
1000
0000
,
1000
0000
0000
0000
,
1000
0000
1000
0000
,
1000
0000
0000
0000
,
1000
0000
1000
0000
,
1000
0000
0000
0000
,
1000
0000
0000
0000
,
1000
0000
0000
0000
,
1000
0000
1000
0000
,
1000
1000
1000
0000
,
1000
1000
1000
0000
,
1000
1000
1000
0000
,
1000
1000
1000
1000
,
1001
0000
0110
0000
,
1001
0000
0110
0000
,
1001
0000
0110
0000
,
1001
1001
1001
0000
,
0001
0000
0000
0000
,
0001
0000
0000
0000
,
0001
0000
0000
0000
,
0001
0000
0001
0000
,
0001
0001
0001
0000
,
0001
0001
0001
0000
,
0001
0001
0001
0000
,
0001
0001
0001
0000
,
0001
0000
0001
0000
,
0001
0001
0001
0000
,
0001
0000
0001
0000
,
0001
0001
0001
0000
,
1001
0000
0000
0000
,
1001
0000
0110
0000
,
1001
0000
0000
0000
,
1001
0000
1001
0000
,
1000
1000
1000
0000
,
0001
0001
0001
0000
,
1000
1000
1000
0000
,
0001
0001
0001
0001
,
1001
0000
0110
0000
,
1001
0000
0110
0000
,
1001
0000
0110
0000
,
1001
1001
1001
0000
,
1000
0000
0000
0000
,
1000
0000
1000
0000
,
1000
0000
0000
0000
,
1000
0000
1000
0000
,
0001
0000
0000
0000
,
0001
0000
0001
0000
,
0001
0000
0000
0000
,
0001
0000
0001
0000
;

//---------------dance-single - ----------------
#NOTES:
     dance-single:
     :
     Medium:
     13:
     0.510918,0.719173,0.251757,0.148092,0.285078,483.000000,449.000000,34.000000,20.000000,0.000000,0.000000,0.510918,0.719173,0.251757,0.148092,0.285078,483.000000,449.000000,34.000000,20.000000,0.000000,0.000000:
0000
0000
0000
0000
,
0000
0000
0000
0000
,
0000
0000
0000
0000
,
0000
0000
0000
0000
,
1000
0000
0001
0000
0100
0000
0010
0000
1000
0000
0000
0000
0100
0010
0100
0000
,
1000
0000
0100
0000
0001
0000
0100
0000
1000
0010
1000
0000
0001
0000
0000
0000
,
0001
0000
1000
0000
0100
0000
0010
0000
0001
0000
0000
0000
0100
0010
0100
0000
,
0001
0000
0100
0000
1000
0100
0010
0000
1000
0100
0001
0000
0100
0000
0000
0000
,
0220
0000
0000
0330
,
1001
0000
0000
0001
0010
0100
1000
0000
,
0000
0000
0010
0000
0100
0000
0001
0000
0010
0000
0100
1000
0100
0000
0000
0000
,
1000
0000
0000
1000
0010
0100
0001
0000
,
0000
0000
0010
0000
0100
0000
1000
0000
0010
0000
0100
0000
0001
0000
0010
0100
,
0010
0000
0001
0000
1000
0000
0000
0000
0010
0100
0000
0010
0100
0000
0000
0000
,
0010
0000
1000
0000
0001
0000
0000
0000
0010
0100
0000
0010
0100
0000
0000
0000
,
1000
0001
1000
0000
0100
0000
0000
0000
0010
0100
0000
0010
0100
0000
0000
0000
,
0120
0000
0000
0100
0000
0000
0130
0000
2001
0000
0000
0001
0000
0000
3001
0000
,
0110
0000
0000
0000
0000
0000
0000
0000
1000
0010
1000
0000
0001
0010
0001
0000
,
1000
0010
0001
0010
1000
0100
0001
0100
,
0110
0000
0000
0000
0000
0000
0000
0000
0001
0100
0001
0000
1000
0100
1000
0000
,
0001
0100
1000
0100
0001
0010
1000
0010
,
1001
0000
1000
0010
0100
0001
0101
0000
,
0010
0001
0010
0000
0100
0000
1000
0000
0010
0000
0100
0000
0101
0000
0000
0000
,
0001
0000
0001
0100
0010
1000
1010
0000
,
1000
0010
0001
0010
2000
0000
3100
0000
,
0100
1000
0010
0100
0001
0000
0010
0100
,
1000
0000
0010
0100
0001
0000
0100
0010
,
1000
0100
0001
0100
1000
0000
0010
0100
,
0001
0000
0010
0100
0020
0000
0032
0000
,
2003
0000
0000
3010
1000
0000
0100
0000
0020
0000
0000
0031
0010
0000
0100
0000
,
1000
0010
0000
0010
0100
0000
0001
0000
0010
0000
0100
1000
0100
0000
0010
0000
,
0002
0000
0000
0013
0001
0000
0100
0000
0020
0000
0000
1030
0010
0000
0100
0000
,
0001
0010
0000
0010
0100
0000
1000
0000
0001
0000
0000
0000
0000
0000
0000
0000
,
1001
0000
0000
0000
0000
0000
0000
0000
1000
0010
0000
0010
0000
0010
0100
0000
,
0001
0000
0010
0000
0100
0010
0100
0000
1000
0100
0000
0100
0000
0100
0010
0000
,
0001
0000
0100
0000
0000
0000
0100
0000
0001
0010
0000
0010
0000
0010
0100
0000
,
1000
0000
0010
0000
0100
0010
0100
0000
0001
0100
0000
0100
0000
0100
0010
0000
,
1001
0110
1001
0110
1001
1000
0001
0010
,
1001
0000
0110
0000
1001
0000
0110
0000
1001
0000
0001
0100
0001
0000
1000
0000
,
1001
0000
0110
0000
1001
0000
0110
0000
1001
0000
1000
0100
0010
0000
0001
0000
,
1001
0110
1001
0110
1001
0000
1000
0000
,
0001
0000
0100
0000
0000
0000
0010
1000
0100
0000
0010
0000
0001
0000
0100
0001
,
0010
0000
0100
0010
0000
0000
1000
0000
0010
0000
0010
0000
0001
0100
0010
0000
,
1000
0000
0100
0000
0000
0000
0010
0001
0100
0000
0010
0000
1000
0000
0100
1000
,
0010
0000
0100
0010
0000
0000
0001
0000
0010
0000
0010
0000
1000
0100
0010
0000
,
0002
0000
0000
0103
0101
0000
0000
0000
,
1000
0000
0000
1000
0000
0000
0010
0000
0100
0000
0010
0000
1000
0100
1000
0100
,
0010
2000
0000
3010
0110
0000
0010
0001
,
2000
0000
0000
3100
1100
0000
0100
0000
,
0100
1000
0010
0100
0001
0000
0010
0100
,
1000
0000
0010
0100
0001
0000
0100
0010
,
1000
0100
0001
0100
1000
0000
0010
0100
,
0001
0000
0010
0100
0020
0000
0032
0000
,
2003
0000
0000
3010
1000
0000
0100
0000
0020
0000
0000
0031
0010
0000
0100
0000
,
1000
0010
0000
0010
0100
0000
0001
0000
0010
0000
0100
1000
0100
0000
0010
0000
,
0002
0000
0000
0013
0001
0000
0100
0000
0020
0000
0000
1030
0010
0000
0100
0000
,
0001
0010
0000
0010
0100
0000
1000
0000
0001
0000
0000
0000
0000
0000
0000
0000
,
0001
0000
1000
0000
0100
0000
0010
0000
0001
0000
0000
0000
0100
0010
0100
0000
,
0001
0000
0100
0000
1000
0000
0100
0000
0001
0010
0001
0000
1000
0000
0000
0000
,
1000
0000
0001
0000
0100
0000
0010
0000
1000
0000
0000
0000
0100
0010
0100
0000
,
1000
0000
1000
0000
0010
0100
0010
0000
1000
0001
1000
0000
0100
0010
0100
0000
,
1000
0000
0001
0000
0100
0000
0010
0000
1000
0000
0000
0000
0100
0010
0100
0000
,
1000
0000
0100
0000
0001
0000
0100
0000
1000
0010
1000
0000
0001
0000
0000
0000
,
0001
0000
1000
0000
0100
0000
0010
0000
0001
0000
0000
0000
0100
0010
0100
0000
,
0001
0000
0100
0000
1000
0100
0010
0000
1000
0100
0001
0000
0100
0000
0000
0000
;

//---------------dance-single - ----------------
#NOTES:
     dance-single:
     :
     Easy:
     9:
     0.325803,0.359586,0.177711,0.244352,0.018512,308.000000,284.000000,24.000000,33.000000,0.000000,0.000000,0.325803,0.359586,0.177711,0.244352,0.018512,308.000000,284.000000,24.000000,33.000000,0.000000,0.000000:
0000
0000
0000
0000
,
0000
0000
0000
0000
,
0000
0000
0000
0000
,
0000
0000
0000
0000
,
1000
0010
0100
0010
2000
0000
3001
0000
,
0001
0010
0100
0010
0001
0100
0010
0000
,
1000
0100
0010
0100
2000
0000
3002
0000
,
0103
0010
1000
0100
0010
0001
1000
0000
,
2002
0000
0000
3003
,
0001
0000
0001
0000
0001
0100
0010
0000
,
1000
0000
1000
0000
1000
0100
0010
0000
,
0001
0000
0100
0000
0010
1000
0001
0000
,
0010
0100
0010
0100
2000
0000
3002
0000
,
0103
0000
0100
0000
0010
1000
0100
0000
,
0100
0000
0100
0000
0010
0001
0010
0000
,
0001
0000
0001
0000
1000
0100
1000
0000
,
0010
0100
0001
1000
,
0100
0000
0100
1000
,
0001
0100
0001
0000
1000
0100
1000
0000
,
0010
0000
1000
0001
,
0010
0001
0100
0000
0010
1000
0100
0000
,
0100
0000
0010
0010
,
0001
0000
1000
1000
,
0010
0000
0000
0000
0100
0001
0100
0000
,
0010
1000
0100
0010
0001
0000
0000
0000
,
0100
0010
0100
0000
0001
0000
0010
0100
,
0010
0000
0000
0000
0001
0000
0000
0000
0100
0000
0000
0010
0000
0000
1000
0000
,
0100
0010
0100
0000
1000
0000
0010
0100
,
0010
1000
0001
0000
0001
0000
1000
0000
,
0200
0300
0220
0330
,
1001
0110
2002
3003
,
0020
0030
0220
0330
,
1001
0110
2002
3003
,
1000
0000
0000
0000
,
1000
0000
0001
0000
0010
0100
0010
0000
,
0001
0000
0000
0000
0100
0010
0100
0000
,
0010
0000
1000
0000
0001
0000
0010
0001
,
0100
0100
0001
0001
1000
0000
0100
0000
,
1000
1000
0010
0010
0100
0000
0001
0000
,
0010
0010
0001
0001
0100
0000
0010
0000
,
1000
1000
0001
0001
1001
0000
0000
0000
,
1000
0000
1000
0001
,
0100
0000
0000
0000
0100
0001
1000
0000
,
0100
0000
0010
0001
,
0100
0000
0000
0100
0000
0000
0100
0000
0010
0000
1000
0000
0000
0000
0000
0000
,
0100
0000
0000
0110
0110
0000
0000
0000
,
0001
0000
0000
0001
0000
0000
0001
0000
1000
0000
0000
1000
0000
0000
1000
0000
,
1001
0000
0110
0000
,
1001
0000
0000
1000
1001
0000
0000
0000
,
1000
0001
1000
0000
0001
0000
0010
0100
,
0010
0000
0000
0000
0001
0000
0000
0000
0100
0000
0000
0010
0000
0000
1000
0000
,
0100
0010
0100
0000
1000
0000
0010
0100
,
0010
1000
0001
0000
0001
0000
1000
0000
,
0200
0300
0220
0330
,
1001
0110
2002
3003
,
0020
0030
0220
0330
,
1001
0110
2002
3003
,
1000
0010
0100
0010
2000
0000
3001
0000
,
0001
0010
0100
0010
0001
0100
0010
0000
,
1000
0010
0100
0010
2000
0000
3002
0000
,
0013
0001
0100
0010
1000
0100
0010
0001
,
1000
0010
0100
0010
2000
0000
3001
0000
,
0001
0010
0100
0010
0001
0100
0010
0000
,
1000
0100
0010
0100
2000
0000
3002
0000
,
0103
0010
1000
0100
0010
0001
1000
0000
;
