#TITLE:Memes;
#SUBTITLE:;
#ARTIST:NIVIRO;
#TITLETRANSLIT:;
#SUBTITLETRANSLIT:;
#ARTISTTRANSLIT:;
#GENRE:;
#CREDIT:;
#MUSIC:Memes.ogg;
#BANNER:Memes-bn.png;
#BACKGROUND:Memes-bg.png;
#CDTITLE:;
#SAMPLESTART:58.167;
#SAMPLELENGTH:15.000;
#SELECTABLE:YES;
#OFFSET:-0.042;
#BPMS:0.000=128.000;
#STOPS:;
#BGCHANGES:;
#FGCHANGES:;

//--------------- dance-single - ----------------
#NOTES:
     dance-single:
     :
     Easy:
     4:
     0,0,0,0,0:
0000
0000
0000
0000
,
0000
0000
0000
0000
,
0000
0000
0000
0000
,
0000
0000
0000
0000
,
0000
0000
0000
0000
,
1000
0000
0000
0000
0020
0000
0000
0030
0000
0000
0000
0000
0100
0000
0000
0000
,
0001
0000
0000
0000
0020
0000
0000
0030
0000
0000
0000
0000
0100
0000
0000
0000
,
1000
0000
0000
0000
0020
0000
0000
0030
0000
0000
0000
0000
0100
0000
0000
0000
,
0001
0000
0000
0000
0020
0000
0000
0030
0000
0000
0000
0000
0000
0000
0000
0000
,
1001
0000
0000
0000
2000
0000
0000
3000
0000
0000
0000
0000
0001
0000
0000
0000
,
0010
0000
0000
0000
0200
0000
0000
0300
0000
0000
0000
0000
0010
0000
0000
0000
,
0001
0000
0000
0000
2000
0000
0000
3000
0000
0000
0000
0000
0010
0000
0000
0000
,
0100
0000
0000
0000
0002
0000
0000
0003
0000
0000
0000
0000
0000
0000
0000
0000
,
1001
0000
0000
0000
0002
0000
0000
0003
0000
0000
0000
0000
1000
0000
0000
0000
,
0100
0000
0000
0000
0020
0000
0000
0030
0000
0000
0000
0000
0100
0000
0000
0000
,
1000
0000
0000
0000
0020
0000
0000
0030
0000
0000
0000
0000
0100
0000
0000
0000
,
0001
0000
0000
0000
2000
0000
0000
3000
0000
0000
0000
0000
0000
0000
0000
0000
,
1001
0000
1001
0000
,
0110
0000
0110
0000
,
1001
0000
1001
0000
,
0110
0000
0110
0000
,
1001
0001
1001
1000
,
0110
1001
0110
1001
,
0001
1001
1000
0110
,
1001
0000
2000
3000
,
0002
0000
0000
0000
0103
0000
0000
0000
0000
0000
1001
0000
0000
1001
0000
0000
,
1001
0000
0002
0003
,
1000
0020
0130
0010
,
1001
0001
1001
1000
,
0110
1001
0110
1001
,
0001
1001
1000
0110
,
2002
3003
0220
0330
,
2000
3010
0100
0100
,
0001
0001
1000
2000
,
3100
0010
0100
1000
,
0002
0103
0020
0030
,
2000
3001
0010
0100
,
1000
1000
0010
0010
,
0200
0301
1000
0100
,
0020
0000
0200
0330
,
2000
3000
1001
0000
0001
0000
0100
0000
,
0010
0010
0100
0200
,
0301
1000
0100
0010
,
0200
1300
0002
0003
,
1001
2000
3010
0100
,
0001
0001
1000
2000
,
3100
0010
0100
1000
,
0001
0001
1000
1000
,
2002
3003
0000
0000
;

//--------------- dance-single - ----------------
#NOTES:
     dance-single:
     :
     Medium:
     11:
     0,0,0,0,0:
0000
0000
0000
0000
,
0000
0000
0000
0000
,
0000
0000
0000
0000
,
0000
0000
0000
0000
,
0000
0000
0000
0000
,
1000
0000
0000
0000
0010
0000
0000
0100
0000
0000
0000
0000
0001
0000
0010
0000
,
0100
0000
0000
0000
1000
0000
0000
0001
0000
0000
0000
0000
1000
0000
0010
0000
,
0100
0000
0000
0000
0001
0000
0000
0010
0000
0000
0000
0000
0001
0000
0100
0000
,
0010
0000
0000
0000
1000
0000
0000
0100
0000
0000
0000
0000
0000
0000
0000
0000
,
1001
0000
0000
0000
1000
0000
0000
1000
0000
0000
0000
0000
0001
0000
0100
0000
,
0010
0000
0000
0000
0100
0000
0000
0100
0000
0000
0000
0000
0001
0000
0010
0000
,
0100
0000
0000
0000
1000
0000
0000
1000
0000
0000
0000
0000
0001
0000
1000
0000
,
0010
0000
0000
0000
0100
0000
0000
0100
0000
0000
0000
0000
0001
0000
0000
0000
,
1000
0000
0000
0000
0100
0000
0000
0001
0000
0000
0000
0000
0100
0000
1000
0000
,
0010
0000
0000
0000
0100
0000
0000
1000
0000
0000
0000
0000
0100
0000
0010
0000
,
1000
0000
0000
0000
0010
0000
0000
0001
0000
0000
0000
0000
0010
0000
1000
0000
,
0001
0000
0000
0000
0010
0000
0000
1000
0000
0000
0000
0000
0010
0000
0000
0000
,
0002
0000
1003
1000
,
0020
0000
0130
0100
,
0002
0000
0013
0010
,
0200
0000
1300
1000
,
0001
0000
0100
0000
0010
1000
0000
0010
1000
0000
0100
0000
0010
0001
0000
0010
,
0001
0000
1000
0000
0001
0100
0000
0010
1000
0000
0001
0000
0001
0000
0000
0000
,
1000
0010
0001
0100
1000
0010
0001
0100
,
1000
0000
0000
0000
0000
0000
0000
0000
0001
0000
0000
1000
0000
0000
0010
0000
,
1000
0000
0100
0000
0010
0000
0010
0000
0000
0000
1001
0000
0000
0110
0000
0000
,
1001
0000
0000
0000
0000
0000
1010
0000
0002
0000
0000
0013
0000
0200
0000
0000
,
0300
1000
0002
0000
1003
0010
0100
0001
,
1000
0000
0100
0000
0010
0001
0000
0010
0001
0000
0100
0000
0010
1000
0000
0010
,
1000
0000
0001
0000
1000
0100
0000
0010
0001
0000
1000
0000
1000
0000
0000
0000
,
0001
0010
1000
0100
0001
0010
1000
0100
,
0002
0000
2000
3003
,
0110
0000
1000
0010
0200
0000
0302
0000
,
1003
0100
0001
0000
1000
0010
0002
0000
,
1003
0000
0020
0000
0130
0001
0200
0000
,
0310
1000
1000
0000
0001
0010
0010
0000
,
1001
0000
1000
0010
0200
0000
0302
0000
,
1003
0010
0001
0000
1000
0100
0002
0000
,
1003
0000
0100
0010
0200
0000
2300
0000
,
3002
0000
0000
0000
0200
0000
0000
0303
,
0002
0000
1003
0100
0020
0000
0230
0000
,
1300
0010
0001
0010
1000
1000
0002
0000
,
0023
0000
0130
1000
0002
0000
2003
0000
,
3010
0100
0002
0000
1003
0100
0010
0001
,
2000
0000
3010
0100
0020
0000
2030
0000
,
3001
0010
1000
0010
0001
0001
2000
0000
,
3020
0000
0130
0001
2000
0000
3200
0000
,
1300
0000
0000
0100
0000
0000
0000
0000
0000
0000
0000
0000
0010
0000
0000
0001
0000
0000
0000
0000
0000
0000
0000
0000
0010
0000
0000
0000
0010
0000
0000
0000
0010
0000
0000
0000
0100
0000
0000
0000
0100
0000
0000
0000
0100
0000
0000
0000
,
2002
3003
0000
0000
;

//--------------- dance-single - ----------------
#NOTES:
     dance-single:
     :
     Hard:
     13:
     0,0,0,0,0:
0000
0000
0000
0000
,
0000
0000
0000
0000
,
0000
0000
0000
0000
,
0000
0000
0000
0000
,
0000
0000
0000
0000
,
1000
0000
0000
0000
0001
0000
0010
0100
0000
0000
0000
0000
1000
0000
0010
0000
,
0100
0000
0001
0000
0100
0000
0001
0010
0000
0000
0000
0000
0001
0000
0100
0000
,
1000
0000
0000
0000
0100
0000
0001
1000
0000
0000
0000
0000
0001
0000
0010
0000
,
0100
0000
1000
0000
0100
0000
1000
0010
0000
0000
0000
0000
0100
0000
0000
0000
,
1001
0000
0000
0000
1000
0000
0100
0010
0000
0000
0000
0000
0100
0000
0010
0000
,
0001
0000
0100
0000
1000
0000
0100
0001
0000
0000
0000
0000
1000
0000
0100
0000
,
0001
0000
0000
0000
0100
0000
1000
0010
0000
0000
0000
0000
1000
0000
0001
0000
,
1000
0000
0010
0000
0001
0000
0010
0200
0000
0000
0000
0000
0000
0000
0000
0000
,
0301
0000
0000
0000
1000
0000
0100
0010
0000
0000
0000
0000
0100
0000
1000
0000
,
0001
0000
0010
0000
1000
0000
0010
0001
0000
0000
0000
0000
1000
0000
0010
0000
,
0001
0000
0000
0000
0010
0000
1000
0100
0000
0000
0000
0000
0010
0000
0001
0000
,
1000
0000
0100
0000
0001
0000
0100
0010
0000
0000
0000
0000
0100
0000
0000
0000
,
1001
1000
0010
0000
0100
0000
0010
0000
,
0100
0001
1000
0000
0100
0000
0010
0000
,
0100
1000
0010
0000
1000
0000
0001
0000
,
1000
0010
0100
0000
0010
0000
1000
0000
,
0001
0000
0010
0000
0100
1000
0100
0000
1000
0000
0010
0000
0100
0001
0100
0000
,
0010
0000
1000
0000
0001
0010
0001
0000
1000
0000
0100
0000
1000
0010
1000
0000
,
0001
0000
0100
0000
1000
0000
0100
0000
0001
0010
0001
0010
0100
1000
0001
0100
,
0020
0000
0000
0000
0030
0000
0000
0000
1000
0100
1000
0100
0000
0010
0001
0010
,
0001
0100
0010
0000
2000
0000
0002
0000
3003
0000
1010
0000
0000
0101
0000
0000
,
1100
0000
0000
0000
1000
0000
0011
0000
2000
0000
3001
0100
0000
0001
0010
0000
,
0100
0000
0002
0000
0203
0000
0000
0000
1300
0001
1000
0000
0010
0100
0001
1000
,
0001
0000
1000
0000
0100
0010
0100
0000
1000
0000
0010
0000
0100
0001
0100
0000
,
0010
0000
1000
0000
0001
0010
0001
0000
1000
0000
0100
0000
1000
0010
1000
0000
,
0001
0000
0010
0000
1000
0000
0010
0000
0001
1000
0001
1000
0010
1000
0100
0010
,
0002
0000
0000
0000
0000
0000
0000
0000
2000
0000
3003
0000
1000
0100
0010
0100
,
1000
0000
1000
0000
0010
0100
0001
0000
1000
0000
0100
0000
0001
0000
0100
0000
,
1000
1000
1000
0010
0100
0100
1000
0100
,
0002
0000
0000
0000
0013
0100
1000
0000
0001
0000
0100
0000
1000
0000
0100
0000
,
0010
1000
0100
0000
0010
0000
0100
0000
1000
0010
1000
0001
0000
1000
0100
0010
,
0001
0000
1000
0000
0010
0100
0001
0000
1000
0000
0100
0000
0001
0000
0100
0000
,
0010
0010
0010
0001
1000
1000
0010
0001
,
0020
0000
0000
0000
1030
0001
0010
0000
0100
0000
1000
0000
0001
0000
0100
0000
,
0010
0000
0000
1000
0000
0001
0010
0000
0100
0000
1000
0001
0010
0001
0100
0010
,
2000
0000
0000
0000
3001
0010
0100
0000
1000
0000
0010
0000
0001
0000
0010
0000
,
0100
0100
0100
0001
0010
0010
0100
0001
,
0100
0000
1000
0000
0001
0100
0010
0000
1000
0000
0100
0000
0010
0000
1000
0000
,
0010
0100
0010
0000
0100
0000
1000
0000
0010
1000
0001
0010
0000
0100
1000
0001
,
0100
0000
0010
0000
1000
0100
1000
0000
0001
0000
0010
0000
0100
0000
1000
0000
,
0010
0010
0010
1000
0001
0001
0100
1000
,
0100
0000
0010
0000
1000
0001
1000
0000
0100
0000
0010
0000
0001
0000
0100
0000
,
0010
1000
0010
0100
0001
0010
0001
1000
0100
0000
0100
0000
1000
0010
0100
0000
,
2002
3003
0000
0000
;
