#VERSION:0.83;
#TITLE:MAXRAGE;
#SUBTITLE:;
#ARTIST:EBIMAYO;
#TITLETRANSLIT:;
#SUBTITLETRANSLIT:;
#ARTISTTRANSLIT:;
#GENRE:MAXCORE;
#ORIGIN:;
#CREDIT:;
#BANNER:MAXRAGE.png;
#BACKGROUND:MAXRAGE-bg.png;
#PREVIEWVID:;
#JACKET:MAXRAGE-jacket.png;
#CDIMAGE:;
#DISCIMAGE:;
#LYRICSPATH:;
#CDTITLE:cdtitle.png;
#MUSIC:MAXRAGE.ogg;
#OFFSET:-0.021000;
#SAMPLESTART:103.805000;
#SAMPLELENGTH:15.000000;
#SELECTABLE:YES;
#BPMS:0.000=222.000,
160.000=111.000,
176.000=222.000,
272.000=111.000,
288.000=222.000,
320.000=111.000,
328.000=222.000;
#STOPS:;
#DELAYS:;
#WARPS:;
#TIMESIGNATURES:0.000=4=4;
#TICKCOUNTS:0.000=4;
#COMBOS:0.000=1;
#SPEEDS:0.000=1.000=0.000=0;
#SCROLLS:0.000=1.000;
#FAKES:;
#LABELS:0.000=Song Start;
#BGCHANGES:0.000=MAXRAGE.avi=1.000=0=0=0=StretchNoLoop==CrossFade_Fastest==,
99999=-nosongbg-=1.000=0=0=0 // don't automatically add -songbackground-
;
#KEYSOUNDS:;
#ATTACKS:
;

//---------------dance-single - Daff_4K----------------
#NOTEDATA:;
#CHARTNAME:Daff_4K;
#STEPSTYPE:dance-single;
#DESCRIPTION:Daff_4K;
#CHARTSTYLE:;
#DIFFICULTY:Beginner;
#METER:6;
#RADARVALUES:0.230519,0.375000,0.022727,0.000000,0.000000,213.000000,210.000000,3.000000,0.000000,0.000000,0.000000,0.000000,0.000000,0.000000,0.230519,0.375000,0.022727,0.000000,0.000000,213.000000,210.000000,3.000000,0.000000,0.000000,0.000000,0.000000,0.000000,0.000000;
#CREDIT:Daff_4K;
#NOTES:
0000
0000
0000
0000
,
0000
0000
0000
0000
,
0000
0000
0000
0000
,
0000
0000
0000
0000
,
0000
0000
0000
0000
,
0000
0000
0000
0000
,
0000
0000
0000
0000
,
0000
0000
0000
0000
,
1000
0000
0000
0000
,
1000
0000
0000
0000
,
0001
0000
0000
0000
,
0001
0000
0000
0000
,
0010
0000
0000
0000
,
0010
0000
0000
0000
,
0100
0000
0000
0000
,
0010
0000
0000
0000
,
0001
0000
0001
0000
,
0001
0000
0001
0000
,
1000
0000
1000
0000
,
1000
0000
1000
0000
,
0010
0000
0010
0000
,
0010
0000
0010
0000
,
0100
0100
0100
0100
,
0100
0000
0000
0000
,
0001
0000
0001
0001
,
0001
0001
0001
0000
,
1000
0000
1000
1000
,
1000
1000
1000
0000
,
0010
0000
0010
0010
,
0010
0010
0010
0000
,
0100
0000
0001
0001
,
0001
0000
0000
0000
,
1000
0000
1000
1000
,
1000
1000
1000
0000
,
0001
0000
0001
0001
,
0001
0001
0001
0000
,
0010
0000
0010
0000
,
0100
0000
0100
0000
,
0010
0010
0010
0010
,
0010
0000
0000
0000
,
0001
0000
1000
0000
,
1000
0000
0010
0010
,
0010
0000
0100
0000
,
0100
0000
0001
0000
,
1000
0000
0000
0000
,
0001
0000
0001
0000
,
0001
0000
0000
0000
,
0010
0000
0010
0000
,
0010
0000
0000
0000
,
0100
0000
0100
0000
,
0100
0000
0000
0000
,
1000
0000
0000
0000
,
0001
0001
0001
0000
,
0100
0100
0100
0000
,
0000
0000
0010
0000
,
0000
0000
0010
0000
,
1000
1000
1000
0000
,
0100
0100
0100
0000
,
0000
0000
0010
0000
,
1001
0000
0000
0000
,
1000
1000
1000
0000
,
0100
0100
0100
0000
,
0000
0000
0010
0000
,
0000
0000
0010
0000
,
0001
0001
0001
0000
,
0100
0100
0100
0000
,
0010
0000
0010
0000
,
0100
0100
0100
0000
,
1001
0000
0000
0000
,
0000
0000
0000
0000
,
0000
0000
0000
0000
,
0000
0000
0000
0000
,
1000
0000
0000
0000
,
0010
0000
0000
0000
,
0001
0000
0000
0000
,
0100
0000
1000
0000
,
0001
0000
0000
0000
,
0100
0000
0000
0000
,
0010
0000
0000
0000
,
1000
0000
1000
0000
,
0001
0000
0001
0000
,
1000
0000
1000
0000
,
0010
0000
0010
0000
,
0010
0010
0010
0010
,
0010
0010
0010
0010
,
0010
0000
0000
0000
,
1000
1000
1000
0000
,
0001
0000
0001
0000
,
0010
0010
0010
0000
,
1000
0000
0010
0000
,
0001
0001
0001
0000
,
0100
0000
0100
0000
,
0010
0010
0010
0000
,
1000
1000
1000
0000
,
0001
0001
0001
0000
,
1000
0000
1000
0000
,
0010
0010
0010
0000
,
0001
0000
0010
0000
,
1000
1000
1000
0000
,
0100
0100
0100
0000
,
0010
0010
0010
0000
,
0001
0001
0001
0000
,
1000
0000
1000
0000
,
1000
0000
1000
0000
,
0001
0000
0001
0000
,
0001
0000
0001
0000
,
0010
0000
0010
0000
,
0010
0000
0010
0000
,
0100
0100
0100
0100
,
0100
0000
0000
0000
,
1001
0000
0000
0000
;

//---------------dance-single - Daff_4K----------------
#NOTEDATA:;
#CHARTNAME:Daff_4K;
#STEPSTYPE:dance-single;
#DESCRIPTION:Daff_4K;
#CHARTSTYLE:;
#DIFFICULTY:Easy;
#METER:8;
#RADARVALUES:0.389610,0.416667,0.151515,0.378788,0.000000,360.000000,340.000000,20.000000,50.000000,0.000000,0.000000,0.000000,0.000000,0.000000,0.389610,0.416667,0.151515,0.378788,0.000000,360.000000,340.000000,20.000000,50.000000,0.000000,0.000000,0.000000,0.000000,0.000000;
#CREDIT:Daff_4K;
#NOTES:
0000
0000
0000
0000
,
0000
0000
0000
0000
,
0000
0000
0000
0000
,
0000
0000
0000
0000
,
0000
0000
0000
0000
,
0000
0000
0000
0000
,
0000
0000
0000
0000
,
0000
0000
0000
0000
,
2000
0000
3010
0000
,
2000
0000
3001
0000
,
2000
0000
3100
0000
,
2000
0000
3010
1000
,
0002
0000
0013
0000
,
0002
0000
1003
0000
,
0002
0000
0103
0000
,
0002
0000
0013
0001
,
1000
0010
1000
0010
,
1000
0010
1000
0000
,
0001
0010
0001
0010
,
0001
0010
0001
0000
,
1000
0100
1000
0000
,
0001
0100
0001
0000
,
1000
0010
0100
0001
,
2002
0000
0000
3003
,
1000
0001
0200
0310
,
2000
3001
0020
0130
,
1000
0001
0200
0310
,
2000
3001
0010
0010
,
0001
1000
0020
0130
,
0002
1003
0200
0310
,
0001
1000
0020
0130
,
2002
0000
0000
3003
,
0001
1000
0200
0310
,
0002
1003
0020
0130
,
0001
1000
0200
0310
,
0002
1003
0010
0010
,
1000
1000
0001
0001
,
0010
0010
0100
0100
,
1000
0010
0100
0001
,
2002
0000
0000
3003
,
1000
0100
0001
0100
,
1000
0010
0100
0001
,
0001
0100
1000
0100
,
0001
0010
0100
1000
,
1000
0100
0010
0100
,
1000
0010
0100
0010
,
1000
0100
0010
0001
,
0100
0010
1000
1000
,
0001
0100
0010
0100
,
0001
0010
0100
0010
,
0001
0100
0010
1000
,
0001
1000
1001
0000
,
0001
0100
0020
0030
,
1000
0100
0020
0030
,
0110
0000
1001
0000
,
0110
0000
1001
0000
,
1000
0010
0200
0300
,
0001
0010
0200
0300
,
0110
0000
1001
0000
,
0220
0000
0000
0330
,
1000
0100
0020
0030
,
0001
0100
0020
0030
,
0110
0000
1001
0000
,
0110
0000
1001
0000
,
0001
0010
0200
0300
,
1000
0010
0200
0300
,
0110
0000
1001
0000
,
1000
0010
0100
0001
,
2000
0000
3002
0000
,
0023
0000
0130
1000
,
0002
0000
2003
0000
,
3020
0000
0130
0001
,
1000
0010
0001
0010
,
1000
0100
0001
0100
,
1000
0010
0001
1000
,
0100
0001
1000
1000
,
0001
0010
1000
0010
,
0001
0100
1000
0100
,
0001
0010
1000
0001
,
0100
1000
0001
0001
,
2000
3000
0002
0003
,
0100
0010
0100
0100
,
0001
0001
1000
1000
,
0100
0100
0010
0010
,
0100
0010
0001
1000
,
2002
0000
0000
3003
,
0001
0100
1000
0100
,
0010
0010
1000
1000
,
0001
0010
1000
0010
,
0100
0100
1000
0001
,
0100
0010
1000
0001
,
0010
0010
0100
0100
,
1000
0001
0100
0010
,
1000
1000
0001
0001
,
1000
0100
0001
0100
,
0010
0010
0001
0001
,
1000
0010
0001
0010
,
0100
0100
0001
1000
,
0100
0010
0001
1000
,
0010
0010
0100
0100
,
0001
0001
1000
1000
,
0100
0100
0010
0010
,
0001
0010
0001
0010
,
0001
0010
0001
0000
,
1000
0010
1000
0010
,
1000
0010
1000
0000
,
0001
0100
0001
0000
,
1000
0100
1000
0000
,
0001
0010
0100
1000
,
2002
0000
0000
3003
,
0110
0000
0000
0000
;

//---------------dance-single - Daff_4K----------------
#NOTEDATA:;
#CHARTNAME:Daff_4K;
#STEPSTYPE:dance-single;
#DESCRIPTION:Daff_4K;
#CHARTSTYLE:;
#DIFFICULTY:Medium;
#METER:13;
#RADARVALUES:0.694805,0.875000,0.537879,0.484848,0.022727,642.000000,571.000000,71.000000,64.000000,0.000000,0.000000,0.000000,0.000000,0.000000,0.694805,0.875000,0.537879,0.484848,0.022727,642.000000,571.000000,71.000000,64.000000,0.000000,0.000000,0.000000,0.000000,0.000000;
#CREDIT:Daff_4K;
#NOTES:
0000
0000
0000
0000
,
0000
0000
0000
0000
,
0000
0000
0000
0000
,
0000
0000
0000
0000
,
0000
0000
0000
0000
,
0000
0000
0000
0000
,
0000
0000
0000
0000
,
0000
0000
0000
0000
,
1001
0000
1000
0010
0000
0100
0001
0000
,
1000
0100
0000
0010
0001
0000
0110
0000
,
1001
0000
0001
0010
0000
0100
1000
0000
,
0001
0100
0000
0010
1000
0000
0110
0000
,
1001
0000
1000
0100
0000
0010
0001
0000
,
1000
0010
0000
0100
0001
0000
0110
0000
,
1002
0103
2010
3001
,
0011
1100
1010
0101
,
2001
0100
0010
0100
,
0010
0000
0100
0000
3001
1000
0010
0000
,
1002
0100
0010
0100
,
0010
0000
0100
0000
1003
0001
0010
0100
,
1000
0010
1000
0010
0100
0001
0100
0001
,
1000
0100
1000
0100
0010
0001
0010
0001
,
1000
0010
0100
0001
0010
0100
1000
0010
,
0200
0000
0000
0310
,
1010
0000
0101
0000
0001
0010
0001
1000
,
0010
1000
0001
0100
0001
1000
0100
0000
,
1100
0000
0011
0000
0001
1000
0001
0010
,
0100
0010
0001
1000
0000
0010
0100
0001
,
1000
0000
1001
0000
0001
0100
0001
1000
,
0010
1000
0001
0010
0100
1000
0001
0000
,
0101
0000
1010
0000
1000
0100
0010
0002
,
2000
0000
0000
3003
,
0011
0000
1100
0000
1000
0010
1000
0001
,
0010
0001
1000
0100
1000
0001
0100
0000
,
0101
0000
1010
0000
1000
0001
1000
0010
,
0100
0010
1000
0001
0000
0010
0100
1000
,
0001
0100
0001
0100
0010
1000
0010
1000
,
0001
0010
0001
0010
0100
1000
0100
1000
,
0001
0100
0010
1000
0100
0010
0001
0100
,
0020
0000
0000
0030
,
1000
0000
0100
0000
1000
0001
1000
0000
0010
0000
0100
0000
0001
1000
0001
0000
,
0010
0000
0100
0000
1000
0000
0001
0000
0100
0000
0010
0100
0010
0000
1000
0000
,
0001
0000
0100
0000
0001
1000
0001
0000
0010
0000
0100
0000
1000
0001
1000
0000
,
0010
0000
0100
0010
0100
0000
0001
0000
1000
0000
0100
0000
0010
0000
0001
0000
,
1000
0000
0001
0000
1000
0010
1000
0000
,
0001
0000
1000
0000
0001
0010
0001
0000
,
0100
0010
1000
0000
0100
0010
0001
0000
,
0100
0010
0100
0010
1000
0001
1000
0000
,
0001
0010
0001
0000
1000
0010
1000
0000
,
0001
0100
0001
0000
1000
0100
1000
0000
,
0010
0100
0001
0000
0010
0100
1000
0000
,
0010
0100
0010
0100
0001
0000
1001
0000
,
1000
0100
0001
0200
0000
0310
0002
0000
,
1003
0010
0100
0002
0000
0013
0100
0000
,
2100
3010
0102
0013
,
2010
3100
0012
0103
,
0001
0010
1000
0020
0000
0130
2000
0000
,
3001
0100
0010
2000
0000
3100
0010
0000
,
0012
0103
2010
3100
,
2002
0000
0000
3003
,
0001
0100
1000
0200
0000
0310
2000
0000
,
3001
0010
0100
2000
0000
3010
0100
0000
,
0102
0013
2100
3010
,
0012
0103
2010
3100
,
1000
0010
0001
0020
0000
0130
0002
0000
,
1003
0100
0010
0002
0000
0103
0010
0000
,
1000
0100
0010
0001
0100
0010
1000
0001
,
2000
3020
0230
0302
,
2003
0100
3002
0100
,
2003
0010
3002
0010
,
2003
0100
3002
0010
,
2003
0000
0010
0000
3001
0100
0010
1000
,
0002
0103
2000
3010
,
0002
0000
0103
0000
0020
0000
1030
0001
,
2000
3100
0002
0013
,
2000
0000
3100
0000
0020
0000
0031
1000
,
0002
0000
0103
1000
0200
0000
0310
0000
,
2000
0000
3100
0001
0200
0000
0310
0000
,
0001
0010
0001
0010
0100
1000
0100
1000
,
0010
0100
0001
1000
0100
0010
0001
0000
,
2001
3010
0102
1003
,
1002
0013
2100
3001
,
0011
0011
1100
1100
,
1010
1010
0101
0101
,
0001
0010
0100
1000
0010
0100
0001
0000
,
2002
0000
0000
3003
,
1010
0000
0100
0001
0000
1000
0100
0010
,
0000
0110
0000
1001
0000
0001
0100
0010
,
1000
0000
0100
0010
0000
0001
1000
0010
,
0000
0101
0000
0001
1000
0000
1001
0000
,
0011
0000
0100
1000
0000
0001
0100
0010
,
0000
0110
0000
1001
0000
1000
0100
0010
,
0001
0000
0100
0010
0000
1000
0001
0010
,
0100
1001
0110
1001
,
1000
0100
0010
0100
1000
0010
0100
0010
,
1000
0100
0010
0001
1000
0000
1001
0000
,
0001
0100
0010
0100
0001
0010
0100
0010
,
0001
0100
0010
1000
0001
0000
1001
0000
,
1000
0010
0100
0001
0010
0100
1000
0001
,
0010
0100
1000
0010
0100
0001
1000
0000
,
1010
0101
0011
1100
,
1001
0000
0001
0100
0010
1000
0001
0000
,
1002
0100
0010
0100
,
0010
0000
0100
0000
1003
0001
0010
0000
,
2001
0100
0010
0100
,
0010
0000
0100
0000
3001
1000
0010
0100
,
0001
0010
0001
0010
0100
1000
0100
1000
,
0001
0100
0001
0100
0010
1000
0010
1000
,
0001
0010
0100
1000
0010
0100
0001
0010
,
0200
0000
0000
0300
,
1001
0000
0000
0000
;

//---------------dance-single - Daff_4K----------------
#NOTEDATA:;
#CHARTNAME:Daff_4K;
#STEPSTYPE:dance-single;
#DESCRIPTION:Daff_4K;
#CHARTSTYLE:;
#DIFFICULTY:Hard;
#METER:17;
#RADARVALUES:0.853896,1.125000,0.901515,0.530303,0.363636,789.000000,670.000000,119.000000,70.000000,0.000000,0.000000,0.000000,0.000000,0.000000,0.853896,1.125000,0.901515,0.530303,0.363636,789.000000,670.000000,119.000000,70.000000,0.000000,0.000000,0.000000,0.000000,0.000000;
#CREDIT:Daff_4K;
#NOTES:
0000
0000
0000
0000
,
0000
0000
0000
0000
,
0000
0000
0000
0000
,
0000
0000
0000
0000
,
0000
0000
0000
0000
,
0000
0000
0000
0000
,
0000
0000
0000
0000
,
0000
0000
0000
0000
,
2001
0000
3010
0200
0000
0301
2000
0000
,
3100
0020
0000
0031
1000
0000
1010
0000
,
0102
0000
1003
0200
0000
0310
0001
2000
,
0000
3010
0100
0001
1000
0000
0110
0000
,
1002
0000
0013
0200
0000
1300
0002
0000
,
0103
0020
0000
1030
0001
0000
0011
0000
,
2100
3010
0102
0013
,
0110
0000
1001
0000
1000
0010
0100
0000
,
0101
0101
1001
1001
,
0011
0011
1001
1001
,
1100
1100
1001
1001
,
1010
1010
1001
1001
,
0001
0100
0010
1000
0100
0010
0001
1000
,
0100
0010
0001
0100
0010
1000
0001
1000
,
0010
0100
0010
0100
0010
0100
0010
0100
0010
0100
0010
0100
0010
0100
0010
0200
,
0020
0000
0330
1001
,
1010
0000
0000
0000
0101
0000
0000
0000
0001
0000
1000
0010
1000
0000
0010
0000
,
0100
0001
0100
0000
0001
0000
1000
0100
1000
0000
0100
0000
0010
0000
0001
0000
,
0100
0000
0000
0000
1010
0000
0000
0000
1000
0000
0001
0010
0001
0000
0010
0000
,
0100
1000
0100
0000
1000
0000
0002
0000
0000
0000
0103
0000
0010
0000
1000
0000
,
0100
0000
0000
0000
0011
0000
0000
0000
0001
0000
1000
0010
1000
0000
0010
0000
,
0100
0001
0100
0000
0001
0000
1000
0001
1000
0000
0001
0000
0010
0000
0100
0000
,
0010
0000
0000
0000
1001
0000
0000
0000
1000
0000
0001
1000
0001
0000
0200
0000
,
0000
0000
0300
1001
,
0011
0000
0000
0000
1100
0000
0000
0000
1000
0000
0001
0010
0001
0000
0010
0000
,
0100
1000
0100
0000
1000
0000
0001
0100
0001
0000
0100
0000
0010
0000
1000
0000
,
0100
0000
0000
0000
0011
0000
0000
0000
0001
0000
1000
0010
1000
0000
0010
0000
,
0100
0001
0100
0000
0001
0000
2000
0000
0000
0000
3100
0000
0010
0000
0001
0000
,
1000
0100
0010
0001
0100
0010
1000
0001
,
0100
0010
1000
0100
0010
0001
1000
0001
,
0010
0100
0010
0100
0010
0100
0010
0100
0010
0100
0010
0100
0010
0100
0010
0200
,
0020
0000
0000
0330
,
1001
0000
1000
0100
0010
0001
0000
1000
0010
0100
0000
0001
0000
0010
1000
0010
,
0001
0100
0010
0100
0000
1000
0000
0001
0000
0010
1000
0100
0010
0000
0110
0000
,
1001
0000
0001
0100
0010
1000
0000
0001
0010
0100
0000
1000
0000
0010
0001
0010
,
1000
0000
0100
0010
0001
0000
1000
0000
1001
0000
0110
0000
1001
0000
1000
0001
,
0100
0001
0010
0000
0100
1000
0010
0000
,
0100
0001
0010
1000
0010
0001
1000
0000
,
0100
1000
0010
0000
0100
0001
0010
0000
,
0100
1000
0010
0001
0010
1000
0001
0000
,
1000
0100
0001
0100
0010
0001
0100
1000
,
0100
0010
1000
0100
0010
0001
0100
0010
,
1000
1000
0001
0001
0010
0100
1000
0001
,
1000
0001
1000
0001
1000
0001
1000
0002
2000
0000
0000
0000
3003
0000
0000
0000
,
0001
0100
0010
2000
0000
3001
0020
0000
,
0130
0000
1000
0100
1000
0000
0002
0000
0000
0000
0103
0000
0010
0000
1000
0000
,
0001
0101
1100
1001
,
0011
1010
0110
1001
,
0001
1000
0100
0020
0000
0031
2000
0000
,
3010
0000
0100
0010
0100
0000
0002
0000
0000
0000
1003
0000
0100
0000
0010
0000
,
0001
0101
1010
0110
,
2002
0000
0000
3003
,
1000
0100
0010
0002
0000
1003
0020
0000
,
0130
0000
0001
0100
0001
0000
2000
0000
0000
0000
3100
0000
0010
0000
0001
0000
,
1000
1100
0101
1001
,
1010
0011
0110
1001
,
1000
0001
0100
0020
0000
1030
0002
0000
,
0013
0000
0100
0010
0100
0000
2000
0000
0000
0000
3001
0000
0100
0000
0010
0000
,
1000
0100
0010
0001
0100
0010
1000
0001
,
0100
0000
0000
0000
0010
0000
0000
0000
0100
0000
0000
0000
0010
0000
0000
0000
0100
0000
0000
0000
0010
0000
0000
0000
1000
0000
0000
0001
0000
0000
1000
0000
0000
0001
0000
0000
1000
0000
0000
0001
0000
0000
1000
0000
0000
0002
0000
0000
,
2000
3003
2200
3300
,
0022
0033
2020
3030
,
0202
0303
2002
3003
,
0220
0000
0330
0000
1001
1001
1001
0000
,
1000
0101
0010
1100
,
0001
1010
0100
0011
,
0001
1100
0010
0101
,
1000
0011
0100
1010
,
1100
1100
0011
0011
,
0101
0101
1010
1010
,
1000
0100
0010
0001
1000
0010
0100
0001
,
1000
0001
1000
0001
1000
0001
1000
0001
1000
0001
1000
0001
1000
0001
1000
0002
,
2000
3003
2200
3300
,
0022
0033
2002
3003
,
1010
0101
0011
1100
,
1000
0001
0010
0100
1000
0001
0100
0010
,
1000
0000
0100
0000
0010
0000
0001
0000
0100
0010
0100
0010
0100
0010
0100
0020
,
0200
0000
0330
1001
,
1200
0000
0310
0002
0000
1003
0010
0100
,
0000
0101
0000
0001
1000
0100
0001
0100
,
2000
0000
3001
0200
0000
0310
1000
0001
,
0000
0101
0000
0001
1000
0010
0100
0001
,
0201
0000
0310
2000
0000
3001
0010
0100
,
0000
1100
0000
1000
0001
0100
1000
0100
,
0002
0000
1003
0200
0000
0310
0001
1000
,
1001
0101
0011
1100
,
1000
0010
0100
0010
1000
0001
1000
0100
,
0010
0000
0100
0000
1000
0000
0001
0000
0100
0000
0010
0000
1000
0001
1000
0000
,
0001
0010
0100
0010
0001
1000
0001
0100
,
0010
0000
0100
0000
0001
0000
1000
0000
0100
0000
0010
0000
0001
1000
0001
0000
,
1000
0010
0100
0010
1000
0001
0010
0100
,
0010
0001
1000
0010
0100
0001
0010
0100
,
1000
1000
0001
0001
0100
0100
0010
0010
,
1000
0100
1000
0100
1000
0100
0010
0001
0010
0001
0010
0001
1000
0000
0000
0000
,
1010
1010
1001
1001
,
1100
1100
1001
1001
,
0011
0011
1001
1001
,
0101
0101
1001
1001
,
1000
0010
0100
0001
0010
0100
1000
0001
,
0010
0100
1000
0010
0100
0001
1000
0001
,
0100
0010
0100
0010
0100
0010
0100
0010
0100
0010
0100
0010
0100
0010
0100
0020
,
0200
0000
0000
0330
,
1001
0000
0000
0000
;

//---------------dance-single - Daff_4K----------------
#NOTEDATA:;
#CHARTNAME:Daff_4K;
#STEPSTYPE:dance-single;
#DESCRIPTION:Daff_4K;
#CHARTSTYLE:;
#DIFFICULTY:Challenge;
#METER:18;
#RADARVALUES:0.938312,1.291667,0.946970,0.310606,0.458333,867.000000,742.000000,125.000000,41.000000,0.000000,0.000000,0.000000,0.000000,0.000000,0.938312,1.291667,0.946970,0.310606,0.458333,867.000000,742.000000,125.000000,41.000000,0.000000,0.000000,0.000000,0.000000,0.000000;
#CREDIT:Daff_4K;
#NOTES:
// measure 0
0000
0000
0000
0000
,  // measure 1
0000
0000
0000
0000
,  // measure 2
0000
0000
0000
0000
,  // measure 3
0000
0000
0000
0000
,  // measure 4
0000
0000
0000
0000
,  // measure 5
0000
0000
0000
0000
,  // measure 6
0000
0000
0000
0000
,  // measure 7
0000
0000
0000
0000
,  // measure 8
2001
0000
3010
0200
0000
0301
1000
0100
,  // measure 9
0000
0011
0000
0001
2000
0000
3010
0100
,  // measure 10
0101
0000
0001
2000
0000
3100
0010
0001
,  // measure 11
0000
1100
0000
1000
0001
0100
0010
1000
,  // measure 12
1002
0000
0013
0200
0000
1300
0001
0100
,  // measure 13
0000
1010
0000
1000
0002
0000
0013
0100
,  // measure 14
2100
3010
0102
0013
,  // measure 15
0110
0000
1001
0000
1000
0010
0100
0001
,  // measure 16
0011
1001
0101
1001
,  // measure 17
0011
0000
1001
0000
0101
0000
0001
1000
,  // measure 18
1010
1001
1100
1001
,  // measure 19
1010
0000
1001
0000
1000
0010
0100
0001
,  // measure 20
1000
1000
0100
0100
0010
0010
0001
0001
,  // measure 21
0100
0100
0010
0010
1000
1000
0001
0001
,  // measure 22
0010
0100
0010
0100
0010
0100
0010
0100
0010
0100
0010
0100
0010
0100
0010
0100
,  // measure 23
0010
1001
0110
1001
,  // measure 24
0101
0000
0000
0000
1010
0000
0000
0000
1000
0000
0001
0010
0001
0010
0001
0000
,  // measure 25
1000
0100
1000
0100
1000
0000
0001
0100
0001
0100
0001
0000
0010
0000
0100
0000
,  // measure 26
0010
0000
0000
0000
1001
0000
0000
0000
1000
0000
0001
0100
0001
0100
0001
0000
,  // measure 27
1000
0100
1000
0100
1000
0000
0001
0000
0100
0000
1000
0000
0100
0000
0001
0000
,  // measure 28
0010
0000
0000
0000
1100
0000
0000
0000
1000
0000
0001
0100
0001
0100
0001
0000
,  // measure 29
1000
0010
1000
0010
1000
0000
0001
0010
0001
0010
0001
0000
0100
0000
0010
0000
,  // measure 30
0100
0000
0000
0000
1001
0000
0000
0000
1000
0000
0100
0010
0100
0020
0200
0000
,  // measure 31
0000
0000
0330
1001
,  // measure 32
1100
0000
0000
0000
0011
0000
0000
0000
0001
0000
1000
0010
1000
0010
1000
0000
,  // measure 33
0001
0100
0001
0100
0001
0000
1000
0100
1000
0100
1000
0000
0010
0000
0100
0000
,  // measure 34
0010
0000
0000
0000
1001
0000
0000
0000
0001
0000
1000
0100
1000
0100
1000
0000
,  // measure 35
0001
0100
0001
0100
0001
0000
1000
0000
0100
0000
0001
0000
0100
0000
1000
0000
,  // measure 36
0001
0001
1000
1000
0010
0010
0100
0100
,  // measure 37
0001
0001
1000
1000
0100
0100
0010
0010
,  // measure 38
0001
1000
0001
1000
0001
1000
0001
1000
0001
1000
0001
1000
0001
1000
0001
2000
,  // measure 39
0002
0000
0000
3003
,  // measure 40
0001
1100
0010
0101
1000
0011
0100
1010
,  // measure 41
0001
1100
0010
0101
1000
0011
0110
1001
,  // measure 42
1000
0101
0010
1100
0001
1010
0100
0011
,  // measure 43
1000
0101
0010
1100
1001
0110
1001
0110
,  // measure 44
0001
0000
1100
0000
0001
1000
0010
0000
,  // measure 45
0100
0000
1001
0000
0010
0001
1000
0100
,  // measure 46
1000
0000
0011
0000
1000
0001
0100
0000
,  // measure 47
0010
1000
0100
0010
0001
0000
1001
0000
,  // measure 48
1000
0000
0101
0000
1000
0001
0010
0000
,  // measure 49
0100
0000
1001
0000
0010
1000
0001
0100
,  // measure 50
0001
0010
0100
1000
0010
0100
0001
1000
,  // measure 51
0010
0100
0010
0100
0010
0100
0010
0100
0010
0000
1000
0000
1001
0000
0000
0000
,  // measure 52
0001
1000
0010
0210
0000
0301
2000
0000
,  // measure 53
3100
0010
0100
0010
0100
0000
2000
0000
0000
0000
3010
0000
0100
0000
0001
0000
,  // measure 54
0011
1010
1100
0101
,  // measure 55
1010
0011
0101
1100
,  // measure 56
1000
0010
0100
0102
0000
1003
0200
0000
,  // measure 57
0310
0001
1000
0001
1000
0000
0020
0000
0000
0000
0130
0000
0001
0000
1000
0000
,  // measure 58
1100
0011
0101
1010
,  // measure 59
2002
0000
0000
3003
,  // measure 60
1000
0001
0010
0210
0000
1300
0002
0000
,  // measure 61
0103
0010
0100
0010
0100
0000
0002
0000
0000
0000
0013
0000
0100
0000
1000
0000
,  // measure 62
1010
0011
0101
1100
,  // measure 63
0011
1010
1100
0101
,  // measure 64
0001
0010
0100
2100
0000
3001
0200
0000
,  // measure 65
0310
1000
0001
1000
0001
0000
0020
0000
0000
0000
0130
0000
1000
0000
0001
0000
,  // measure 66
1000
0010
0100
0001
0010
0100
1000
0001
,  // measure 67
0100
0000
0000
0000
0010
0000
0000
0000
0100
0000
0000
0000
0001
0000
0000
0000
1000
0000
0000
0000
0001
0000
0000
0000
0010
0000
0000
0100
0000
0000
0010
0000
0000
0100
0000
0000
1000
0000
0000
0001
0000
0000
1000
0000
0000
0002
0000
0000
,  // measure 68
2000
0000
0000
0000
,  // measure 69
0000
0000
0000
3003
,  // measure 70
2000
0000
3002
0000
,  // measure 71
0023
0000
0230
0000
1300
0001
1001
0000
,  // measure 72
1000
0000
0001
0011
0000
1000
0010
0110
,  // measure 73
0000
0101
0000
1001
0000
1000
0100
0010
,  // measure 74
0001
0000
1000
1010
0000
0001
0010
0110
,  // measure 75
0000
1100
0000
1001
0001
0100
0010
1000
,  // measure 76
0001
0001
0010
0010
0100
0100
1000
1000
,  // measure 77
0010
0010
0100
0100
0001
0001
1000
1000
,  // measure 78
0100
0010
0001
0100
0010
1000
0100
0010
,  // measure 79
0001
1000
0001
1000
0001
1000
0001
1000
0001
1000
0001
1000
0001
1000
0001
1000
,  // measure 80
0002
0100
0200
0303
0020
1000
1030
0001
,  // measure 81
2000
0100
0200
3300
0020
0001
0031
1000
,  // measure 82
1010
0101
0011
1100
,  // measure 83
1000
0001
0010
0100
1000
0001
0100
0010
,  // measure 84
1000
0100
1000
0100
1000
0100
1000
0100
0010
0001
0010
0001
0010
0001
0010
0001
,  // measure 85
1000
0010
0100
0001
1000
0000
1001
0000
,  // measure 86
0001
0000
0100
0001
0100
0000
1000
0000
0000
0000
0100
0000
0001
0000
0011
0000
,  // measure 87
0000
0000
1100
0000
0000
0000
1001
0000
0000
0000
0001
0100
0001
0000
0100
0000
,  // measure 88
0010
0000
1000
0001
1000
0000
0001
0000
0000
0000
0010
0000
0100
0000
1100
0000
,  // measure 89
0000
0000
0011
0000
0000
0000
0001
0000
1000
0000
0010
0000
0100
0001
0100
0001
,  // measure 90
1000
0000
0100
1000
0100
0000
0001
0000
0000
0000
0100
0000
1000
0000
1010
0000
,  // measure 91
0000
0000
0101
0000
0000
0000
1001
0000
0000
0000
1000
0100
1000
0000
0100
0000
,  // measure 92
0010
0000
0001
1000
0001
0000
1000
0000
0000
0000
0010
0000
0100
0000
0001
0000
,  // measure 93
1001
0000
0000
0000
0110
0000
0000
0000
1001
0000
1000
0000
0001
1000
0001
0000
,  // measure 94
1000
0100
0010
0100
0001
0100
1000
0010
,  // measure 95
0100
0000
0010
0000
1000
0000
0100
0000
0010
0000
0001
0100
0010
0100
0010
1000
,  // measure 96
0001
0100
0010
0100
1000
0100
0001
0010
,  // measure 97
0100
0000
0010
0000
0001
0000
0100
0000
0010
0000
1000
0100
0010
0100
0010
0001
,  // measure 98
1000
0001
1000
0000
0100
0000
0010
0000
0001
1000
0001
0000
0100
0000
0010
0000
,  // measure 99
1000
0001
1000
0000
0010
0000
0100
0000
0001
1000
0001
0000
0010
0000
0100
0000
,  // measure 100
1000
0010
1000
0010
1000
0010
1000
0010
0100
0001
0100
0001
0100
0001
0100
0001
,  // measure 101
1000
0001
1000
0001
1000
0001
1000
0001
1000
0001
1000
0001
1000
0000
0000
0000
,  // measure 102
1100
1001
1010
1001
,  // measure 103
1100
0000
1001
0000
1010
0000
1000
0001
,  // measure 104
0101
1001
0011
1001
,  // measure 105
0101
0000
1001
0000
0001
0100
0010
1000
,  // measure 106
0001
0001
0010
0010
0100
0100
1000
1000
,  // measure 107
0010
0010
0100
0100
0001
0001
1000
1000
,  // measure 108
0100
0010
0100
0010
0100
0010
0100
0010
0100
0010
0100
0010
0100
0010
0100
0020
,  // measure 109
0200
0000
0000
0330
,  // measure 110
1001
0000
0000
0000
;
