#TITLE:Lost wing at.0;
#SUBTITLE:;
#ARTIST:猫叉Master+;
#TITLETRANSLIT:;
#SUBTITLETRANSLIT:;
#ARTISTTRANSLIT:;
#GENRE:;
#CREDIT:;
#MUSIC:Lost wing at.0.ogg;
#BANNER:Lost wing at.0.png;
#BACKGROUND:Lost wing at.0-bg.png;
#CDTITLE:;
#SAMPLESTART:80.446;
#SAMPLELENGTH:15.000;
#SELECTABLE:YES;
#OFFSET:1.296;
#BPMS:0.000=184.970;
#STOPS:;
#BGCHANGES:3.000=Lost wing at.0.avi=1.000=0=0=0=StretchNoLoop====,
99999.000=-nosongbg-=1.000=0=0=0=StretchNoLoop====
;
#FGCHANGES:;

//--------------- dance-single - ----------------
#NOTES:
     dance-single:
     :
     Beginner:
     5:
     0,0,0,0,0:
0000
0000
0000
0000
,
0000
0000
0000
0000
,
0000
0000
0000
0000
,
0000
0000
0000
0000
,
0000
0000
0000
0000
,
0000
0000
0000
0000
,
0000
0000
0000
0000
,
0000
0000
0000
0000
,
1000
0000
0100
0000
,
0020
0000
0000
0000
,
0000
0000
0030
0000
,
0001
0000
0100
0000
,
0020
0000
0030
0000
,
2000
0000
3000
0000
,
0002
0000
0000
0000
,
0000
0000
0003
0000
,
0010
0010
0010
0000
,
0001
0000
0100
0000
,
0001
0000
0100
0000
,
0010
0000
1000
0000
,
1000
1000
1000
0000
,
1000
0000
0100
0000
,
1000
0000
0100
0000
,
0010
0000
0001
0000
,
0001
0001
0001
0000
,
1000
0000
0010
0000
,
1000
0000
0100
0000
,
1000
0000
0010
0000
,
1000
1000
0100
0000
,
0001
0000
0010
0000
,
0001
0000
0100
0000
,
0001
0000
0010
0000
,
0001
0001
0100
0000
,
0020
0000
0000
0030
,
0200
0000
0000
0300
,
0002
0000
0000
0003
,
1000
1000
0001
0001
,
0020
0000
0000
0030
,
0200
0000
0000
0300
,
2000
0000
0000
3000
,
0001
0001
1000
1000
,
0002
0000
0000
0000
,
0000
0000
0003
0000
,
0001
0000
0000
0001
0000
0000
1000
0000
,
0000
1000
0000
0000
0000
0000
0000
0000
,
0001
0000
0000
0100
,
0000
0000
0010
0010
,
1000
0000
0000
0100
,
0000
0000
0010
0000
,
0001
0000
0000
0100
,
0000
0000
0010
0010
,
1000
0000
0000
0100
,
0000
0000
0010
0010
,
0010
0000
0000
0000
,
0100
0000
0000
0000
,
1000
0000
0000
0000
,
0001
0000
0000
0000
,
0100
0000
0110
0000
,
0010
0000
0110
0000
,
1000
0000
0000
1000
0000
0000
1000
0000
,
0000
1000
0000
0000
0000
0000
0000
0000
,
0001
0000
0000
0001
0000
0000
0001
0000
,
0000
0001
0000
0000
0000
0000
0000
0000
,
0100
0100
0000
0010
,
0010
0000
1000
1000
,
0000
0001
0001
0000
,
0010
0010
0100
0100
,
0020
0000
0000
0030
,
0001
0100
0010
2000
,
0000
0000
0000
0000
,
3000
0001
1001
0000
,
1000
1000
0000
0100
,
0100
0000
0010
0010
,
0000
0001
0001
0000
,
0100
0100
0010
0020
,
0000
0000
0000
0000
,
1030
0010
0100
0002
,
0000
0000
0000
0000
,
2003
0000
3001
0000
,
1000
0000
0000
0100
0000
0000
1000
0000
,
0000
0200
0000
0000
0000
0000
0000
0000
,
0000
0000
0000
0300
,
0010
0000
0000
0001
0000
0000
0010
0000
,
0000
0002
0000
0000
0000
0000
0000
0000
,
0000
0000
0000
0003
,
1000
0000
0000
0010
0000
0000
0100
0000
,
0000
0002
0000
0000
0000
0000
0000
0000
,
0000
0000
0000
0003
,
0100
0000
0000
0010
0000
0000
1000
0000
,
0000
0002
0000
0000
0000
0000
0000
0000
,
0023
0000
0030
0000
,
2002
0000
0000
0000
,
0000
0000
0000
0000
,
0000
0000
0000
0000
,
3003
0000
0000
0000
;

//--------------- dance-single - ----------------
#NOTES:
     dance-single:
     :
     Easy:
     7:
     0,0,0,0,0:
0000
0000
0000
0000
,
0000
0000
0000
0000
,
0000
0000
0000
0000
,
0000
0000
0000
0000
,
0000
0000
0000
0000
,
0000
0000
0000
0000
,
0000
0000
0000
0000
,
0000
0000
0000
0000
,
0002
0000
0000
0203
0000
0000
0320
0000
,
0000
2030
0000
0000
0000
0000
0000
0000
,
0000
0000
0000
3000
,
2000
0000
0000
3200
0000
0000
0320
0000
,
0000
0032
0000
0000
0000
0000
0000
0000
,
0203
0000
0000
0300
,
2002
0000
0000
0000
,
0000
0000
0000
3003
,
0001
1000
0001
1001
,
1000
0010
1000
0010
,
0100
0001
0100
0001
,
1000
0100
1000
0100
,
0010
0001
1001
0000
,
0001
0100
0001
0100
,
0010
1000
0010
1000
,
0001
0010
0001
0010
,
0100
1000
1001
0000
,
0001
0000
0100
0000
0001
0010
0001
0000
,
1000
0000
0100
0000
1000
0010
1000
0000
,
0001
0100
0001
1000
,
0100
0100
0100
0000
,
1000
0000
0010
0000
1000
0100
1000
0000
,
0001
0000
0010
0000
0001
0100
0001
0000
,
1000
0010
1000
0100
,
0010
0010
0010
0000
,
0001
0100
0001
0100
,
1000
0100
1000
0100
,
0001
0100
0001
0010
,
0100
0100
1001
0000
,
1000
0100
1000
0100
,
0001
0100
0001
0100
,
1000
0100
1000
0100
,
0010
0010
1001
0000
,
0001
0000
0000
1000
0000
0000
0001
0000
,
0000
1000
0000
0000
0001
0000
0001
0000
,
0100
0000
0000
0100
0000
0000
0010
0000
,
0000
0010
0000
0000
1000
0000
0001
0000
,
1000
0000
0000
1100
0000
0000
0001
0000
,
0000
0011
0000
0000
0000
0000
0000
0000
,
1000
0000
0000
1010
0000
0000
0001
0000
,
0000
0011
0000
0000
0000
0000
0000
0000
,
0100
0000
0000
0110
0000
0000
0010
0000
,
0000
0110
0000
0000
0000
0000
0000
0000
,
1000
0000
0000
1001
0000
0000
0001
0000
,
0000
1001
0000
0000
1000
0000
0100
0000
,
0020
0000
0000
0000
,
0230
0000
0010
0310
,
0002
0000
2003
0000
,
3020
0000
0100
0130
,
0001
0010
0001
1000
,
0010
1000
0100
0010
,
0002
0000
0000
0203
0000
0000
0302
0000
,
0000
0203
0000
0000
0310
0000
0010
0000
,
2000
0000
0000
3200
0000
0000
2300
0000
,
0000
3200
0000
0000
0300
0000
0000
0000
,
1000
0010
1000
0010
,
0001
0010
0001
0100
,
0001
0100
1000
0100
,
1000
0010
0100
0001
,
2002
0000
0000
3003
,
1000
0000
0100
0000
0010
0100
0020
0000
,
0000
0000
0000
0000
,
0030
0001
1000
1001
,
0001
0100
0001
0100
,
1000
0100
1000
0010
,
1000
0010
0001
0001
,
0100
1000
0010
0002
,
0000
0000
0000
0003
,
0100
0000
0010
0000
1000
0001
2000
0000
,
0000
0000
0000
0000
,
3100
0100
0010
0010
,
0001
0000
0000
0011
0000
0000
0101
0000
,
0000
2002
0000
0000
0000
0000
0000
0000
,
0000
0000
0000
3003
,
1000
0000
0000
1100
0000
0000
1010
0000
,
0000
2002
0000
0000
0000
0000
0000
0000
,
0000
0000
0000
3003
,
0101
0000
0000
0110
0000
0000
1010
0000
,
0000
2002
0000
0000
0000
0000
0000
0000
,
0000
0000
0000
3003
,
1100
0000
0000
0110
0000
0000
0011
0000
,
0000
2002
0000
0000
0000
0000
3000
0000
,
0203
0000
0020
0330
,
2002
0000
0000
0000
,
0000
0000
0000
0000
,
0000
0000
0000
0000
,
3003
0000
0000
0000
;

//--------------- dance-single - ----------------
#NOTES:
     dance-single:
     :
     Medium:
     11:
     0,0,0,0,0:
0000
0000
0000
0000
,
0000
0000
0000
0000
,
0000
0000
0000
0000
,
0000
0000
0000
0000
,
0000
0000
0000
0000
,
0000
0000
0000
0000
,
0000
0000
0000
0000
,
0000
0000
0000
0000
0000
0000
0000
0001
,
0100
0000
0100
0010
0000
0010
1000
0000
,
1000
0002
0000
0000
0010
0000
0010
0000
,
0010
0000
0000
0010
0000
0000
0003
1000
,
0100
0000
0100
0010
0000
0010
0001
0000
,
0001
2000
0000
0000
0010
0000
0010
0000
,
3200
0000
0010
0310
,
2002
0000
0000
0000
,
0000
0000
0000
3003
,
0001
0000
0001
0000
0001
1000
0001
0000
,
1000
0000
0100
0000
0010
0001
0010
0000
,
0001
0000
0100
0000
0010
1000
0010
0000
,
1000
0000
0100
0000
0010
0001
0000
0011
,
0000
0101
0000
1001
0000
0110
0000
1000
,
0100
1000
0000
0001
0010
0000
0001
0100
,
0000
0010
1000
0000
1100
0000
0101
0000
,
0001
0010
0000
0001
0100
0010
0000
1010
,
0000
1100
0000
1001
0000
0220
0000
0330
,
1001
0000
1000
0100
1000
0100
0020
0000
,
0031
0000
0001
0100
0001
0100
0020
0000
,
1030
0000
1000
0100
1000
0100
0010
0001
,
0000
0100
0000
0101
0000
1010
0000
1000
,
0001
0000
0001
0010
0001
0010
0200
0000
,
1300
0000
1000
0010
1000
0010
0200
0000
,
0301
0000
0001
0010
0001
0010
0100
1000
,
0000
1100
0000
1010
0000
1001
0000
0001
,
0020
1000
0230
1000
,
0320
0001
0230
0001
,
2300
0000
0010
0000
3001
0100
0000
0110
,
0000
1000
0000
0110
0000
0001
0000
1000
,
0200
1000
0320
1000
,
0230
0001
0320
1000
,
0032
0000
0100
0000
1003
0010
0000
0110
,
0000
0001
0000
0110
0000
1000
0000
1000
,
0100
0000
0001
0100
0000
1000
0010
0000
,
0001
0010
0000
1000
0100
0000
0010
0000
,
0001
0000
0000
0001
0000
0000
0011
0000
0000
0000
0000
0000
1000
0000
0000
1000
,
0000
1010
0000
0000
0001
0000
1000
0000
,
0001
0000
0000
0100
0000
0000
0101
0000
0000
0000
0000
0000
1000
0000
0000
0100
,
0000
1100
0000
0000
0100
0010
0100
0010
,
0001
0000
0000
0010
0000
0000
0011
0000
0000
0000
0000
0000
1000
0000
0000
0010
,
0000
1010
0000
0000
1000
0000
0001
0000
,
0100
0000
0000
0010
0000
0000
0110
0000
0000
0000
0000
0000
0010
0000
0000
0100
,
0000
0110
0000
0000
1000
0001
1000
0001
,
0010
0000
0000
0100
0000
0000
1100
0000
0000
0000
0000
0000
0100
0000
0000
0010
,
0000
0011
0000
0001
0100
0001
0100
0010
,
1000
0000
0000
1000
0000
0000
1100
0000
0000
0000
0000
0000
0010
0000
0000
0010
,
0000
0011
0000
0000
0001
0000
0100
0000
,
0010
0000
0000
0010
0000
0000
1010
0000
0000
0000
0000
0000
0100
0000
0000
0100
,
0000
0101
0000
0000
0010
0000
1000
0001
,
0100
0000
0000
0100
0000
0000
0100
0000
0010
0000
1000
0000
0001
0000
0000
0001
,
0000
0001
0010
0100
0020
0000
0230
0000
,
1300
0000
0000
1010
0000
0000
0011
0000
0000
0000
0001
0000
0010
0000
0000
0011
,
0000
1010
0000
1000
0100
0010
0100
0010
,
0001
0000
0000
0101
0000
0000
1100
0000
0000
0000
1000
0000
0100
0000
0000
1100
,
0000
0101
0000
0000
0000
0000
0000
0000
,
1000
0100
1000
0100
1000
0010
0100
0001
,
0100
0001
0100
0010
1000
0100
1000
0100
,
1000
0010
0100
0001
0100
0001
0100
0010
,
1000
0100
1000
0100
0010
0001
0010
0001
,
2000
0010
0001
0010
,
3001
0100
0010
0100
0010
1000
0002
0000
,
0010
1000
0010
1000
,
0013
0000
0010
0001
1000
0000
1001
0000
,
0001
0100
0001
0100
0001
0010
0100
1000
,
0100
1000
0100
0010
0001
0100
0001
0100
,
0001
0010
0001
0010
0100
1000
0100
1000
,
0001
0100
0001
0010
0001
0100
0020
0000
,
0001
1000
0001
1030
,
1000
0100
0010
0100
0010
0001
0200
0000
,
1000
0000
0001
0000
1000
0000
0301
0010
,
0100
0000
1000
0010
0100
0010
0100
0001
,
1000
0000
1000
0010
0000
0010
0001
0000
,
0001
0020
0000
0000
1000
0000
0001
0000
,
0100
0001
1000
0130
,
0001
0000
0001
0010
0000
0010
1000
0000
,
1000
0020
0000
0000
0001
0000
1000
0000
,
0100
1000
0001
0130
,
1000
0000
1000
0010
0000
0100
0001
0000
,
0001
0020
0000
0000
0001
0000
1000
0000
,
0100
1000
0001
0130
,
0010
0000
0010
0001
0000
1000
0010
0000
,
0010
0200
1000
0000
0010
0000
0301
0010
,
0200
0000
0000
0001
0000
0000
0010
0000
0000
1300
0001
1000
,
0002
0000
0000
0000
,
0000
0000
0000
0000
,
0000
0000
0000
0000
,
0003
0000
0000
0000
;

//--------------- dance-single - ----------------
#NOTES:
     dance-single:
     :
     Hard:
     15:
     0,0,0,0,0:
0000
0000
0000
0000
,
0000
0000
0000
0000
,
0000
0000
0000
0000
,
0000
0000
0000
0000
,
0000
0000
0000
0000
,
0000
0000
0000
0000
,
0000
0000
0000
0000
,
0000
0000
0000
0000
0000
0000
0000
0000
0000
0000
0000
0000
0000
0000
0001
0010
,
0002
0000
0000
0000
0010
0000
0203
0000
0000
0000
0001
0000
0310
0000
0010
0100
,
0010
2000
0000
0100
0001
0000
0001
0000
,
0001
0000
0000
0000
3010
0000
0000
0000
0010
0100
0010
0000
0100
0000
0001
0000
,
2000
0000
0000
0000
0010
0000
3200
0000
0000
0000
1000
0000
0310
0000
0010
0100
,
0010
0000
0002
0000
0100
0000
0000
0000
0100
0000
0000
0000
0103
0000
0100
0010
,
2000
0000
0000
0100
0000
0000
0100
0000
0000
3100
0010
0200
,
0020
0000
0000
0000
,
0000
0000
0000
0330
,
0001
0000
0001
0000
1000
0001
1001
0000
,
0001
0100
0001
0100
0010
1000
0010
0000
,
1000
0100
1000
0100
0010
0001
0010
0000
,
0001
0100
0001
0100
0010
1000
0000
1100
,
0000
0000
0011
0000
0000
0000
0101
0000
0000
0000
1010
0000
0000
0000
1000
0001
,
1000
0100
0001
0100
1000
0100
1000
0000
,
0001
0010
1000
0010
0001
0010
0001
0000
,
1000
0010
0001
0010
1000
0010
1000
0100
,
0000
0011
0000
1010
0000
0011
0000
0001
,
1000
0000
0000
0000
0001
0000
0100
0000
1000
0100
1000
0000
0200
0000
0000
0000
,
0301
0000
0000
0000
1000
0000
0100
0000
0001
0100
0001
0000
0200
0000
0000
0000
,
1300
0000
0001
0100
1000
0100
0001
0020
,
0000
0000
0130
1000
0010
0000
0200
0000
0000
0000
0320
0000
0000
0000
1030
0000
,
0001
0000
0000
0000
0010
0000
1000
0000
0010
0001
0010
0000
0002
0000
0000
0000
,
0103
0000
0000
0000
0010
0000
0001
0000
0010
1000
0010
0000
2000
0000
0000
0000
,
3100
0000
0010
1000
0010
0001
0100
0020
,
0000
0000
0130
0001
0010
0000
0200
0000
0000
0000
0320
0000
0000
0000
0031
0000
,
1000
0000
0010
0000
1000
0000
0010
0000
0001
0000
1000
0000
0100
0000
0001
0100
,
0001
0000
0010
0000
1000
0000
0010
0000
1000
0000
0001
0000
0100
0000
1000
0100
,
1000
0010
0001
0010
0001
1000
0100
0001
,
0000
0011
0000
1010
0000
0011
0000
1000
,
0001
0000
0010
0000
0001
0000
0010
0000
1000
0000
0001
0000
0100
0000
1000
0100
,
1000
0000
0010
0000
0001
0000
0010
0000
0001
0000
1000
0000
0100
0000
0001
0100
,
0001
0010
1000
0010
1000
0001
0100
1000
,
0000
1010
0000
0011
0000
1010
0000
0001
,
0010
0000
0001
1000
0001
0000
0010
0000
0001
1000
0001
0000
0010
0000
0001
1000
,
0001
0000
0010
0000
0001
1000
0001
0000
0100
0000
0010
0000
0100
0000
0010
0000
,
1000
0000
0000
1100
0000
0000
0110
0000
0000
0000
0001
0000
0100
0000
0000
0110
,
0000
0000
1010
0000
0000
0000
0000
0000
1000
0000
0100
0010
0001
0000
0001
0000
,
0001
0000
0000
0011
0000
0000
0101
0000
0000
0000
0000
0000
1000
0000
0000
1100
,
0000
1010
0000
0000
2000
3200
0320
0032
,
1003
0000
0000
1010
0000
0000
0101
0000
0000
0000
0000
0000
0001
0000
0000
0011
,
0000
1100
0000
0000
2000
0000
3002
0000
,
1003
0000
0000
1100
0000
0000
1010
0000
0000
0000
0000
0000
0001
0000
0000
0011
,
0000
0101
0000
0000
0002
0203
0320
2030
,
3001
0000
0000
0011
0000
0000
1100
0000
0000
0000
0000
0000
1000
0000
0000
1010
,
0000
0101
0000
0001
0100
0010
0100
0010
,
2000
0100
0010
0100
,
3002
0100
0013
0110
,
0001
0000
0000
0001
0000
0000
0002
0000
0100
0000
0000
0000
0010
0000
0000
0000
,
2003
0000
0100
0000
0010
0000
3100
0010
,
0002
0000
0000
0000
0103
0000
0010
1000
0010
0000
0100
0000
0002
0000
0000
0000
,
0010
0000
0000
0000
0100
0000
0103
0010
0200
0000
0000
0000
0320
0000
0000
0000
,
1030
0000
0000
1100
0000
0000
0101
0000
0000
0000
0001
0010
0001
0000
0000
0101
,
0000
1100
0000
1000
0010
0100
0010
0100
,
0001
0000
0000
0011
0000
0000
1010
0000
0000
0000
1000
0100
1000
0000
0000
1010
,
0000
0000
0011
0000
0000
0000
0000
0000
0000
0000
0000
0000
0000
0000
1000
0010
,
1000
0000
0100
1000
0100
0000
0010
0000
1000
0000
0010
0000
0001
0000
0100
0001
,
0100
0000
0010
0000
0001
0000
0010
0000
1000
0000
0100
1000
0100
0000
0010
0000
,
1000
0000
0010
0000
0001
0000
0100
0001
0100
0000
0010
0000
0001
0000
0010
0000
,
1000
0100
0010
1000
0010
0001
0100
0010
,
2000
0000
0000
0000
0001
0000
0000
0000
0010
0000
0000
0000
3001
0000
0001
0010
,
0100
1000
0010
1000
0100
0010
0002
0000
,
1000
0000
0010
0000
1003
0010
0100
0010
,
0100
0001
0010
0100
0110
0000
1001
0000
,
0001
0000
0100
0001
0100
0000
0010
0000
0001
0000
0010
0000
1000
0000
0100
1000
,
0100
0000
0010
0000
1000
0000
0010
0000
0001
0000
0100
0001
0100
0000
0010
0000
,
0001
0000
0010
0000
1000
0000
0001
0000
0010
0000
1000
0010
1000
0000
0001
0000
,
0100
1000
0100
1000
0001
0100
0020
0000
,
0001
0000
0000
0000
1000
0000
0000
0000
0001
0000
0000
0000
1030
0000
1000
0100
,
0010
0001
0010
0001
1000
0010
0200
0000
,
0001
0000
0000
0000
1000
0000
0000
0000
0001
0000
0000
0000
0310
0000
1000
0001
,
1000
0000
0100
0000
0010
0000
0001
1000
0001
0000
0100
0000
0010
0000
0010
0000
,
1000
0000
0100
1000
0100
0000
1000
0000
0010
0000
0100
0000
0001
0000
0010
0001
,
0010
0001
0200
0000
2300
0000
3200
0000
,
0302
0023
2030
3020
,
0031
0000
0100
0001
0100
0000
0001
0000
0010
0000
0100
0000
1000
0000
0010
1000
,
0010
0000
2000
0000
0000
0000
3100
0010
0100
0000
0010
0000
0020
0000
0000
0000
,
2030
0000
0000
0000
3010
0000
0001
0010
0001
0000
1000
0100
1000
0000
0010
0000
,
0100
0000
0001
1000
0001
0000
0010
0000
0100
0000
0010
0000
0100
0000
1000
0001
,
1000
0010
0200
0000
2300
0000
3200
0000
,
0302
0000
0000
0000
0013
0000
0100
1000
0001
0000
0100
0001
1000
0000
1000
0000
,
0010
0000
1000
0001
1000
0000
0100
0000
0010
0000
0100
0000
0010
0000
0001
1000
,
0001
0000
0200
0000
0010
0000
0000
0000
0010
0000
0000
0000
0310
0000
1000
0100
,
0020
0000
0000
0100
0000
0000
0100
0000
0000
0130
0010
0002
,
2000
0000
0000
0000
,
0000
0000
0000
0000
,
0000
0000
0000
0000
,
3003
0000
0000
0000
;
