#VERSION:0.83;
#TITLE:Leviathan;
#SUBTITLE:;
#ARTIST:Zekk;
#TITLETRANSLIT:;
#SUBTITLETRANSLIT:;
#ARTISTTRANSLIT:;
#GENRE:;
#CREDIT:;
#MUSIC:Leviathan.ogg;
#BANNER:Leviathan.png;
#BACKGROUND:Leviathan-bg.png;
#CDTITLE:;
#SAMPLESTART:72.596;
#SAMPLELENGTH:15.000;
#SELECTABLE:YES;
#OFFSET:1.478;
#BPMS:0.000=162.000;
#STOPS:;
#SPEEDS:0.000=1.000=0.000=0;
#SCROLLS:0.000=1.000;
#TICKCOUNTS:0.000=4;
#TIMESIGNATURES:0.000=4=4;
#LABELS:0.000=Song Start;
#COMBOS:0.000=1;
#ORIGIN:;
#PREVIEWVID:;
#JACKET:;
#CDIMAGE:;
#DISCIMAGE:;
#BGCHANGES:;
#FGCHANGES:;

//--------------- dance-single - forcednature ----------------
#NOTEDATA:;
#STEPSTYPE:dance-single;
#DESCRIPTION:forcednature;
#DIFFICULTY:Beginner;
#METER:5;
#RADARVALUES:0,0,0,0,0;
#NOTES:
0000
0000
0000
0000
,
0000
0000
0000
0000
,
0000
0000
0000
0000
,
0000
0000
0000
0000
,
0000
0000
0000
0000
,
0000
0000
0000
0000
,
1000
1000
0000
0000
,
0001
0001
0000
0000
,
0100
0100
0010
0010
,
1000
1000
1000
0000
,
0110
0000
0001
0000
,
0010
0000
0100
0000
,
0110
0000
1000
0000
,
0010
0000
0100
0000
,
1001
0000
0100
0000
,
0010
0000
1000
0000
,
1001
0000
0100
0000
,
0010
0000
0002
0000
,
1003
0010
0000
0010
,
0000
0100
0000
0100
,
0001
0010
0000
0010
,
0100
0100
0100
0000
,
1001
1000
0000
1000
,
0000
0001
0000
0001
,
0000
0000
0100
0000
0000
0010
0000
0000
,
1001
0000
0000
0110
0000
0000
0000
0000
,
1001
0000
1000
0000
,
0001
0000
0100
0000
,
0010
0000
1000
0000
,
1001
0000
0020
0000
,
0130
0000
0001
0000
,
1000
0000
0010
0000
,
1000
1000
0001
0001
,
0010
0010
0010
0000
,
2002
0000
0000
0000
,
0000
0000
0000
0000
,
0000
0000
0000
0000
,
0000
0000
0000
3003
,
1000
0000
0000
0000
,
0001
0000
0000
0000
,
0100
0000
0100
0000
0100
0000
0000
0110
,
0000
0000
1000
0001
,
1001
0000
1000
0000
,
1000
0000
1000
0000
,
0001
0010
0100
1000
,
0110
0000
1000
0001
,
1001
0000
0000
0000
,
0110
0000
0000
0000
,
2002
0000
0000
0000
,
3003
0100
0100
0010
,
0000
1001
0000
0001
,
0000
0100
0001
0010
,
0000
0100
0000
1000
,
0000
0010
0100
0100
,
0000
0001
0000
1000
,
0000
0100
0010
0001
,
0000
0100
0000
0010
,
0000
1000
1000
1000
,
0000
0001
0000
0010
,
0000
0100
1000
0100
,
0000
0010
0000
0001
,
0000
1000
0010
1000
,
1001
0000
0000
0000
,
0110
0000
1000
0000
,
0001
0000
0001
0000
1000
0000
0000
2002
,
0000
0000
0000
3003
,
0000
1001
0000
0001
,
0000
0100
0000
0010
,
0000
1000
0000
0100
,
0000
0010
0010
0010
,
0000
0110
0000
1000
,
0000
0001
0000
0100
,
0010
0010
1000
1000
,
0200
0000
0310
0010
,
0000
1001
0000
0001
,
0000
1000
0000
0100
,
0000
0010
0000
0001
,
0000
0100
0000
0010
,
0000
0000
0000
0000
0000
0000
0000
0000
1000
0000
0000
0001
0000
0000
1000
0000
,
0000
0110
0000
0001
,
0010
0010
0100
0100
,
1000
0001
0100
0010
,
1000
1000
0001
0001
,
1000
1000
0001
0010
,
0100
0100
0010
0010
,
0100
1000
0020
0030
,
1001
0000
0000
0000
;

//--------------- dance-single - forcednature ----------------
#NOTEDATA:;
#STEPSTYPE:dance-single;
#DESCRIPTION:forcednature;
#DIFFICULTY:Easy;
#METER:9;
#RADARVALUES:0,0,0,0,0;
#NOTES:
0000
0000
0000
0000
,
0000
0000
0000
0000
,
0000
0000
0000
0000
,
0000
0000
0000
0000
,
0000
0000
0000
0000
,
0000
0000
0000
0000
,
1000
0000
0000
1000
0000
0000
0000
0000
0100
0000
0000
0000
0010
0000
0000
0000
,
0001
0000
0000
0001
0000
0000
0000
0000
0100
0000
0000
0000
0110
0000
0000
0000
,
1000
0000
0000
1000
0000
0000
0000
0000
0001
0000
0000
0001
0000
0000
0000
0000
,
0120
0100
0130
1001
,
1100
0001
0200
0300
,
0010
0000
1000
0000
0001
0010
0001
0000
,
1001
1000
0200
0300
,
0010
0000
0001
0000
0100
0010
0100
0000
,
1001
0010
0200
0300
,
1000
0000
0010
0000
0100
0001
0100
0000
,
0110
1000
0002
0003
,
0010
0000
0000
0010
0000
0000
0010
0000
0200
0000
0000
0000
0300
0000
0000
0000
,
1000
0001
0100
0010
,
1000
0001
1000
0000
0100
0000
0010
0000
,
0001
0000
0100
0000
0010
1000
0010
0000
,
0200
0000
0301
1000
,
0110
1001
0001
0100
,
0010
1000
0010
0000
0100
0000
0001
0000
,
0020
0000
0000
0000
0130
0000
0000
0100
0000
0000
1000
0000
0000
1000
0000
0000
,
0010
0000
0000
0100
0000
0000
0002
0000
0000
0000
0000
0000
0003
0000
0000
0000
,
1001
0100
0001
0100
,
0010
1000
0001
1000
,
0100
0010
0001
0100
,
0020
0000
1000
1030
,
1001
0000
0001
0000
0100
0001
0100
0000
,
0010
0000
1000
0000
0100
0010
0100
0000
,
1000
0001
1000
0000
0001
1000
0001
0000
,
0100
0000
0100
0000
0100
0000
0010
0000
0000
0110
0000
0000
,
2001
0000
0000
0000
,
3200
0000
0000
0000
,
0320
0000
0000
0000
,
0032
0000
0000
0000
,
0203
0000
0000
0000
,
0320
0000
0000
0000
,
2030
0000
0001
0000
0001
0000
3001
1000
,
0000
0000
0010
0000
0100
0001
0100
0000
,
1001
0000
1000
0000
,
0001
0000
0100
0010
,
1000
0000
0001
0000
,
0220
0330
1000
0001
,
1001
0000
0000
0000
,
0110
0000
0000
0000
,
2002
0000
0000
3003
,
0100
0000
0020
0000
0100
0100
0130
0000
,
0000
0000
1001
0000
0001
0100
0001
0000
,
1000
0100
1000
0000
0010
0000
0100
0000
,
0001
0010
0001
0000
1000
0010
1000
0000
,
0100
0000
0010
0000
0100
0000
0000
0000
1000
0000
0000
1000
0000
0000
0000
0000
,
0001
0100
0001
0000
1000
0010
1000
0000
,
0001
0010
0001
0000
0100
0000
0010
0000
,
1000
0100
1000
0000
0001
0100
0001
0000
,
0220
0000
0330
0000
1000
0001
1000
0200
,
0000
0000
0310
0000
0001
0000
0100
0010
,
0000
0010
1000
0000
0001
0010
0001
0000
,
0100
0000
0010
0000
1000
0001
1000
0000
,
0100
0000
0000
0000
0010
0000
0000
0000
0001
0000
0000
0001
0000
0000
0100
0000
,
0010
0000
0000
0000
0000
0000
0000
1000
,
0001
0000
0000
0000
0000
0000
0000
0000
0010
0000
0000
0010
0000
0000
0100
0000
,
1000
0000
0000
1000
0001
0000
0000
0000
0001
0000
0000
0001
1000
0000
0020
0000
,
0000
0000
0000
0000
0130
0100
0100
0000
,
0001
0000
1001
0000
1000
0010
1000
0000
,
0100
0010
0001
0100
,
0010
1000
0001
0010
,
0100
0000
0000
0000
1000
0000
0000
0000
0100
0000
0010
0000
0100
0000
0000
0110
,
0000
1001
0001
0100
,
0010
1000
0010
0000
0100
0000
0001
0000
,
0110
0000
1000
0000
0001
0100
0001
0000
,
0010
0110
1000
1001
,
0010
0000
0101
0000
0001
0010
0001
0000
,
1000
0000
0010
0000
0100
0100
0010
0000
,
1000
0001
0010
0100
,
1000
0000
0001
0000
1000
0000
0000
0000
0010
0000
0000
0000
0100
0000
0000
2002
,
0000
0000
0000
0000
0000
0000
3003
0000
0100
0000
0000
0010
0000
0000
1001
0000
,
0000
0110
0001
1000
,
0010
0000
0000
0010
0000
0000
0010
0000
0100
0000
0000
0100
0000
0000
0100
0000
,
0001
1000
0110
1001
,
1000
0000
0000
0100
0000
0000
1000
0000
0001
0000
0000
0100
0000
0000
0001
0000
,
1000
0000
0000
0010
0000
0000
1000
0000
0001
0000
0010
0000
0001
0000
0000
0000
,
0100
0000
0000
0010
0000
0000
1000
0000
0100
0000
0000
0010
0000
0000
0001
0000
,
0100
0110
2002
3003
,
0110
0000
0000
0000
;

//--------------- dance-single - forcednature ----------------
#NOTEDATA:;
#STEPSTYPE:dance-single;
#DESCRIPTION:forcednature;
#DIFFICULTY:Medium;
#METER:12;
#RADARVALUES:0,0,0,0,0;
#NOTES:
0000
0000
0000
0000
,
0000
0000
0000
0000
,
0000
0000
0000
0000
,
0000
0000
0000
0000
,
0000
0000
0000
0000
,
0000
0000
0000
0000
,
1001
0000
0000
1001
0000
0000
0000
0000
0100
0000
0000
0100
0000
0000
0000
0000
,
0110
0000
0000
0110
0000
0000
0000
0000
0001
0000
0001
0000
0010
0000
0000
0000
,
1100
0000
0000
1100
0000
0000
0000
0000
0101
0000
0000
0101
0000
0000
0000
0000
,
1002
0100
0013
1001
,
0110
0000
1000
0010
0100
0001
0010
0000
,
0100
1000
0100
0010
0001
1000
0001
0000
,
0110
0000
0001
0010
0100
1000
0010
0000
,
0100
0001
0100
0010
1000
0001
1000
0000
,
0110
0000
1000
0100
0001
0100
0010
0000
,
0001
0100
0010
1000
0100
0010
0001
0000
,
0110
0000
0001
0100
1000
0100
0010
0000
,
1000
0100
0100
0010
0002
0000
1003
0000
,
0110
0000
0000
0000
1000
0000
0000
0001
0000
0000
0100
0000
0010
0000
0000
0000
,
1000
0000
0100
0000
0010
0000
0000
0100
0000
0000
0100
0000
1000
0000
0000
0000
,
0110
0000
0000
0000
0001
0000
0000
1000
0000
0000
0010
0000
0100
0000
0000
0000
,
0001
0000
0000
0001
0000
0000
0001
0000
1000
0000
0010
0000
0100
0000
0000
0000
,
0110
0000
0001
0100
0010
1000
0001
0100
,
0010
0000
1000
0100
0010
0001
1000
0100
,
0020
0000
0000
0000
0031
0000
0000
0100
0000
0000
1000
0000
0000
0100
0000
0000
,
0010
0000
0000
0110
0000
0000
2002
0000
0000
0000
0000
0000
3003
0000
0000
0000
,
0110
0000
0001
0100
0001
0010
0100
0010
,
0001
0000
1000
0010
1000
0100
0010
0100
,
1000
0000
0001
0100
0010
0100
0001
0010
,
0200
0001
1300
2100
,
3010
1000
0010
0100
0001
0010
0100
0000
,
0010
0001
0100
0010
0100
0001
1000
0000
,
0100
0100
0010
0010
0001
1000
0010
0000
,
1000
0000
0001
0000
1000
0000
0001
0000
1000
0000
0001
0000
0100
0000
0000
0100
0000
0000
0020
0000
0000
0000
0000
0000
,
2030
0000
3200
0320
,
0032
0203
0320
1000
,
0230
0302
0023
1000
,
0032
0100
0023
0230
,
2300
3020
0230
0302
,
0023
0230
2300
0010
,
3100
0000
0010
0001
0100
0001
1000
1001
,
0000
0000
0001
0000
0100
0000
0000
0000
0010
0000
1000
0001
1000
0000
0000
0000
,
0101
0100
0010
0010
,
1000
1000
0001
0010
,
0100
0100
1000
1000
,
2002
0000
3003
0000
1000
0100
0010
0001
,
0202
0000
0000
0303
,
2200
0000
0000
3300
,
2010
0000
0000
0001
0000
0000
0100
0000
3002
0000
0000
0010
0000
0000
1000
0000
,
0103
0000
0000
0000
1001
0000
0000
0000
1000
0001
1000
0001
0010
0000
0000
0000
,
0100
0000
0000
1000
0000
0000
0010
0000
0100
0000
0000
0001
0000
0000
0010
0000
,
0100
0000
0000
1000
0000
0000
0010
0000
0100
0000
0001
0000
1000
0000
0001
0000
,
0010
0000
0000
0100
0000
0000
1000
0000
0010
0000
0000
0100
0000
0000
0001
0000
,
1000
0000
0100
0010
0000
0001
0010
0000
0110
0000
0000
1001
0000
0000
0110
0000
,
1001
0000
0000
0001
0000
0000
0100
0000
0001
0000
0000
1000
0000
0000
0100
0000
,
1000
0000
0000
0001
0000
0000
0100
0000
0010
0000
1000
0000
0100
0000
0010
0000
,
0001
0000
0000
0010
0000
0100
1000
0000
0001
0000
0000
0100
0000
0010
1000
0000
,
0220
0000
0000
0000
0330
0000
0000
0000
1000
0000
0001
0010
0001
0000
0200
0000
,
0000
0000
0310
1000
0100
0010
0001
0100
,
1000
0100
0001
0010
0100
0010
0001
0100
,
0020
0000
1000
0000
0230
0000
0301
0100
,
0010
0000
1000
0000
0001
0000
1000
0000
0100
0000
0000
0010
0000
0000
0110
0000
,
2002
0000
0000
0000
0000
0000
0000
0000
0000
0000
3003
0000
0000
0000
0100
0010
,
0200
0000
0000
0000
0300
0000
0000
0000
0110
0000
0000
1001
0000
0000
0110
0000
,
1000
0000
0001
0100
0001
0000
0000
0000
0001
0000
1000
0100
1000
0000
0020
0000
,
0000
0130
0001
0001
0010
0100
1100
0000
,
0002
0000
0103
0010
0100
1000
0100
0001
,
0010
0100
0010
0001
0010
0100
1000
0001
,
0100
0000
0000
0100
0010
0000
1000
0000
0001
0000
0010
0000
0100
0000
0100
0000
,
1000
0000
0001
0000
0100
0000
0010
0000
1000
0000
0000
0000
0110
0000
0000
0110
,
0000
0110
1001
0000
1000
0001
0100
0010
,
1000
0001
0010
0100
1000
0001
0100
0000
,
0110
0000
0000
0000
0000
0000
0000
0000
0000
0000
0000
0000
1000
0000
0000
0000
0000
0000
0001
0000
0000
0100
0000
0000
0001
0000
0000
0000
0000
0000
0001
0000
0000
0000
0000
0000
0010
0000
0000
0000
0100
0000
0000
0000
1000
0000
0000
0000
,
0010
0000
0000
0010
0100
0000
0001
0000
2000
0000
0100
0000
3010
0000
0000
0000
,
1001
0000
0001
0100
1000
0100
0010
1000
,
0001
1000
0100
0001
0100
0010
0001
1000
,
0010
0100
0001
0100
0010
1000
0001
1000
,
0100
0010
0000
0010
0001
0000
0100
0000
0010
0000
0000
0000
0110
0000
0000
2002
,
0000
0000
0000
0000
0000
0000
3003
0000
0110
0000
0000
1001
0000
0000
0110
0000
,
0000
0000
0001
1000
0001
0000
0100
0000
0010
0000
0100
0000
2000
0000
0000
0000
,
3100
0000
0000
1010
0000
0000
0001
0000
0100
0000
0000
0011
0000
0000
1000
0000
,
1100
0101
0110
1001
,
1100
0000
0000
1100
0000
0000
0010
0000
0101
0000
0000
0101
0000
0000
0010
0000
,
1001
0000
0000
1001
0000
0000
0010
0000
0100
0000
0010
0000
1001
0000
0000
0000
,
0101
0000
0000
0101
0000
0000
1010
0000
1100
0000
0000
1100
0000
0000
0011
0000
,
1001
0000
0000
0000
0110
0000
0000
0000
1000
0000
0001
0100
0020
0000
0000
0000
,
1030
0000
0000
0000
;

//--------------- dance-single - ----------------
#NOTEDATA:;
#STEPSTYPE:dance-single;
#DESCRIPTION:;
#DIFFICULTY:Hard;
#METER:15;
#RADARVALUES:0,0,0,0,0;
#CREDIT:Talkion;
#NOTES:
0000
0000
0000
0000
,
0000
0000
0000
0000
,
0000
0000
0000
0000
,
0000
0000
0000
0000
,
0000
0000
0000
0000
,
0000
0000
0000
0000
,
1001
0000
0000
1001
0000
0000
0001
0000
0100
0000
0000
0100
0000
0000
0010
0000
,
1010
0000
0000
1001
0000
0000
0001
0000
0010
0000
0010
0000
0100
0000
0000
0000
,
1100
0000
0000
1100
0000
0000
1000
0000
1001
0000
0000
1001
0000
0000
0001
0100
,
0010
1000
0000
0010
1000
0000
0001
0000
0010
0000
0010
0000
0100
0000
0000
0000
,
1001
0000
0000
0000
1000
0000
0010
0000
0100
0010
0000
0010
0002
0000
0003
0000
,
0010
0000
0100
0010
0000
0100
0010
0000
1000
0000
0001
0010
0100
0000
1000
0000
,
1001
0000
0000
0000
0001
0000
0100
0000
0010
0100
0000
0100
2000
0000
3000
0000
,
0100
0000
0010
0100
0000
0010
0100
0000
0002
0000
0000
0000
0013
0000
0010
0000
,
1001
0000
0000
0000
1000
0000
0100
0000
0010
0100
0000
0100
0002
0000
0003
0000
,
0100
0000
0010
0100
0000
0010
0100
0000
1000
0000
0001
0100
0010
0000
1000
0000
,
1001
0000
0000
0000
0001
0000
0010
0000
0100
0010
0000
0010
2000
0000
3000
0000
,
0010
0000
0100
0000
0100
1000
0001
0000
0100
0000
0100
0000
0010
0000
0000
0000
,
1010
0000
0000
0000
0102
0000
0000
0013
0000
0100
0010
0000
0110
0000
0001
0000
,
0100
0000
0100
0000
2010
0000
0000
3100
0000
0010
0100
0000
0110
0000
1000
0000
,
0010
0000
0010
0000
0102
0000
0000
0013
0000
0100
0010
0000
0110
0000
0001
0000
,
1000
0010
0000
0010
0100
0000
0100
0001
1000
0001
0010
0000
0100
0000
0100
0000
,
1001
0000
1000
0000
0010
0100
0001
0000
0010
0100
0000
0010
0100
0000
0010
0001
,
2000
0000
0000
0000
3010
0000
0100
0001
0100
0000
0010
0000
1000
0001
1000
0000
,
0200
0000
0000
0000
0301
0000
0001
0100
0000
0100
1000
0000
0010
0200
0000
0000
,
0301
0000
0100
0000
0100
0010
1000
0000
0000
0000
0000
0000
0000
0000
0000
0000
,
1001
0000
0001
0000
0010
0100
0000
0100
0000
0100
0000
0001
0100
0000
0010
0000
,
0001
0000
1000
0000
0010
0100
0000
0100
0000
0100
0000
1000
0100
0000
0010
0000
,
1000
0000
0001
0000
0010
0100
0000
0100
0000
0100
0000
0001
0100
0000
0010
0000
,
0002
0000
0000
0000
0000
0003
1000
0010
0100
0000
0001
1000
0001
0000
0010
0100
,
1000
0001
0000
1000
0001
0000
0100
0010
0100
0000
0001
0000
1000
0000
0100
0010
,
0100
0000
1000
0000
0001
0000
0100
0010
0100
0000
0001
0000
1000
0000
0100
0000
,
0001
0100
0010
0000
0010
0001
0000
0001
1000
0010
0100
0010
1000
0000
1000
0000
,
0001
0000
0010
0000
0100
0000
1000
0000
0010
0000
0100
0000
0001
0000
0000
0010
0000
0000
1000
0000
0000
0000
0000
0000
,
1020
0000
0130
0010
0001
0000
1000
0100
,
2000
0000
3002
0000
0203
0000
0310
1000
,
0002
0000
0013
0000
0200
0000
1300
0001
,
0200
0000
0301
1000
0200
0000
0310
0001
,
1000
0000
0000
1001
0000
0000
0101
0000
0000
0110
0000
0000
1010
0000
0000
0000
,
1001
0000
0000
0011
0000
0000
0110
0000
0000
1100
0000
0000
1001
0000
0000
0000
,
0101
0000
0000
0110
0000
0000
1010
0000
1000
0000
0001
1000
0100
0010
2000
0000
,
0000
0000
3010
0000
0010
0000
0001
1000
0001
0000
0100
0010
1000
0000
0000
0000
,
1001
0000
0000
0001
0000
0000
0001
0000
0010
0000
0000
0010
0000
0000
0010
0000
,
0100
0000
0000
0100
0000
0000
0100
0000
1000
0000
0001
0000
1000
0000
0010
0000
,
0100
0000
0000
0100
0000
0000
0100
0000
0001
0000
0000
0001
0000
0000
0001
0000
,
1000
0100
0010
0001
0000
0001
1000
0000
0020
0000
0000
0230
0000
0000
0301
0000
,
1002
0000
0000
0010
0000
0000
1003
0000
0200
0000
0000
0010
0000
0000
1300
0000
,
2001
0000
0000
0010
0000
0000
3001
0000
0200
0000
0000
0010
0000
0000
0301
0000
,
1000
0000
0100
0010
0000
0010
0001
0000
1000
0000
0010
0100
0000
0100
0001
0000
,
1001
0000
0210
0000
1000
0010
0301
0000
,
2000
0100
0000
3001
0000
0100
0010
0000
2000
0100
0000
3001
0000
0100
0010
0000
,
2000
0100
0000
3001
0000
0100
0010
0000
0001
0010
0100
0000
0001
1000
0001
0000
,
0020
0100
0000
0031
0000
0001
1000
0000
0020
0100
0000
1030
0000
1000
0001
0000
,
0010
0000
1000
0010
0000
0010
0001
1000
0001
0000
0000
0101
0000
0000
1010
0000
,
2000
0010
0000
3001
0000
0010
0100
0000
2000
0010
0000
3001
0000
0010
0100
0000
,
2000
0010
0000
3001
0000
0010
0100
0000
0001
0100
0010
0000
0001
1000
0001
0000
,
0200
0000
0000
0310
0000
0010
1000
0000
0002
0000
0000
0013
0000
0010
0100
0000
,
1000
0100
0010
0001
0000
0001
1000
0000
0010
0000
0100
0010
1000
0000
2001
0000
,
0000
0000
3100
0010
0001
1000
0001
0100
,
0010
0100
0001
1000
0100
0010
0001
1000
,
0001
0100
0010
1000
0001
0010
0100
1000
,
0001
0000
1000
0000
0010
0000
0100
0010
0100
0000
0001
1000
0001
0000
0010
0000
,
0110
0000
0000
0000
1000
0000
0000
0001
0100
0000
0010
0000
0000
0000
0100
0001
,
0010
0000
0001
0000
1000
0000
0000
0010
0100
0000
0000
0101
0000
0000
0001
0000
,
1001
0000
1000
0100
0010
0000
0010
0000
1001
0000
0001
0100
0010
0100
0002
0000
,
0000
1003
0000
0100
1000
0100
1000
0100
1000
0000
0001
0000
0101
0000
0000
0000
,
2020
0000
3030
0000
1001
0000
0001
0000
0010
0000
0100
0000
1000
0001
1000
0001
,
0100
0000
0010
0000
1000
0001
0000
0010
0000
0010
0100
0000
1000
0001
1000
0010
,
0100
0000
0001
1000
0001
0000
0010
0000
0110
0000
1001
0000
0002
0000
2003
0000
,
3010
0000
0100
0010
0001
0000
0010
0100
0002
0000
2003
0000
3200
0000
0000
0302
,
0000
0000
0103
0000
1001
0000
0000
0000
1000
0010
0000
0100
0010
0000
1000
0010
,
0100
0000
0001
1000
0100
1000
0001
0000
0010
0100
1000
0100
0010
0000
0001
0000
,
1001
0000
0000
0000
0000
0000
1000
0000
0000
0010
0000
0000
0100
0000
0000
0000
0000
0000
0001
0000
0000
0010
0000
0000
0100
0000
0000
0000
0000
0000
0100
0000
0000
0000
0000
0000
1000
0000
0000
0000
0010
0000
0000
0000
0100
0000
0000
0000
,
0001
0000
1000
0100
0010
0100
1000
0000
0001
0000
0001
0000
0100
0000
0000
0000
,
0010
0000
0010
0000
1001
0000
1000
0100
0000
0100
0010
0000
0020
0001
0000
0130
,
0000
1000
0100
1000
0001
0000
0100
0010
2000
0000
0010
0000
3002
0000
0010
0000
,
1003
0000
0001
0010
0100
0010
0001
0000
1000
0010
0100
0001
1000
0000
0001
0000
,
0010
0100
0000
0100
0001
0000
0100
0000
2000
0000
3020
0000
0032
0000
0000
0023
,
0000
0000
0000
0000
0000
0000
0030
0000
1010
0000
0000
0101
0000
0000
1001
0000
,
0000
0000
1000
0100
0010
0000
0011
0000
1100
0000
1001
0000
0002
0000
0000
0000
,
0103
0000
1000
0100
0000
0100
0001
0000
0001
0010
0000
0010
1000
0000
0010
0000
,
0001
1000
0001
1000
0001
1000
0001
1000
0010
0100
0010
1000
0001
0000
0000
0000
,
0011
0000
0000
0011
0000
0000
0010
0000
0110
0000
0000
0110
0000
0000
0100
0000
,
1100
0000
0000
1001
0000
0000
1000
0000
1010
0000
1010
0000
0101
0000
0000
0000
,
1001
0000
0000
1001
0000
0000
0001
0000
0011
0000
0000
0011
0000
0000
0010
0100
,
1000
0000
0010
0100
0001
0000
0010
0100
1000
0000
1000
0000
0010
0000
0100
0010
,
1000
0000
0000
0000
;

//--------------- dance-single - ----------------
#NOTEDATA:;
#STEPSTYPE:dance-single;
#DESCRIPTION:;
#DIFFICULTY:Challenge;
#METER:17;
#RADARVALUES:0,0,0,0,0;
#CREDIT:Talkion;
#NOTES:
0000
0000
0000
0000
,
0000
0000
0000
0000
,
0000
0000
0000
0000
,
0000
0000
0000
0000
,
0000
0000
0000
0000
,
0000
0000
0000
0000
0000
0000
1000
0100
0010
0000
0010
0000
0020
0000
0030
0000
,
1001
0000
0000
1001
0000
0000
0001
0000
0100
0000
0000
0100
0000
0000
0010
0000
,
1010
0000
0000
1001
0000
0000
0001
0000
0010
0000
0010
0000
0100
0000
0000
0000
,
1100
0000
0000
1100
0000
0000
1000
0000
1001
0000
0000
1001
0000
0000
0001
0100
,
0010
0100
0001
1000
0001
0010
0100
1000
0001
0000
0001
0000
0100
0000
0000
0000
,
1001
0000
0000
0000
1000
0100
0010
0100
0000
0001
0000
0100
0010
0000
0010
0000
,
0001
0000
1000
0001
0000
0100
0001
0100
0010
0000
1000
0001
1000
0100
0010
0000
,
1001
0000
0000
0000
0001
0100
0010
0100
0000
1000
0000
0100
0010
0000
0010
0000
,
1000
0000
0001
1000
0001
0010
0100
1000
0002
0000
0000
0000
0103
0000
0100
0000
,
1001
0000
0000
0000
0001
0010
0100
0010
0000
1000
0000
0010
0100
0000
0100
0000
,
1000
0000
0001
1000
0000
0010
1000
0010
0100
0000
0001
1000
0001
0010
0100
0000
,
1001
0000
0000
0000
1000
0010
0100
0010
0000
0001
0000
0010
0100
0000
0100
0000
,
0001
0000
1000
0100
0010
0100
1000
0000
0010
0000
0010
0000
1001
0000
0000
0000
,
0101
0000
0000
0000
2010
0000
0000
3100
0000
0010
0100
0000
0110
0000
1000
0000
,
0010
0000
0010
0000
0101
0000
0000
0011
0000
0010
0100
0010
0001
0000
0100
0000
,
0110
0000
0001
0000
1002
0000
0000
0013
0000
0100
0010
0000
0110
0000
0001
0000
,
1000
0100
1000
0001
0100
0001
1000
0100
0010
0001
1000
0001
0100
0010
0100
0000
,
1001
0000
0001
1000
0010
1000
0100
0000
0010
0100
0000
0010
0001
0000
1000
0001
,
0200
0000
0000
0000
0310
0000
1000
0010
0100
0010
1000
0000
0001
1000
0100
0010
,
0002
0000
0000
0000
1003
0000
0010
0001
0000
0010
1000
0000
0010
0002
0000
0000
,
0013
0000
0100
0010
1000
0001
1000
0000
0000
0000
0000
0000
0000
0000
0000
0000
,
1001
0000
0001
0010
0100
0001
0000
0100
0000
0100
0010
0001
1000
0000
0001
0000
,
0100
0000
0010
0100
0010
0001
0000
0010
0000
0010
0100
0001
1000
0000
0001
0000
,
0010
0000
0100
0010
0100
0001
0000
0100
0000
0100
0010
0001
1000
0000
0001
0000
,
1001
0000
1000
0010
0100
0001
0010
0100
0010
0001
0100
0010
1000
0000
0001
1000
,
0100
0010
0000
0100
0010
0000
1000
0010
0100
0000
0010
0000
0001
1000
0010
0100
,
0001
0000
0100
0000
0010
0000
0001
0010
0100
0000
0010
0000
1000
0001
0010
0100
,
1000
0001
1000
0001
0100
0010
1000
0100
0010
0001
0100
0010
1000
0000
1000
0000
,
0001
0000
0010
0000
0100
0000
0010
0000
1000
0000
0001
0000
0101
0000
0000
0110
0000
0000
1100
0000
0000
0000
0000
0000
,
2001
0000
3010
0100
0001
0000
1000
0100
,
2000
0000
3002
0000
0203
0000
0310
1000
,
0002
0000
0013
0000
0200
0000
1300
0001
,
0200
0000
0301
1000
0200
0000
0310
0001
,
1000
0000
0000
1001
0000
0000
0101
0000
0000
0110
0000
0000
1010
0000
0000
0000
,
1001
0000
0000
0011
0000
0000
0110
0000
0000
1100
0000
0000
1001
0000
0000
0000
,
0001
0000
1000
0010
0000
0100
0010
0000
1000
0001
1000
0100
0010
0100
0002
0000
,
0000
0000
0000
0000
0000
0000
0103
0000
0000
0010
0000
0000
0001
0000
0000
0000
0000
0000
1000
0000
0001
0000
1000
0000
0001
0000
0000
0000
0000
0000
0010
0000
0000
0001
0000
0000
0100
0000
0000
0000
0000
0000
0000
0000
0000
0000
0000
0000
,
1001
0000
0000
0001
0000
0000
0001
0000
0010
0000
0000
0010
0000
0000
0010
0000
,
0100
0000
0000
0100
0000
0000
0100
0000
1000
0000
0001
0000
1000
0000
0010
0000
,
0100
0000
0000
0100
0000
0000
0100
0000
0001
0000
0000
0001
0000
0000
0001
0000
,
1000
0100
1000
0001
0100
0001
1000
0000
0200
0000
0000
0310
0000
0100
1000
0000
,
2001
0000
0000
3010
0000
0100
0001
0000
1000
0100
0000
0010
0000
0100
1000
0000
,
2001
0000
0000
3010
0000
0100
0001
0000
1000
0100
0010
0001
1000
0001
0100
0010
,
1000
0000
0001
0010
0000
0010
0100
0000
1000
0000
0010
0100
0000
0100
0001
0000
,
1001
0000
0000
0000
0110
0000
1000
0001
0010
0100
0001
0000
0011
0000
0000
0000
,
2000
0100
0000
3001
0000
0100
0010
0000
2000
0100
0000
3001
0000
0100
0010
0100
,
0002
1000
0000
0013
0000
0100
0010
0000
0100
0001
0100
0010
0001
1000
0001
0100
,
0020
1000
0000
0130
0000
0001
0010
0000
0200
0010
0000
1300
0000
1000
0001
0100
,
0010
0000
0100
1000
0000
0100
0010
1000
0002
0000
0000
0013
0000
0100
1000
0000
,
0002
0010
0000
1003
0000
0010
0100
0000
0002
0010
0000
1003
0000
0010
0100
0010
,
2000
0001
0000
3100
0000
0010
0100
0000
0010
1000
0010
0100
1000
0001
1000
0010
,
0200
0000
0000
0310
0000
0010
1000
0000
0002
0000
0000
0013
0000
0100
0010
0001
,
1000
0000
0000
0100
0000
0000
1000
0000
0000
0001
0000
0000
0100
0000
0000
0001
0000
0000
1000
0000
0000
0000
0000
0000
0010
0000
0000
0000
0000
0000
0100
0000
0010
0000
0100
0000
0010
0000
0000
0000
0000
0000
1002
0000
0000
0000
0000
0000
,
0000
0000
0013
0100
1000
0001
1000
0010
,
0100
0010
1000
0001
0010
0100
1000
0001
,
1000
0010
0100
0001
1000
0100
0010
0001
,
1000
0000
0001
0000
0100
0000
0010
0100
0010
0000
1000
0001
1000
0000
0100
0000
,
0110
0000
0000
0000
0001
0000
0000
1000
0010
0000
0100
0000
0000
0000
0010
1000
,
0100
0000
1000
0000
0001
0000
0000
0100
0010
0000
0000
1010
0000
0000
1000
0001
,
0010
0000
0010
0100
1000
0000
1000
0010
0100
0000
0100
0001
1000
0100
0020
0000
,
0000
0031
0000
0001
1000
0001
1000
0001
1000
0010
0100
0000
0101
0000
0000
0000
,
2020
0000
3030
0000
1001
0000
0001
0000
0010
0000
0100
0010
0001
1000
0010
0100
,
0001
0000
1000
0100
1000
0001
0000
0010
0000
0010
0100
1000
0001
1000
0010
0100
,
0001
0000
0010
0001
1000
0000
0010
0000
1010
0000
0101
0000
0100
0001
1000
0001
,
0010
0000
0100
0010
1000
0010
0100
1000
0001
0100
0010
1000
0100
0010
0100
0002
,
0000
0000
1003
0000
0110
0000
1000
0001
0100
0010
0100
0001
0010
0100
0010
0001
,
1000
0000
0010
0100
0010
1000
0001
0010
0100
1000
0001
1000
0010
0000
1000
0001
,
1000
0000
0000
0100
0000
0000
0010
0000
0000
0100
0000
0000
0001
0000
0000
0100
0000
0000
0010
0000
0000
0100
0000
0000
1000
0000
0000
0000
0000
0000
1001
0000
0000
0000
0000
0000
0001
0000
0000
0000
0100
0000
0000
0000
0010
0000
0000
0000
,
1000
0000
0010
0100
0001
1000
0100
0010
0001
1000
0001
1000
0010
0000
0000
0000
,
0100
0000
0100
0000
1001
0000
0001
0010
0000
0010
0100
1000
0001
0100
0010
1000
,
0000
0100
1000
0001
1000
0010
0100
0001
1000
0100
1000
0100
0010
0100
0010
0100
,
0001
0000
0100
0010
0100
1000
0001
0000
1000
0010
0100
0010
0001
0000
0010
0100
,
0001
0001
0000
1000
1000
0000
0100
0000
0001
0100
1000
0010
0001
0010
0100
2000
,
0000
0000
0000
0000
0000
0000
3100
0000
0000
0010
0000
0000
0001
0000
0000
0010
0000
0000
1000
0000
0000
0100
0000
0000
0001
0000
0000
0000
0000
0000
0000
0000
0000
0110
0000
0000
0000
0000
0000
0000
0000
0000
0001
0000
1000
0000
0001
0000
,
1000
0000
0100
1000
0010
0000
1010
0000
0101
0000
1001
0000
1000
0100
1000
0100
,
0010
0001
1000
0001
0100
0010
0100
0001
0010
0100
0010
0001
1000
0001
0100
0010
,
0001
0010
1000
0010
0001
0010
1000
0010
0001
0010
1000
0100
0001
0000
0000
0000
,
0101
0000
0000
0101
0000
0000
0100
0000
1100
0000
0000
1100
0000
0000
1000
0000
,
1001
0000
0000
0101
0000
0000
0100
0000
0110
0000
0110
0000
1001
0000
0000
0000
,
1100
0000
0000
1100
0000
0000
1000
0000
1001
0000
0000
1001
0000
0000
0001
0100
,
0010
0000
0000
0100
0000
0000
0001
0000
0000
1000
0000
0000
0001
0000
0000
0010
0000
0000
0100
0000
0000
1000
0000
0000
0001
0000
0000
0000
0000
0000
0001
0000
0000
0000
0000
0000
0100
0000
0000
0000
0000
0000
0010
0000
0100
0000
0010
0000
,
1000
0000
0000
0000
;
