#VERSION:0.83;
#TITLE:Kamikaze;
#SUBTITLE:;
#ARTIST:DJ NRG;
#TITLETRANSLIT:;
#SUBTITLETRANSLIT:;
#ARTISTTRANSLIT:;
#GENRE:;
#ORIGIN:;
#CREDIT:;
#BANNER:Kamikaze.png;
#BACKGROUND:Kamikaze-bg.png;
#PREVIEWVID:;
#JACKET:Kamikaze-jacket.png;
#CDIMAGE:;
#DISCIMAGE:;
#LYRICSPATH:;
#CDTITLE:;
#MUSIC:Kamikaze.ogg;
#OFFSET:-3.745000;
#SAMPLESTART:72.511002;
#SAMPLELENGTH:12.000000;
#SELECTABLE:YES;
#BPMS:0.000=143.110;
#STOPS:;
#DELAYS:;
#WARPS:;
#TIMESIGNATURES:0.000=4=4;
#TICKCOUNTS:0.000=4;
#COMBOS:0.000=1;
#SPEEDS:0.000=1.000=0.000=0;
#SCROLLS:0.000=1.000;
#FAKES:;
#LABELS:0.000=Song Start;
#BGCHANGES:;
#KEYSOUNDS:;
#ATTACKS:
;

//---------------dance-single - ----------------
#NOTEDATA:;
#CHARTNAME:;
#STEPSTYPE:dance-single;
#DESCRIPTION:;
#CHARTSTYLE:;
#DIFFICULTY:Hard;
#METER:13;
#RADARVALUES:0.646449,0.696699,0.160936,0.123069,0.714746,478.000000,461.000000,17.000000,13.000000,0.000000,0.000000,0.000000,0.000000,0.000000,0.646449,0.696699,0.160936,0.123069,0.714746,478.000000,461.000000,17.000000,13.000000,0.000000,0.000000,0.000000,0.000000,0.000000;
#CREDIT:Nezemarth;
#NOTES:
// measure 0
0000
0000
0000
0000
,  // measure 1
0000
0000
0000
0000
,  // measure 2
0000
0000
0000
0000
,  // measure 3
0000
0000
0000
0000
,  // measure 4
1000
0100
0000
1000
0100
0000
1000
0100
0000
1000
0100
0000
0010
0001
1000
0000
,  // measure 5
0001
0100
0000
0001
0100
0000
0001
0100
0000
0001
0100
0000
0010
1000
0001
0000
,  // measure 6
0010
0001
0000
0010
0001
0000
0010
0001
0000
0010
0001
0000
0100
0010
1000
0000
,  // measure 7
0010
1000
0000
0010
1000
0000
0010
1000
0000
0010
1000
0000
0001
0000
0000
0000
,  // measure 8
1000
0100
0000
0010
0001
0000
0100
0010
0000
1000
0001
0000
0010
0100
1000
0000
,  // measure 9
0001
0100
0000
0010
1000
0000
0100
0010
0000
0001
1000
0000
0010
0100
0001
0000
,  // measure 10
0010
0100
0000
1000
0010
0000
0100
0001
0000
0010
0100
0000
1000
0001
0100
0000
,  // measure 11
0010
1000
0000
0100
0010
0000
0001
0100
0000
0000
0010
1000
0100
0010
0001
0100
,  // measure 12
0020
0000
0000
0000
0000
0000
0000
0000
0100
0000
0000
0100
0000
0000
0130
0000
,  // measure 13
0002
0000
0000
0000
0000
0000
0000
0000
1000
0000
0000
1000
0000
0000
1003
0000
,  // measure 14
0200
0000
0000
0000
0000
0000
0000
0000
0010
0000
0000
0010
0000
0000
0310
0000
,  // measure 15
0002
0100
2003
0010
,  // measure 16
3001
0000
0001
0000
0001
0000
0100
0010
0000
1000
0000
1000
0000
0100
0010
0100
,  // measure 17
0010
0000
0001
0000
0001
0000
0100
0010
0000
1000
0000
1000
0000
0100
0010
0100
,  // measure 18
0010
0000
0001
0000
0001
0000
0100
0010
0000
1000
0000
1000
0000
0100
0010
0000
,  // measure 19
0001
0000
0001
0000
0010
0000
0010
0100
0000
1000
0000
0100
0000
0010
0100
0000
,  // measure 20
1000
0000
1000
0000
1000
0000
0010
0100
0000
0001
0000
0001
0000
0010
0100
0010
,  // measure 21
0100
0000
1000
0000
1000
0000
0010
0100
0000
0001
0000
0001
0000
0010
0100
0000
,  // measure 22
0001
0000
0001
0000
0001
0000
0100
1000
0000
0010
0000
0010
0000
0100
0001
0000
,  // measure 23
0010
0100
1000
0100
0010
0001
0000
1000
0000
1000
0000
0001
0000
0100
0001
0000
,  // measure 24
1001
0000
0000
0000
0000
0000
0000
0000
0002
0003
0000
0000
0000
0000
0000
0000
,  // measure 25
1000
0100
0001
0100
0010
0010
0000
0001
,  // measure 26
0100
1000
0100
0010
1000
1000
0000
0001
,  // measure 27
0010
0100
0001
0100
0010
0001
1000
0010
,  // measure 28
0100
0000
0001
0000
1000
0100
0000
0000
0010
0000
0001
0100
0000
0000
0010
0000
,  // measure 29
1000
0100
0001
0100
0010
0010
0000
0001
,  // measure 30
1000
0010
0100
0001
0100
0100
0000
2000
,  // measure 31
0000
3100
0010
1000
0100
0001
0100
0010
,  // measure 32
0001
0100
0001
0000
0100
0010
0100
0000
0010
1000
0010
0000
1000
0000
1000
0000
,  // measure 33
2001
0000
0000
0001
0000
0000
3001
0000
0100
0000
0010
0000
1000
0000
0001
0000
,  // measure 34
1001
0000
1000
0001
0000
1000
0001
0000
0010
0100
1000
0000
0100
0000
0010
0000
,  // measure 35
0001
0100
1000
0100
0001
0010
1000
0010
,  // measure 36
1001
0000
1000
0001
0000
1000
0001
0000
0100
0010
0100
0000
0001
0000
1000
0000
,  // measure 37
1002
0000
0000
1000
0000
0000
1003
0000
0000
0000
0010
0000
0100
0000
0001
0000
,  // measure 38
1001
0000
1000
0001
0000
1000
0001
0000
0100
0010
1000
0000
1000
0000
0100
0000
,  // measure 39
0010
0001
0010
0000
0001
1000
0001
0000
0100
0001
0100
0000
0001
1000
0100
0000
,  // measure 40
1100
0000
0000
1001
0000
0000
0101
0000
0001
0000
0100
0000
0010
0000
1000
0000
,  // measure 41
1001
0000
0001
0000
0101
0000
0000
0000
0100
0000
0010
1000
0000
0100
0010
0000
,  // measure 42
0001
0100
0010
1000
0100
1000
0010
0100
,  // measure 43
0101
0000
0001
0000
0010
0100
0000
0000
0100
0000
1000
0100
0000
0010
0100
0000
,  // measure 44
1000
1010
0000
0100
0001
2002
0000
3003
,  // measure 45
1100
0000
1000
0000
1010
0000
0000
0000
1000
0000
0001
0010
0000
0100
0010
0000
,  // measure 46
0001
1000
0010
1000
0100
0001
0100
1000
,  // measure 47
0010
0100
0001
0001
1000
1000
0100
0010
,  // measure 48
0100
0000
1000
0010
0000
0010
0100
0000
0001
0000
0000
1000
0000
0000
1000
0000
,  // measure 49
1002
0000
0000
0000
0010
0000
0000
0013
0100
0000
0000
0000
1000
0000
0000
0000
,  // measure 50
0020
0000
0100
0130
,  // measure 51
0010
0000
0010
0000
0010
0000
1000
0001
0000
0010
0000
0010
0000
0001
1000
0001
,  // measure 52
1000
0000
0010
0000
0010
0000
0100
0001
0000
1000
0000
1000
0000
0001
1000
0001
,  // measure 53
1000
0000
0010
0000
0010
0000
0100
0001
0000
0001
0000
1000
0000
0100
0010
0000
,  // measure 54
0001
0000
0001
0000
1000
0000
1000
0100
0000
0001
0000
0100
0000
1000
0001
0000
,  // measure 55
0100
0000
0100
0000
0100
0000
0010
1000
0000
0001
0000
0001
0000
1000
0001
1000
,  // measure 56
0001
0000
0100
0000
0100
0000
0010
1000
0000
0001
0000
0001
0000
0100
0001
0000
,  // measure 57
0010
0000
0010
0000
0010
0000
0100
1000
0000
0010
0000
0010
0000
0100
0001
0000
,  // measure 58
0010
0001
0100
0001
0010
0100
0000
1000
0000
1000
0000
0001
0000
1000
0100
0000
;

//---------------dance-single - ----------------
#NOTEDATA:;
#CHARTNAME:;
#STEPSTYPE:dance-single;
#DESCRIPTION:;
#CHARTSTYLE:;
#DIFFICULTY:Medium;
#METER:10;
#RADARVALUES:0.455760,0.473756,0.189337,0.075735,0.080468,337.000000,317.000000,20.000000,8.000000,0.000000,0.000000,0.000000,0.000000,0.000000,0.455760,0.473756,0.189337,0.075735,0.080468,337.000000,317.000000,20.000000,8.000000,0.000000,0.000000,0.000000,0.000000,0.000000;
#CREDIT:Nezemarth;
#NOTES:
// measure 0
0000
0000
0000
0000
,  // measure 1
0000
0000
0000
0000
,  // measure 2
0000
0000
0000
0000
,  // measure 3
0000
0000
0000
0000
,  // measure 4
1000
0000
0000
1000
0000
0000
0001
0000
0000
0001
0000
0000
0100
0000
0000
0000
,  // measure 5
0001
0000
0000
0001
0000
0000
1000
0000
0000
1000
0000
0000
0100
0000
0000
0000
,  // measure 6
1000
0000
0000
1000
0000
0000
0001
0000
0000
0001
0000
0000
0100
0000
0000
0000
,  // measure 7
0010
0100
0010
0100
0001
0001
0001
0000
,  // measure 8
1000
0000
0000
0010
0000
0000
0100
0000
0000
0001
0000
0000
1000
0000
0100
0000
,  // measure 9
0010
0000
0000
0001
0000
0000
0100
0000
0000
0010
0000
0000
1000
0000
0100
0000
,  // measure 10
0010
0000
0000
0001
0000
0000
0100
0000
0000
0010
0000
0000
1000
0000
0100
0000
,  // measure 11
0010
0000
0000
0010
0000
0000
0010
0000
0000
0000
0001
0000
0100
0000
0010
0000
,  // measure 12
1002
0000
0000
0000
0000
0000
0000
0000
1000
0000
0000
1000
0000
0000
1003
0000
,  // measure 13
0210
0000
0000
0000
0000
0000
0000
0000
0001
0000
0000
0001
0000
0000
0301
0000
,  // measure 14
0021
0000
0000
0000
0000
0000
0000
0000
0100
0000
0000
0100
0000
0000
0130
0000
,  // measure 15
2200
3300
0012
1000
,  // measure 16
0103
0010
1000
0001
0100
0100
0100
0000
,  // measure 17
0010
0100
0001
1000
0100
0100
0100
0000
,  // measure 18
0010
0001
1000
0010
0100
0100
0100
0000
,  // measure 19
0001
0001
1000
1000
0100
0010
0100
1000
,  // measure 20
0010
1000
0001
0100
0010
0010
0010
0000
,  // measure 21
0100
0001
1000
0100
0010
0010
0010
0000
,  // measure 22
0001
1000
0010
0100
0001
0001
0001
0000
,  // measure 23
0001
0010
1000
0010
0001
0100
0010
1000
,  // measure 24
1001
0000
0000
0000
,  // measure 25
1000
0001
1000
0100
1000
1000
0000
0000
,  // measure 26
0001
0100
0001
1000
0001
0001
0000
0000
,  // measure 27
1000
0010
1000
0010
0100
0001
1000
0001
,  // measure 28
0100
0010
0100
0000
0001
1000
0000
0000
,  // measure 29
1000
0100
0010
0100
1000
1000
0000
0000
,  // measure 30
0001
0100
0010
0100
0001
0001
0000
0000
,  // measure 31
0001
0010
0001
0010
0100
1000
0100
1000
,  // measure 32
0001
0000
0100
0000
0010
0000
1000
1000
,  // measure 33
1001
0000
0001
0100
0000
0100
0010
0100
,  // measure 34
0001
0000
0001
1000
0000
1000
0100
0010
,  // measure 35
0100
1000
0100
1000
0001
0100
0001
0010
,  // measure 36
0000
0010
0100
0010
0000
0010
0001
1000
,  // measure 37
1010
0000
0010
0100
0000
0100
0001
0100
,  // measure 38
0010
0000
0010
1000
0000
1000
0010
1000
,  // measure 39
0001
0100
0000
1000
0000
0100
0001
0100
,  // measure 40
0010
0000
0000
1000
0000
0000
0100
0000
0000
0000
0000
0000
0000
0000
0000
0000
,  // measure 41
0110
0000
1001
0000
1010
0000
0010
0100
,  // measure 42
0000
0001
0000
0010
0000
0100
0000
1000
,  // measure 43
0000
0000
1000
0000
0010
0100
0000
0110
,  // measure 44
0000
1000
0000
0110
0000
0001
0000
0000
,  // measure 45
1001
0000
0011
0000
0110
0000
0100
1000
,  // measure 46
0000
0010
0000
0100
0000
1000
0000
0100
,  // measure 47
0000
0001
0100
0001
1000
0100
1000
0100
,  // measure 48
0010
0010
0001
1000
0000
0010
0000
0100
,  // measure 49
0220
0000
0000
0000
,  // measure 50
0330
0000
0011
1001
,  // measure 51
0101
0001
0100
0010
1000
1000
1000
0000
,  // measure 52
1000
0010
0100
0001
1000
1000
1000
0000
,  // measure 53
0100
0010
0001
1000
0001
0001
0001
0000
,  // measure 54
0010
0010
0100
0100
1000
0010
0100
0001
,  // measure 55
1000
0100
0010
0001
1000
1000
1000
0000
,  // measure 56
0010
0100
0001
1000
0001
0001
0001
0000
,  // measure 57
0010
0010
0100
0010
0001
0001
0001
1000
,  // measure 58
0010
0100
1000
0100
0001
0010
0100
1000
;

//---------------dance-single - ----------------
#NOTEDATA:;
#CHARTNAME:;
#STEPSTYPE:dance-single;
#DESCRIPTION:;
#CHARTSTYLE:;
#DIFFICULTY:Easy;
#METER:5;
#RADARVALUES:0.224499,0.278088,0.104135,0.066268,0.004733,166.000000,155.000000,11.000000,7.000000,0.000000,0.000000,0.000000,0.000000,0.000000,0.224499,0.278088,0.104135,0.066268,0.004733,166.000000,155.000000,11.000000,7.000000,0.000000,0.000000,0.000000,0.000000,0.000000;
#CREDIT:Nezemarth;
#NOTES:
// measure 0
0000
0000
0000
0000
,  // measure 1
0000
0000
0000
0000
,  // measure 2
0000
0000
0000
0000
,  // measure 3
0000
0000
0000
0000
,  // measure 4
1000
0000
0000
0000
,  // measure 5
1000
0000
0000
0000
,  // measure 6
1000
0000
0000
0000
,  // measure 7
1000
0000
0000
0000
,  // measure 8
1000
1000
1000
0100
,  // measure 9
0001
0001
0001
0100
,  // measure 10
1000
1000
1000
0100
,  // measure 11
0001
0001
0001
0100
,  // measure 12
0110
0000
0000
0000
,  // measure 13
0110
0000
0000
0000
,  // measure 14
0110
0000
0000
0000
,  // measure 15
0110
0000
1001
0000
,  // measure 16
0001
0001
0001
0000
,  // measure 17
1000
1000
1000
0000
,  // measure 18
0001
0001
0001
0000
,  // measure 19
0010
0100
0010
0100
,  // measure 20
1000
1000
1000
0000
,  // measure 21
0001
0001
0001
0000
,  // measure 22
0100
0100
0100
0000
,  // measure 23
0010
0010
0010
0000
,  // measure 24
1001
0000
0000
0000
,  // measure 25
1000
0100
0010
0000
,  // measure 26
0001
0100
0010
0000
,  // measure 27
1000
0100
0001
0100
,  // measure 28
1000
0000
0000
0000
,  // measure 29
0001
0010
0100
0000
,  // measure 30
1000
0010
0100
0000
,  // measure 31
0001
0100
1000
0100
,  // measure 32
0001
0001
1000
1000
,  // measure 33
2002
0000
0000
3003
0000
0000
0001
0000
,  // measure 34
0020
0000
0000
0030
0000
0000
0100
0000
,  // measure 35
1000
0010
1000
0100
,  // measure 36
0010
0001
0000
0001
,  // measure 37
2002
0000
0000
3003
0000
0000
1000
0000
,  // measure 38
2020
0000
0000
3030
0000
0000
0010
0000
,  // measure 39
0100
0000
0000
0100
,  // measure 40
0001
0000
0000
0001
0000
0000
1000
0000
0000
0000
0000
0000
0000
0000
0000
0000
,  // measure 41
0001
0100
0010
1000
,  // measure 42
0001
1000
0010
0010
,  // measure 43
0100
0000
0001
0000
1000
0000
0000
1000
,  // measure 44
0000
0001
0000
0100
0000
0010
0000
0000
,  // measure 45
0000
1000
0010
0100
,  // measure 46
0010
1000
0100
0001
,  // measure 47
0100
1000
0010
1000
,  // measure 48
0001
0001
0100
0010
,  // measure 49
1001
0000
0000
0000
,  // measure 50
1001
0000
0000
0000
,  // measure 51
0001
0001
0001
0000
,  // measure 52
1000
1000
1000
0000
,  // measure 53
0001
0001
0001
0000
,  // measure 54
0010
0100
1000
0100
,  // measure 55
0010
0010
0010
0000
,  // measure 56
0100
0100
0100
0000
,  // measure 57
1000
1000
0001
1000
,  // measure 58
0010
0100
0001
1000
;

//---------------dance-double - ----------------
#NOTEDATA:;
#CHARTNAME:;
#STEPSTYPE:dance-double;
#DESCRIPTION:;
#CHARTSTYLE:;
#DIFFICULTY:Challenge;
#METER:14;
#RADARVALUES:0.658621,0.780303,0.094668,0.075735,0.714746,487.000000,477.000000,10.000000,8.000000,0.000000,0.000000,0.000000,0.000000,0.000000,0.658621,0.780303,0.094668,0.075735,0.714746,487.000000,477.000000,10.000000,8.000000,0.000000,0.000000,0.000000,0.000000,0.000000;
#CREDIT:Nezemarth;
#NOTES:
00000000
00000000
00000000
00000000
,
00000000
00000000
00000000
00000000
,
00000000
00000000
00000000
00000000
,
00000000
00000000
00000000
00000000
,
00001000
00010000
00000000
00001000
00010000
00000000
00000010
00001000
00000000
00000010
00001000
00000000
00000001
00000010
00000100
00000000
,
00010000
00001000
00000000
00010000
00001000
00000000
00100000
00010000
00000000
00100000
00010000
00000000
10000000
00100000
01000000
00000000
,
00001000
00010000
00000000
00001000
00010000
00000000
00000100
00001000
00000000
00000100
00001000
00000000
00000001
00000100
00000010
00000000
,
00010000
00001000
00010000
00001000
00100000
00010000
00100000
00010000
10000000
01000000
00100000
00010000
10000000
00100000
01000000
00000000
,
00010000
00100000
00000000
00001000
00010000
00000000
00000010
00001000
00000000
00000001
00000010
00000000
00000100
00010000
00001000
00100000
,
00010000
10000000
00000000
00100000
01000000
00000000
00001000
00010000
00000000
00000100
00001000
00000000
00000010
00000100
00000001
00001000
,
00000100
00000010
00000000
00000001
00000100
00000000
00000010
00010000
00000000
00001000
00100000
00000000
00010000
10000000
01000000
00100000
,
00001000
00010000
00000000
00000100
00001000
00000001
00000100
00000001
00000000
00001000
00000100
00010000
00001000
00100000
00010000
00000000
,
20000000
00000000
00000000
00000000
00000000
00000000
00000000
00000000
30100000
00000000
00000000
00100000
00000000
00000000
00010000
00000000
,
00002000
00000000
00000000
00000000
00000000
00000000
00000000
00000000
00003010
00000000
00000000
00000010
00000000
00000000
00000001
00000000
,
00000200
00000000
00000000
00000000
00000000
00000000
00000000
00000000
00001300
00000000
00000000
00001000
00000000
00000000
00010000
00000000
,
02000000
00000000
13000000
00000000
00200000
00000000
00310000
00001000
,
00010000
00000000
00010000
00000000
00010000
00000000
01000000
10000000
00000000
00100000
00000000
00100000
00000000
00010000
00001000
00010000
,
00001000
00000000
00000100
00000000
00000100
00000000
00000001
00000010
00000000
00001000
00000000
00001000
00000000
00010000
00001000
00010000
,
00001000
00000000
00000010
00000000
00000010
00000000
00000001
00000100
00000000
00001000
00000000
00001000
00000000
00010000
01000000
00000000
,
10000000
00000000
10000000
00000000
00100000
00000000
00100000
00010000
00000000
00001000
00000000
00000010
00000000
00001000
00000000
00010000
,
00001000
00000000
00000100
00000000
00000100
00000000
00000001
00000010
00000000
00001000
00000000
00001000
00000000
00010000
00001000
00010000
,
00001000
00000000
00010000
00000000
00010000
00000000
01000000
10000000
00000000
00100000
00000000
00100000
00000000
00010000
00001000
00000000
,
00000010
00000000
00000010
00000000
00001000
00000000
00010000
00100000
00000000
10000000
00000000
10000000
00000000
00010000
00100000
00000000
,
01000000
10000000
01000000
00100000
00010000
10000000
00010000
00000000
01000000
00000000
00100000
00000000
00010000
00000000
00001000
00000100
,
00000010
00000000
00000000
00000000
00000000
00000000
00000000
00000000
00002000
00003000
00000000
00000000
00000000
00000000
00000001
00000000
,
00000010
00001000
00010000
01000000
10000000
10000000
00000000
01000000
,
00100000
00001000
00010000
00000010
00000100
00000000
00000000
00000100
,
00000001
00000010
00001000
00010000
01000000
10000000
00100000
00010000
,
00001000
00000000
00000010
00000000
00001000
00010000
00000000
01000000
10000000
00000000
00100000
00010000
00000000
00001000
00000010
00000000
,
00000001
00000100
00001000
00010000
01000000
01000000
00000000
01000000
,
10000000
00100000
00010000
00100000
10000000
00010000
00000000
00100000
,
01000000
10000000
01000000
00010000
00001000
00000010
00000001
00001000
,
00000010
00000100
00001000
00000000
00010000
00100000
01000000
00000000
00010000
10000000
01000000
00000000
00100000
00001000
00010000
00000000
,
00011000
00000000
00000010
00000100
00000000
00000001
00001000
00000000
00000100
00000000
00000010
00000000
00001000
00000000
00010000
00000000
,
01000000
00000000
10000000
00000000
00010000
01000000
00000000
00001000
00010000
00000000
00000010
00000000
00001000
00000000
00000001
00000000
,
00000010
00001000
00010000
01000000
10000000
00100000
10000000
01000000
,
00010000
00001000
00000010
00000000
00000010
00000001
00000100
00001000
,
00010000
00000000
00100000
01000000
00000000
00010000
10000000
00000000
01000000
00000000
00010000
00000000
00001000
00000000
00000010
00000000
,
00000001
00000000
00001000
00000010
00000000
00000100
00001000
00000000
00010000
00000000
00100000
00000000
10000000
00000000
00010000
00000000
,
00100000
00000000
01000000
10000000
00000000
00100000
01000000
00000000
00001000
00010000
00001000
00000000
00000010
00000000
00000001
00000000
,
00001000
00000000
00000010
00000100
00000000
00001000
00010000
00000000
01000000
00000000
10000000
00100000
00000000
00010000
00001000
00000000
,
00011000
00000000
00010000
00000000
00110000
00000000
00000000
00000000
01100000
00000000
01000000
00010000
00000000
10000000
01000000
00000000
,
00100000
10000000
00100000
00001000
00000010
00000100
00001000
00000001
,
00000100
00000000
00001000
00010000
00100000
10000000
01000000
00010000
,
00001000
00000100
00000000
00001000
00010000
00100000
10000000
01000000
,
00010000
00001000
00011000
00000000
00001010
00000001
00000010
00000100
,
00010000
00001000
00100000
00010000
10000000
00100000
00010000
00001000
,
00000010
00000100
00000010
00000001
00001000
00000010
00000100
00001000
,
00010000
01000000
01000000
10000000
00010000
01000000
00100000
00010000
,
00012000
00000000
00000000
00000000
00000010
00000000
00003000
00001000
00020000
00000000
00000000
00000000
00100000
00000000
00000000
00000000
,
00031000
00000000
00011000
00001100
,
00001001
00000000
00000001
00000000
00000100
00000000
00000000
00001000
00000000
00010000
00000000
00100000
00000000
00100000
10000000
00100000
,
10000000
00000000
01000000
00000000
01000000
00000000
00010000
00001000
00000000
00000010
00000000
00000010
00000000
00000001
00000100
00000001
,
00000100
00000000
00001000
00000000
00001000
00000000
00010000
00100000
00000000
10000000
00000000
10000000
00000000
01000000
00010000
00000000
,
00001000
00000000
00001000
00000000
00000010
00000000
00000010
00001000
00000000
00010000
00000000
00100000
00000000
00010000
00001000
00000000
,
00000010
00000000
00000010
00000000
00000001
00000000
00000100
00001000
00000000
00010000
00000000
00010000
00000000
01000000
10000000
01000000
,
10000000
00000000
00100000
00000000
00100000
00000000
10000000
01000000
00000000
00010000
00000000
00010000
00000000
00001000
00000100
00001000
,
00000100
00000000
00000001
00000000
00000001
00000000
00000010
00001000
00000000
00010000
00000000
00010000
00000000
00100000
00010000
00000000
,
00001000
00000010
00000001
00001000
00000010
00000100
00000000
00001000
00000000
00001000
00000000
00010000
00000000
00100000
10000000
00000000
;

//---------------dance-single - ----------------
#NOTEDATA:;
#CHARTNAME:;
#STEPSTYPE:dance-single;
#DESCRIPTION:;
#CHARTSTYLE:;
#DIFFICULTY:Beginner;
#METER:2;
#RADARVALUES:0.146060,0.194662,0.113602,0.000000,0.000000,108.000000,96.000000,12.000000,0.000000,0.000000,0.000000,0.000000,0.000000,0.000000,0.146060,0.194662,0.113602,0.000000,0.000000,108.000000,96.000000,12.000000,0.000000,0.000000,0.000000,0.000000,0.000000,0.000000;
#CREDIT:Nezemarth;
#NOTES:
// measure 0
0000
0000
0000
0000
,  // measure 1
0000
0000
0000
0000
,  // measure 2
0000
0000
0000
0000
,  // measure 3
0000
0000
0000
0000
,  // measure 4
1000
0000
0000
0000
,  // measure 5
1000
0000
0000
0000
,  // measure 6
1000
0000
0000
0000
,  // measure 7
1000
0000
0000
0000
,  // measure 8
1000
0000
0000
0100
,  // measure 9
0100
0000
0000
0010
,  // measure 10
0010
0000
0000
0001
,  // measure 11
0001
0000
0000
0100
,  // measure 12
0110
0000
0000
0000
,  // measure 13
0110
0000
0000
0000
,  // measure 14
0110
0000
0000
0000
,  // measure 15
0110
0000
0000
0000
,  // measure 16
1001
0000
0000
1000
,  // measure 17
0100
0000
0000
0010
,  // measure 18
0100
0000
0000
0000
,  // measure 19
1000
0000
1000
0000
,  // measure 20
0001
0000
0000
0100
,  // measure 21
0010
0000
0000
0100
,  // measure 22
0001
0000
0000
1000
,  // measure 23
0100
0000
0010
0000
,  // measure 24
0010
0000
0100
0000
,  // measure 25
1001
0000
0001
0000
,  // measure 26
0100
0000
0010
0000
,  // measure 27
0100
0000
0001
0000
,  // measure 28
1000
0000
0000
0000
,  // measure 29
1000
0000
0100
0000
,  // measure 30
0010
0000
0100
0000
,  // measure 31
1000
0000
1000
0000
,  // measure 32
0001
0000
0000
0000
,  // measure 33
1001
0000
0000
0000
,  // measure 34
0001
0000
0000
0000
,  // measure 35
1000
0000
1000
0000
,  // measure 36
0010
0000
0000
0000
,  // measure 37
1001
0000
0000
0000
,  // measure 38
0001
0000
0000
0000
,  // measure 39
0010
0000
0000
0000
,  // measure 40
0100
0000
0100
0000
,  // measure 41
1001
1000
1000
0000
,  // measure 42
0100
0000
0010
0000
,  // measure 43
0100
0100
0100
0000
,  // measure 44
1000
0000
0001
0000
,  // measure 45
1001
0001
0001
0000
,  // measure 46
0100
0000
0010
0000
,  // measure 47
0100
0100
0100
0000
,  // measure 48
0001
0000
1000
0000
,  // measure 49
1001
0000
0000
0000
,  // measure 50
0000
0000
1000
1000
,  // measure 51
1001
0000
0000
0001
,  // measure 52
0010
0000
0000
0100
,  // measure 53
0010
0000
0000
0001
,  // measure 54
1000
0000
0010
0000
,  // measure 55
0100
0000
0000
1000
,  // measure 56
0100
0000
0000
0010
,  // measure 57
0100
0000
0000
0000
,  // measure 58
0001
0000
1000
1000
;
