#TITLE:KILL EACH OTHER;
#SUBTITLE:;
#ARTIST:BEMANI Sound Team "L.E.D. VS. L.E.D.-G";
#TITLETRANSLIT:;
#SUBTITLETRANSLIT:;
#ARTISTTRANSLIT:;
#GENRE:;
#CREDIT:;
#MUSIC:KILL EACH OTHER.ogg;
#BANNER:KILL EACH OTHER.png;
#BACKGROUND:KILL EACH OTHER-bg.png;
#CDTITLE:;
#SAMPLESTART:25.807;
#SAMPLELENGTH:11.852;
#SELECTABLE:YES;
#OFFSET:-0.622;
#BPMS:0.000=162.000;
#STOPS:;
#BGCHANGES:-4.000=KILL EACH OTHER.avi=1.000=0=0=0=StretchNoLoop====,
99999.000=-nosongbg-=1.000=0=0=0=StretchNoLoop====
;
#FGCHANGES:;

//--------------- dance-single - eataninja ----------------
#NOTES:
     dance-single:
     eataninja:
     Beginner:
     5:
     0,0,0,0,0:
0000
0000
0000
0000
,
0000
0000
0000
0000
,
0000
0000
0000
0000
,
0000
0000
0000
0000
,
0000
0000
0000
0000
,
0002
0000
0000
0003
,
0020
0000
0000
0030
,
0200
0000
0000
0300
,
1001
0000
0000
0000
,
1000
0000
1000
0000
,
0010
0000
0010
0000
,
1001
0000
0100
0000
,
0001
0000
0010
0000
,
1001
0000
0100
0000
,
1001
0000
0010
0000
,
1001
0000
0110
0000
,
0000
0000
0000
0000
,
0100
0100
0100
0000
,
0001
0001
0001
0000
,
1000
1000
1000
0000
,
0200
0000
0300
0000
,
0010
0010
0010
0000
,
0001
0001
0001
0000
,
1000
1000
1000
0000
,
0010
0100
0010
0000
,
0000
1001
1000
0000
,
0100
0100
0100
0000
,
0010
0010
0010
0010
,
0010
0000
1001
0000
,
0001
0001
0001
0000
,
0100
0100
0100
0000
,
0010
0010
0010
0000
,
1000
0001
1000
0000
,
0001
0001
0001
0000
,
0010
0100
0110
0000
,
1000
1000
1000
0000
,
1001
0000
0000
0000
,
0001
0000
0100
0000
,
1000
0000
0100
0000
,
0001
0000
0100
0000
,
1001
0000
0000
0000
,
1000
0000
0100
0000
,
0001
0000
0100
0000
,
1000
0000
0100
0000
,
0020
0000
0030
0000
,
0001
0001
1000
0000
,
0001
0100
0001
0000
,
1000
1000
0001
0000
,
1000
0100
0000
0000
,
1000
0000
0010
0000
,
0001
0000
0010
0000
,
1000
0000
0100
0000
,
0020
0000
0000
0030
,
0001
0001
1000
0000
,
0001
1000
0010
0000
,
1000
1000
0001
0000
,
1000
0001
0000
0000
,
0001
0001
1000
0000
,
0001
1000
0100
0000
,
1000
1000
0001
0000
,
0100
0100
0100
0100
,
0020
0000
0000
0030
,
2000
0000
0000
3000
,
0002
0000
0000
0003
,
0020
0000
0000
0030
,
2002
0000
0000
3003
,
0220
0000
0000
0330
,
1001
0000
0110
0000
,
0200
0000
0000
0300
,
0000
0000
0000
0000
,
0001
1000
0001
0001
,
1000
0001
0010
0000
,
0001
1000
0001
0001
,
1001
0000
0110
0000
,
1000
0001
1000
1000
,
0001
1000
0010
0000
,
1000
0001
1000
0001
,
1001
0000
0110
0000
,
0001
0000
0100
0000
,
1000
0000
0100
0000
,
0001
0000
0100
0000
,
0010
0000
0000
0000
,
1000
0000
0100
0000
,
0001
0000
0100
0000
,
1000
1000
0001
0001
,
0100
0100
0020
0030
,
1001
0000
0000
0000
;

//--------------- dance-single - eataninja ----------------
#NOTES:
     dance-single:
     eataninja:
     Easy:
     9:
     0,0,0,0,0:
0000
0000
0000
0000
,
0000
0000
0000
0000
,
0000
0000
0000
0000
,
0000
0000
0000
0000
,
0000
0000
0000
0000
,
2001
0000
3020
0000
,
0230
0000
0302
0000
,
0023
0000
0230
0000
,
1300
0001
0100
0000
,
1001
0001
0100
0100
,
0010
0010
1000
0001
,
1001
1000
0100
0100
,
0010
0010
0001
1000
,
1001
0010
0100
0001
,
1001
0010
0100
1000
,
1001
0010
0110
0001
,
0000
0000
0000
0000
,
1000
0000
1000
0000
0100
0000
0100
0010
,
0001
0001
0100
0100
,
0010
0010
1000
1000
,
0001
0000
0001
0000
1000
0000
0000
0100
0000
0000
0100
0000
0000
0000
0000
0000
,
1000
0010
1000
0000
0001
0000
0001
0010
,
0100
0100
1000
0020
,
0130
0100
0001
0001
,
1000
0000
0100
0001
0000
0100
0020
0000
,
0030
0000
0011
0000
0001
0000
1000
0010
,
0100
0100
0001
0020
,
0130
0000
0100
0000
1000
0000
1000
0001
,
0000
0000
0100
0000
0100
0100
0010
0000
,
1000
0001
1000
0000
0100
0000
0010
0000
,
0001
1000
0001
0000
0100
0010
1000
0000
,
0001
1000
0001
0000
0010
0000
0100
0000
,
1000
0000
0001
0000
1000
0000
0010
0000
0000
0100
0000
0000
0000
0000
0000
0000
,
0010
1000
0100
0000
0010
0000
0001
0000
,
1000
0000
1000
0000
0010
0020
0030
0000
,
0100
0001
0010
0000
0100
0000
1000
0000
,
0001
0001
0100
0000
1001
0000
0000
0000
,
1000
0000
0000
0010
0000
0100
0000
0000
,
0001
0000
0000
0010
0000
0100
0000
0000
,
1000
0000
0000
0010
0000
0100
0000
0000
,
1001
0000
0000
0000
,
0001
0100
0001
0000
0100
0000
1000
0000
,
0100
0010
0100
0000
0001
0000
1000
0000
,
0100
0001
0100
0000
0010
0001
1000
0000
,
0020
0000
0030
0000
,
0102
0000
0000
0103
0000
0000
0001
0000
0001
1000
0000
0000
,
2100
0000
0000
3100
0000
0000
1000
0000
1000
0001
0000
0000
,
0012
0000
0000
0013
0000
0000
0001
0000
0001
1000
0000
0000
,
2010
3001
0000
0000
,
0001
0010
0100
0010
,
0001
0100
0010
0000
,
1000
0010
0001
0010
,
2000
3002
0023
0130
,
1001
0000
1000
0000
0100
0010
0001
0000
,
1000
0000
0010
0000
0100
0010
1000
0000
,
0001
0000
0100
0000
0010
0100
0001
0000
,
1000
0001
0010
0000
,
1001
0000
1000
0010
0001
0000
0010
0100
,
0001
0000
1000
0100
0001
0000
0000
0000
,
0100
0010
0001
0000
1000
0010
0100
0000
,
0001
1000
0001
1000
0001
1000
0100
0000
,
0020
0000
0032
0000
,
2003
0000
3020
0000
,
0230
0000
2300
0000
,
3200
0000
0302
0000
,
1003
1000
0100
0010
,
1001
0001
0100
0010
,
1001
0100
0110
0001
,
0000
0000
0000
0000
,
1000
0000
0000
0010
0000
0000
0100
0000
0000
0000
0001
0000
0010
0000
0100
0000
,
1000
0001
1000
0000
0010
0100
0001
0000
,
0001
1000
0001
0000
0010
0100
1000
0000
,
1000
0010
1000
0000
0001
0010
0001
0000
,
1100
0000
0000
0000
0000
0000
0000
0000
0001
0000
0000
1000
0000
0000
0001
0000
,
0100
0010
0100
0000
0010
1000
0001
0000
,
0010
0100
0010
0000
0100
1000
0001
0000
,
1000
0010
0100
0000
0001
1000
0100
0000
,
0010
0010
0000
0000
2002
0000
3003
0000
,
1000
0000
0000
0100
0000
0010
0000
0000
,
0001
0000
0000
0100
0000
0010
0000
0000
,
1000
0000
0000
0100
0000
0010
0000
0000
,
1001
0000
0000
0000
,
0001
1000
0010
0000
0100
0010
0100
0000
,
0001
1000
0100
0000
0010
0100
0010
0000
,
0001
0010
1000
0000
0010
0001
0100
0000
,
0010
1000
0001
0001
0020
0000
0030
0000
,
1001
0000
0000
0000
;

//--------------- dance-single - eataninja ----------------
#NOTES:
     dance-single:
     eataninja:
     Medium:
     13:
     0,0,0,0,0:
0000
0000
0000
0000
,
0000
0000
0000
0000
,
0000
0000
0000
0000
,
0000
0000
0000
0000
,
0000
0000
0000
0000
,
1002
0000
0000
0013
0000
0100
0000
0020
,
0000
0001
0000
0032
0000
0103
0010
1000
,
0001
0000
0000
0010
0000
0100
0000
1000
,
0001
0000
0000
0001
1000
0000
0010
0000
0010
0000
0100
0000
0001
0000
0000
0000
,
1000
0000
0000
0000
1010
0000
0000
0000
0001
0000
0000
1000
0001
0000
0010
0000
,
0100
0000
0000
0000
1100
0000
0000
0000
0001
0000
0000
1000
0001
0000
0100
0000
,
0010
0000
0000
0000
1001
0000
0000
0000
0001
0000
0000
0010
0100
0000
1000
0000
,
0010
0000
0000
0000
1001
0000
0000
0000
1000
0000
0000
0010
0100
0000
0001
0000
,
1000
1000
0001
0001
0010
0100
1000
0001
,
0100
0100
0010
0010
1000
0001
0010
0100
,
1000
1000
0001
0001
0100
0100
0010
0010
,
1000
0000
0000
0012
,
1003
0010
0100
0000
0010
1000
0100
0001
,
0100
0010
0001
0000
0010
0001
1000
0000
,
0001
0100
0010
0000
0100
0001
1000
0100
,
0010
0000
0001
0000
0100
0000
0000
0010
0000
0000
0010
0000
0000
0000
1000
0000
,
0001
1000
0200
0000
0310
0001
0100
1000
,
0100
0000
0010
0000
1000
0000
0000
0001
0000
0001
0000
0010
0200
0000
0000
0000
,
1300
0000
0000
0001
0000
0000
0100
0000
0100
0000
0001
0000
0010
0000
1000
0000
,
0010
0001
1000
0101
0000
1100
0001
0001
,
0020
0000
0000
0000
0130
0000
0000
1000
0000
0000
0001
0000
0100
0000
1000
0000
,
0100
0000
0010
0000
1000
0000
0000
0001
0000
0001
0000
0010
0200
0000
0000
0000
,
1300
0000
0000
0001
0000
0000
0100
0000
0100
0000
0001
0000
0010
0000
1001
0000
,
0000
1000
0100
0100
0010
0010
0001
0000
,
1000
0010
1000
0001
0010
0001
0100
1000
,
0100
0010
1000
0001
0010
0100
2000
0000
,
3001
0100
0001
1000
0100
1000
0010
0001
,
0010
0000
0100
0000
0001
0000
0001
0000
0000
1000
0000
0000
0100
0000
0100
0000
,
0010
0001
0010
0001
1000
0010
0100
1000
,
0100
0010
1000
0001
0010
0020
0030
0000
,
0100
1000
0100
1000
0001
0100
0010
1000
,
0001
0000
0001
0000
0010
0000
0100
0000
1000
0000
0000
0010
0000
0000
0010
0000
,
0100
0000
0000
0001
0000
0000
1000
0000
0000
0000
0100
0000
0000
0000
0010
0000
,
0001
0000
0000
1000
0000
0000
0010
0000
0000
0000
0100
0000
0000
0000
0010
0000
,
1000
0000
0000
0001
0000
0000
0010
0000
0000
0000
0100
0000
0000
0000
1000
0001
,
1000
0000
0000
0000
,
1000
0000
0000
0010
0000
0000
0001
0000
0000
0000
0010
0000
0100
0000
0001
0000
,
1000
0000
0000
0100
0000
0000
0001
0000
0000
0000
0100
0000
0010
0000
0001
0000
,
1000
0000
0000
0010
0000
0000
0001
0000
1000
0000
0000
0100
0000
0000
0001
0000
,
2000
0000
3000
0000
,
0022
0000
0033
1000
0000
0000
0001
0100
0001
0100
0000
0000
,
2020
0000
3030
0001
0000
0000
1000
0100
1000
0100
0000
0000
,
2002
0000
3003
0001
0000
0000
1000
0010
0100
0001
0000
0000
,
2002
0000
3003
1000
0000
0000
0000
0000
0000
0000
0000
0000
,
0001
0000
0001
0010
0000
0010
0100
0000
0100
1000
0000
1000
,
0010
0000
0001
0010
0000
1000
0000
0000
0000
0000
0000
0000
,
0001
0000
0010
1000
0000
0010
0001
0000
0010
1000
0000
0010
,
0100
0000
0100
1000
0000
1000
0002
0000
0000
0203
0000
0000
,
0310
1000
0001
1000
0100
0010
0001
1000
,
0100
1000
0001
1000
0010
0100
0001
1000
,
0010
1000
0001
1000
0100
0010
0001
1000
,
0100
1000
0001
0100
0010
0010
1001
0000
,
0001
0100
0000
0001
0100
0000
0010
0000
1000
0000
0000
0000
0001
0000
0010
0000
,
0100
1000
0001
1000
0010
0100
0100
0000
,
0001
0010
0100
1000
0001
0100
0010
1000
,
0001
0001
1000
1000
0100
0100
0010
0010
,
0002
0000
0000
0100
0000
0000
0100
0000
,
0000
0000
0000
0100
0000
0000
0100
0000
,
2003
0000
0000
0100
0000
0000
0100
0000
,
0000
0000
0000
0100
0000
0000
3100
0000
,
0010
0001
0010
0001
1000
1000
0010
0010
,
0100
0001
0100
0001
1000
1000
0100
0100
,
0010
0010
0001
0001
1000
1000
0010
0010
,
0000
0000
0000
0000
,
0010
0000
0000
0100
0000
0000
0001
0000
0010
0000
0100
0000
1000
0000
1000
0000
,
0001
0010
0011
0000
0010
0100
1000
0000
,
1000
0010
1010
0000
0010
0100
0001
0000
,
1000
0100
1100
0000
0001
1000
0010
0100
,
1001
0000
0000
0000
0000
0000
0000
0000
0100
0000
0000
0100
0000
0000
0100
0000
,
0010
1000
1001
0000
0001
0010
0100
0000
,
0010
0001
1001
0000
1000
0010
0100
0000
,
0001
1000
1100
0000
0001
1000
0010
0010
,
0100
0100
0000
0000
2002
0000
3003
0000
,
1000
0000
0000
0010
0000
0000
0100
0000
0000
0000
0001
1000
0000
1000
0010
0000
,
1000
0000
0000
0100
0000
0000
0010
0000
0000
0000
0001
1000
0000
1000
0100
0000
,
1000
0000
0000
0010
0000
0000
0100
0000
0000
0000
0001
1000
0000
1000
0001
0000
,
0100
0000
0000
0000
,
0010
0000
0000
1000
0000
0000
0001
0000
0000
0000
0010
0000
0100
0000
1000
0100
,
1000
0000
0000
0001
0000
0000
0100
0000
0000
0000
0010
0000
1000
0000
0001
0100
,
0001
1000
0100
0001
0100
1000
0010
0100
,
0001
1000
0001
0000
1000
0100
1000
0000
0020
0000
0000
0000
0000
0000
0030
0000
,
1001
0000
0000
0000
;

//--------------- dance-single - eataninja ----------------
#NOTES:
     dance-single:
     eataninja:
     Hard:
     16:
     0,0,0,0,0:
0000
0000
0000
0000
,
0000
0000
0000
0000
,
0000
0000
0000
0000
,
0000
0000
0000
0000
,
0000
0000
0000
0000
,
1000
0100
0010
0002
0000
0103
0010
2000
,
0000
3001
0000
0002
0000
0013
0100
1000
,
0001
1000
0010
0100
0001
0010
0100
1000
,
0001
0000
0000
0001
0010
0000
1000
0000
0010
0100
0010
0100
1000
0000
0000
0000
,
0001
0000
1000
0000
0010
0000
0100
0000
0001
0000
0000
0001
1000
0000
0100
0000
,
0010
0000
0001
0000
1000
0000
0010
0000
0100
0000
0000
0100
0001
0000
1000
0000
,
0100
0100
0001
0100
1000
0010
1000
0001
,
0100
0100
1000
0100
0010
1000
0001
1000
,
0100
0010
0100
0000
0010
0000
0002
0000
0000
0000
1003
0010
1000
0000
0002
0000
,
0000
1003
0000
2000
0000
3010
0100
0001
,
1000
0100
1000
0100
0010
0001
0010
0001
1000
0010
1000
0010
0100
0001
0100
0001
,
1000
0000
0000
0100
0000
0000
0010
0000
0001
1000
0001
1000
0020
0000
0000
0030
,
0100
0001
0100
0000
0010
0000
1000
0000
0001
0010
0001
0000
0010
0000
2000
0000
,
3010
0100
0010
0000
0001
0000
1000
0000
0010
0100
0010
0000
1000
0000
0001
0000
,
1000
0100
1000
0000
0001
0000
0100
0000
0010
1000
0010
0000
0100
0000
0001
0000
,
1000
0000
0100
0000
0010
0000
0000
0011
0000
0000
1001
0000
0000
0000
0001
0000
,
0100
0010
1000
0000
0001
0000
0010
0000
0001
1000
0001
0000
0100
0000
2000
0000
,
3100
0010
0100
0000
0010
0000
1000
0001
0000
0001
0000
0010
0200
0000
0000
0000
,
1300
0001
0100
0000
0010
0000
1000
0000
0001
0010
0001
0000
0010
0000
2000
0000
,
3010
0100
1000
0000
0001
0000
0110
0000
0000
0000
1000
0000
0001
0100
0001
0100
,
0020
0000
0000
0030
1001
0000
0001
0000
1000
0100
1000
0000
0010
0000
0002
0000
,
0013
0100
0010
0000
0100
0000
0001
1000
0000
1000
0000
0100
0020
0000
0000
0000
,
0031
1000
0010
0000
0100
0000
0001
0000
1000
0100
1000
0000
0100
0000
1001
0000
,
0000
0000
1000
0000
0010
0100
0010
0100
0001
1000
0001
1000
0200
0000
0000
0000
,
0310
0001
1000
0000
0010
0000
0100
0010
0100
0000
0001
0000
1000
0100
0010
0000
,
0001
1000
0001
0000
1000
0000
0010
0100
0002
0000
2003
0000
3200
0000
0000
0000
,
0310
0001
1000
0000
0001
0000
0100
0010
0100
0000
0010
0000
1000
0001
0010
0000
,
0100
0000
1000
0000
0010
0000
0110
0000
0000
0101
0000
0000
1000
0001
1000
0001
,
0010
0100
1000
0000
0001
0000
1000
0010
1000
0000
0001
0000
0010
0001
1000
0000
,
0010
0100
0001
0000
1000
0000
0001
1000
0100
0000
0200
0000
0300
0000
0000
0000
,
0100
0010
0001
0000
1000
0000
0001
0100
0001
0000
0100
0000
0010
1000
0001
0000
,
0010
0000
0010
0000
0100
1000
0100
1000
0001
0000
0000
0100
0000
0000
0100
0010
,
2000
0000
0000
3001
0000
0000
0010
0000
0000
0000
0110
0000
0000
0000
0100
0000
,
2000
0000
0000
3001
0000
0000
0100
0000
0000
0000
0110
0000
0000
0000
0010
0000
,
2000
0000
0000
3001
0000
0000
0010
0000
0000
0000
0110
0000
0000
0000
0100
0010
,
0001
0000
0000
0000
,
1000
0010
1000
0010
0000
0100
0001
0100
0000
0001
1000
0000
0100
0010
0001
0000
,
1000
0100
1000
0100
0000
0010
0001
0010
0000
0001
1000
0000
0010
0100
0001
0000
,
1000
0100
1000
0100
0010
0001
0010
0001
1000
0010
1000
0010
0100
0001
0100
0001
,
2000
0000
0000
3000
0000
0000
0001
0010
0001
1000
0000
0000
,
1020
0000
0000
1030
0000
0000
0001
1000
0100
0010
0000
0000
,
0021
0000
0000
0031
0000
0000
1000
0010
1000
0001
0000
0000
,
0201
0000
0000
0301
0000
0000
1000
0100
0010
0001
0100
0010
,
2000
0000
0000
3010
0100
0010
1000
0000
0000
1000
0000
0000
,
0001
0100
0001
1000
0010
1000
0001
0010
0001
1000
0100
1000
,
0001
0100
0010
1000
0010
0100
0001
0000
0000
0000
0000
0000
,
1000
0100
0010
0001
0010
0100
1000
0010
0100
0001
0100
0010
,
1000
0100
0010
0001
0100
0010
0200
0000
0000
0302
0000
0000
,
1003
0100
1000
0000
0001
0000
1000
0100
1000
0000
0001
0000
1000
0010
0100
0000
,
0001
0100
0001
0000
1000
0000
0001
0100
0001
0000
1000
0000
0100
0010
0001
0000
,
1000
0010
1000
0000
0001
0000
1000
0010
1000
0000
0001
0000
1000
0100
0010
0000
,
0001
0010
0001
0000
1000
0000
0010
0000
0100
0000
0100
0000
0002
0000
0000
0000
,
1003
0010
0000
0010
0100
0000
0001
1000
0001
0000
1000
0000
0100
0010
0001
0000
,
1000
0010
1000
0000
0001
0000
1000
0100
1000
0000
0001
0000
0100
0000
0100
0000
,
0010
1000
0010
1000
0001
0000
1000
0100
1000
0000
0001
0000
0010
0100
1000
0000
,
0001
0100
0001
0100
0010
0000
1000
0001
0010
0100
1000
0001
0100
0010
0100
0010
,
1000
0000
0000
1010
0000
0000
0101
0000
,
0000
0000
0000
0011
0000
0000
1100
0000
,
0001
0000
0000
0101
0000
0000
1010
0000
,
0000
0000
0000
1100
0000
0000
1001
0000
,
0001
0100
0001
0100
0001
0100
0001
0100
0010
1000
0010
1000
0010
1000
0010
1000
,
0001
0010
0001
0010
0001
0010
0001
0010
0100
1000
0100
1000
0100
1000
0100
1000
,
0001
1000
0001
1000
0010
0100
0010
0100
0001
0100
0001
0100
0010
1000
0010
1000
,
0001
0000
0000
0000
,
0001
0000
0000
0001
0010
0000
0100
0000
1000
0001
1000
0001
1000
0010
1000
0010
,
0100
0000
0010
1000
0010
0000
0100
0010
0100
0000
0001
0100
0001
0000
1000
0100
,
1000
0000
0100
0010
0100
0000
0010
0001
0010
0000
0001
1000
0001
0000
1000
0010
,
1000
0000
0001
0100
0001
0000
1000
0100
1000
0000
0001
0010
0001
0000
0010
0100
,
1000
0000
0000
0000
0000
0000
0000
0000
1001
0000
0000
1001
0000
0000
1001
0000
,
0001
0000
0100
0010
0100
0000
0001
1000
0001
0000
0010
0001
0010
0000
0100
1000
,
0100
0000
1000
0001
1000
0000
0010
0100
0010
0000
0100
0001
0100
0000
0001
0010
,
0001
0000
1000
0100
1000
0000
0001
0100
0001
0000
1000
0010
1000
0000
0001
0010
,
0100
0000
0100
0000
1000
0001
1000
0001
0200
0000
0000
0000
0310
0000
0000
0000
,
2000
0000
0000
3001
0000
0000
0010
0000
0000
0000
1100
0000
0000
0000
0100
0000
,
2000
0000
0000
3001
0000
0000
0100
0000
0000
0000
1010
0000
0000
0000
0010
0000
,
2000
0000
0000
3001
0000
0000
0010
0000
0000
0000
0110
0000
0000
0000
0010
0100
,
1000
0000
0000
0000
,
0001
0100
0001
1000
0000
0010
0100
0010
0000
1000
0001
0000
0010
0100
1000
0000
,
0001
0010
0001
1000
0000
0100
0010
0100
0000
1000
0001
0000
0100
0010
1000
0000
,
0001
0100
0001
0100
0010
1000
0010
1000
0001
0010
0001
0010
0100
1000
0100
1000
,
0001
1000
0100
0010
0001
1000
0010
0100
0020
0000
0000
0000
0000
0000
0030
0000
,
1001
0000
0000
0000
;

//--------------- dance-single - eataninja ----------------
#NOTES:
     dance-single:
     eataninja:
     Challenge:
     17:
     0,0,0,0,0:
0000
0000
0000
0000
,
0000
0000
0000
0000
,
0000
0000
0000
0000
,
0000
0000
0000
0000
,
0000
0000
0000
0000
,
1000
0001
0010
0100
1000
0010
0100
0001
,
0000
1000
0000
2000
0000
3100
0001
0100
,
1000
0000
0001
0100
0001
0000
0100
0000
0001
0010
0001
0000
0010
0000
0100
0000
,
1000
0000
0000
1000
0001
0100
0001
0100
0010
1000
0100
0010
0001
0000
0001
0000
,
0100
0000
0000
0000
0101
0000
0100
0000
0010
0000
0000
1000
0001
0000
0010
0000
,
0001
0000
0000
0000
0011
0000
0010
0000
0100
0000
0000
1000
0001
0000
0100
0000
,
0001
0000
1000
0010
1000
0000
0010
0100
0010
0000
0100
0001
0100
0000
0001
0010
,
0001
0000
0010
0100
0010
0000
0100
1000
0100
0000
1000
0001
1000
0000
0100
0000
,
0010
0001
0010
0001
0010
0001
0010
0001
1000
0001
1000
0001
1000
0001
1000
0001
,
1000
0010
1000
0010
1000
0010
1000
0010
0100
0010
0100
0010
0100
0010
0100
0010
,
0100
0001
0100
0001
1000
0001
1000
0001
1000
0100
1000
0100
0010
0001
0010
0001
,
1000
0000
0000
0000
,
1000
0010
0100
0001
1000
0010
1000
0000
0010
0100
0010
1000
0001
0010
0200
0000
,
1300
0001
1000
0100
0010
0001
1000
0000
0001
1000
0001
0100
0010
1000
0001
0000
,
1000
0100
0010
0001
1000
0100
1000
0000
0001
0100
0010
1000
0001
0100
0001
0000
,
1000
0000
0010
0000
0110
0000
0000
0101
0000
0000
1001
0000
0000
0000
2000
0000
,
3001
0010
0001
1000
0100
0010
0001
0000
0010
0100
0010
0001
1000
0010
0200
0000
,
0301
0100
0001
0100
0010
1000
0001
0010
0000
0010
0000
0100
2000
0000
3002
0000
,
1003
0010
0100
0010
1000
0001
0100
0000
0001
1000
0001
0010
0100
1000
0020
0000
,
0130
0001
1000
0010
0100
0000
1200
0000
0000
0000
0301
0000
0100
0010
0100
0010
,
2000
0000
3000
0000
1001
0000
0001
0010
0000
0010
0100
0000
1000
0000
0020
0000
,
1030
0010
1000
0010
0100
0001
1000
0100
0000
0100
0000
0010
0002
0000
2003
0000
,
3010
0100
0001
1000
0010
0100
0010
0000
1000
0001
1000
0001
0010
0000
1001
0000
,
0000
0001
1000
0000
0001
0100
0001
0100
0010
1000
0010
1000
0002
0000
1003
0100
,
1000
0001
0010
0100
1000
0001
1000
0010
0100
0001
1000
0001
0010
0100
1000
0001
,
0000
0001
1000
0010
0100
0010
2000
0000
3002
0000
0023
0000
0230
0000
2300
0000
,
3001
1000
0100
0010
0001
1000
0001
0100
0010
1000
0001
1000
0100
0010
0001
1000
,
0000
1000
0010
1000
0001
0000
0101
0000
0000
1010
0000
0000
1000
0001
1000
0001
,
0010
0100
1000
0010
0100
0001
1000
0001
0010
0100
1000
0001
1000
0010
0100
0001
,
0000
0001
1000
0100
0010
0001
1000
0010
0100
0000
0200
0000
0300
0000
0000
0000
,
0001
1000
0100
0010
0001
1000
0001
0100
0010
1000
0001
1000
0100
0010
0001
1000
,
0010
0000
0010
0000
0100
0001
0100
0001
1000
0000
0000
1100
0000
0000
0001
1000
,
0020
0000
0000
0130
0000
0000
0001
0000
0000
0000
1001
0000
0000
0000
1000
0000
,
0200
0000
0000
0310
0000
0000
0001
0000
0000
0000
1001
0000
0000
0000
1000
0000
,
0020
0000
0000
0130
0000
0000
0001
0000
0000
0000
0101
0000
0000
0000
1000
0001
,
0010
0000
0000
0000
0000
0000
1100
0001
,
1000
0010
0100
0001
0000
0100
1000
0100
0000
0100
0010
0000
1000
0001
1000
0000
,
0001
0010
0100
1000
0000
0100
0001
0100
0000
0100
0010
0000
0001
1000
0001
0000
,
1000
0010
0100
0001
0100
0010
1000
0001
1000
0100
0010
0001
0010
0100
1000
0001
,
0200
0300
0110
1001
,
0022
0000
0033
0001
1000
0001
0010
0100
1000
0010
0000
0000
,
2020
0000
0000
0000
3030
0000
1000
0000
0001
0000
1000
0000
0100
0000
0010
0100
0010
0000
0001
0000
0000
0000
0100
0000
,
0202
0000
0303
0001
1000
0100
0001
0100
0010
0001
1000
0010
,
2020
0000
3030
1000
0001
0010
0200
0000
0300
0100
0000
0000
,
1000
0001
0100
0001
1000
0100
1000
0001
0100
0001
1000
0100
,
0010
0001
0100
1000
0100
0001
1000
0010
0010
1002
0000
0000
,
1003
0100
0010
1000
0010
0001
1000
0010
0100
1000
0100
0001
,
0020
0000
0130
1001
,
1000
0010
1000
0010
0100
0000
0010
1000
0010
1000
0001
0000
0010
0100
1000
0000
,
0001
0010
0001
0010
0100
0000
0010
0001
0010
0001
1000
0000
0010
0100
0001
0000
,
1000
0001
1000
0001
0100
0000
0001
0100
0001
0100
0010
0000
1000
0001
0010
0000
,
0001
1000
0001
1000
0100
0010
0001
1000
0010
0000
0100
0010
0200
0000
0300
0000
,
0001
0100
0000
0100
0010
0000
1000
0000
0001
1000
0001
0010
0100
1000
0001
0000
,
1000
0010
1000
0010
0100
0000
0010
1000
0010
1000
0001
0000
0010
0000
0010
0000
,
0100
1000
0100
1000
0001
0000
0100
0010
1000
0000
1000
0000
0001
0000
0010
0000
,
0100
0010
0100
0010
0001
1000
0001
1000
0010
0100
0001
1000
0100
0010
0001
1000
,
0001
0000
0000
0011
0000
0010
1000
0010
,
0100
0000
0000
1100
0000
0001
1000
0010
,
0100
0000
0000
0101
0000
0100
1000
0100
,
0001
0000
0000
0011
0000
0010
0100
1000
,
0001
0010
0001
0010
0100
1000
0100
1000
0001
1000
0001
1000
0010
0100
0010
0100
,
0001
0100
0001
0100
0010
1000
0010
1000
0001
1000
0001
1000
0100
0010
0100
0010
,
0001
1000
0010
0100
0001
0100
0010
1000
0001
0010
0100
1000
0100
0010
0001
1000
,
0010
0000
0000
0000
,
0110
0000
0000
0100
0001
0000
1000
0001
0010
0100
1000
0001
0100
0010
0100
0010
,
1000
0001
0010
0100
1000
0001
1000
0010
0100
0001
0010
0100
1000
0001
0100
1000
,
0000
0100
0010
0100
0001
1000
0100
0010
0001
1000
0010
0100
0010
1000
0100
0001
,
0000
0100
0010
0001
1000
0010
0100
0010
1000
0001
0010
0100
1000
0000
0001
0100
,
0010
0000
0000
0000
0000
0000
0000
0000
1010
0000
0000
0110
0000
0000
1001
0000
,
0001
1000
0100
0010
0001
1000
0001
0100
0010
1000
0001
0010
0100
1000
0010
0001
,
0000
0010
0100
0001
1000
0001
0010
0100
1000
0001
0100
0010
1000
0001
0010
1000
,
0000
0010
0100
1000
0001
1000
0010
0100
0001
1000
0100
0010
0001
0100
0010
0000
,
1001
1001
0000
0000
2100
0000
3001
0000
,
0001
0100
0001
0100
0000
1000
0100
1000
0000
0100
0010
1000
0001
0010
0100
1000
,
0001
0010
0001
0010
0000
1000
0010
1000
0000
0010
0100
1000
0001
0100
0010
1000
,
0001
0100
0001
0100
0000
1000
0100
1000
0000
0100
0010
1000
0001
1000
0100
0010
,
0001
0000
0000
0000
0000
0000
0011
1000
,
0001
1000
0010
0100
0000
1000
0100
0010
0000
1000
0001
0010
0100
1000
0010
0100
,
0010
1000
0001
0010
0000
1000
0010
0100
0000
1000
0001
0100
0010
1000
0001
1000
,
0100
0010
0100
0010
0001
1000
0001
1000
0010
0100
0010
0100
0001
1000
0001
1000
,
0100
0010
0001
1000
0010
0100
0001
0010
2000
0000
0000
0000
3000
0000
0000
0000
,
0011
0000
0000
0000
;
