#TITLE:Insomnia;
#SUBTITLE:;
#ARTIST:rejection feat. mami;
#TITLETRANSLIT:;
#SUBTITLETRANSLIT:;
#ARTISTTRANSLIT:;
#GENRE:;
#CREDIT:;
#BANNER:Insomnia.png;
#BACKGROUND:Insomnia-bg.png;
#LYRICSPATH:;
#CDTITLE:;
#MUSIC:Insomnia.ogg;
#OFFSET:1.347395;
#SAMPLESTART:21.958187;
#SAMPLELENGTH:10.971424;
#LASTBEATHINT:0.460976;
#SELECTABLE:YES;
#BPMS:0.000000=87.500000
,34.000000=175.000000
,226.000000=87.500000
,242.000000=175.000000
;
#STOPS:
;
#BGCHANGES:;
#KEYSOUNDS:;
#ATTACKS:;

//---------------dance-single - ----------------
#NOTES:
     dance-single:
     :
     Hard:
     16:
     0.753769,1.122631,0.456197,0.120505,0.645561,613.000000,560.000000,53.000000,14.000000,4.000000,0.000000,0.753769,1.122631,0.456197,0.120505,0.645561,613.000000,560.000000,53.000000,14.000000,4.000000,0.000000:
0000
0000
0000
0000
,
0000
0000
0000
0000
,
0000
0000
0000
0000
,
0000
0000
0000
0000
,
0000
0000
0000
0000
0000
0000
0000
0000
1000
0000
0000
1000
0010
0000
1000
0001
,
0000
0010
0000
0010
0001
0000
0100
0001
0100
1000
0000
0100
0010
0000
1000
0001
,
0000
0001
0000
0010
0001
0010
0100
0001
0100
0000
0000
0100
0010
0000
0001
1000
,
0000
0010
0000
0010
1000
0100
0010
1000
0010
0001
0000
1000
0010
0000
0010
1000
,
0010
1000
0001
0010
0100
1000
0100
0010
0001
1000
0010
0100
0001
0000
0000
0000
2010
0000
0000
0000
0000
0000
0000
0000
3001
0000
0000
0000
0021
0000
0000
0000
,
0000
0000
0130
0000
2100
0000
0000
0000
3001
0000
0010
0001
0010
0001
0010
0100
,
1000
0000
0001
0100
0001
0100
0010
1000
0001
0000
1000
0000
0010
0000
1000
0000
,
0010
0000
1000
0000
0001
0000
0010
0000
0010
0000
0001
0000
0010
0000
0100
1000
,
0001
0100
0010
1000
0001
0000
0000
0000
0012
0000
0000
0000
1003
0000
1020
0000
,
0000
0000
0130
0000
0102
0000
0000
0000
1003
0000
0100
1000
0100
1000
0100
0010
,
0001
0000
1000
0010
1000
0010
0100
0001
1000
0000
0000
0000
0001
0000
0010
0000
,
0001
0000
1000
0000
0010
0000
1000
0000
0001
1000
0010
0100
0001
1000
0001
1000
,
0100
0010
0011
0001
1001
0000
0010
0000
,
1100
0000
1000
0001
1000
0010
0010
0000
,
0101
0000
0000
0000
0100
0001
1000
0100
0010
0000
0000
0000
0100
0000
0000
0000
,
0011
0000
0001
1000
0010
1000
1000
0010
,
0100
1001
0000
0000
0101
0000
0001
0000
,
1100
0000
1000
0001
0010
1000
0010
0000
,
0011
0000
0001
0010
0100
0010
0100
1000
0002
0000
0000
0000
0000
0000
0000
0000
,
0000
0000
0000
0000
0000
1000
1000
1000
,
1003
0010
1010
1000
0200
0000
0010
0000
,
0001
0000
0010
0000
1300
0000
0010
0001
,
0010
1000
0001
0010
0200
0000
1000
0000
,
0010
0000
1300
0000
0001
0000
0100
1000
,
0100
0001
1001
1000
0020
0000
0001
0000
,
0100
0000
0001
0000
1030
0000
0100
0001
,
0100
1000
0001
0100
0010
0001
0010
1000
,
0000
0001
0010
1000
0010
0110
0000
0100
,
1000
0001
1001
1000
1010
0000
1000
0001
,
1000
0000
1100
0000
0100
0010
0001
0000
,
0011
0000
0110
0000
1001
0000
0001
0100
,
0001
0000
0011
0000
0001
0010
0100
0000
,
0110
0000
1100
0000
1000
0010
0001
0010
,
1000
0001
1000
0100
0001
0100
1000
0001
,
1000
0000
0001
0010
0001
1000
0100
0010
0200
0000
0000
0000
0000
0000
0000
0000
,
0000
0000
0320
0000
,
0000
0000
0130
0000
1001
0000
0000
0000
1000
0000
0010
0000
1010
0000
1000
0100
,
0000
0100
1000
0000
0001
0000
0001
0000
0010
0000
0100
0010
0001
0000
0100
0001
,
0000
0001
0100
0000
0010
0000
0010
0000
1000
0000
0001
0010
0100
0000
1000
0010
,
0000
0010
1000
0000
0001
0000
0001
0000
1000
0000
0010
0100
0001
0000
0010
0001
,
0000
0001
0010
0000
0100
0000
0010
0001
1000
0001
1000
0010
0100
0000
0001
0100
,
0000
0100
0001
0000
1000
0000
1000
0000
0010
0000
0100
0010
1000
0000
0100
1000
,
0000
1000
0100
0000
0010
0000
0010
0000
0001
0000
1000
0010
0100
0000
0001
0010
,
0000
0010
0001
0000
1000
0000
1000
0000
0001
0000
0010
0100
0010
0000
0001
0000
,
1000
0010
1000
0000
0100
0010
0100
0000
0001
0000
0100
1000
0001
0000
0100
0010
,
0000
0010
0100
0000
1000
0000
0100
0000
0001
0000
1000
0010
1000
0000
0001
0010
,
0000
0010
0100
0000
0001
0000
0100
0000
1000
0000
0001
0100
0001
0000
1000
0100
,
0000
0100
0010
0000
1000
0000
0010
0000
0001
0000
1000
0100
1000
0000
0001
0100
,
0000
0100
0010
0000
0001
0000
0010
0000
1000
0000
0001
1000
0010
0000
1000
0001
,
0000
0100
0001
0000
0010
0000
0100
0000
0010
0000
0001
1000
0010
0000
1000
0001
,
0000
1000
0100
0000
0010
0000
0100
0000
1000
0000
0001
0010
0100
0000
1000
0010
,
0000
1000
0001
0000
0100
0000
0010
0000
1000
0010
0100
0010
1000
0001
0010
0001
,
1000
0000
0100
0000
0010
0000
0001
0000
1000
0000
0000
0000
0001
0000
0000
0000
1MM1
0000
0000
0000
1000
0000
1000
0000
0010
0100
0010
0000
0100
0000
0100
0000
,
0101
0000
0100
0000
1010
0000
1000
0001
0011
0000
0100
0000
1001
0000
1010
0010
,
1000
0000
0000
0000
1100
0000
0000
0000
0101
0000
0001
0000
1000
0000
0001
0000
0100
0000
0001
0010
0001
0000
1000
0000
0010
1000
0010
0000
1000
0000
1000
0000
,
0001
0000
0000
0000
0110
0000
0000
0000
0011
0000
0010
0100
1000
0000
0010
0000
1010
0000
0000
0000
0100
0000
0000
0000
1001
0000
0000
0000
0101
0000
0001
0000
,
0010
0000
0110
0000
1100
0000
1000
0000
1MM1
0000
0000
0000
1100
0000
0100
0010
,
0000
0010
0001
0000
1000
0000
1000
0000
1100
0000
0000
0100
0001
0000
0100
0000
,
1000
0001
1000
0000
0010
0000
0010
0000
1010
0000
0000
0010
0001
0000
0010
0000
,
1000
0001
0010
0000
0001
0000
0001
0000
0101
0000
0000
0100
1000
0000
0100
0000
,
0001
1000
0100
0000
0010
0000
0100
0000
0110
0000
0100
1000
0001
0000
0100
0010
,
0000
0010
0100
0000
1000
0000
0100
0000
0101
0000
0001
1000
0100
0000
0010
0100
,
0000
0100
0010
0000
1000
0000
0010
0000
0011
0000
0001
1000
0100
0000
1000
0010
,
0000
0010
0100
0000
1000
0000
0100
0000
0001
0100
0010
0100
0001
1000
0010
1000
,
0100
0010
0001
1000
0010
0000
1000
0000
2002
0000
0000
0000
0000
0000
0000
0000
,
0000
0000
0000
0000
,
0000
0000
3003
0000
;

//---------------dance-single - ----------------
#NOTES:
     dance-single:
     :
     Medium:
     12:
     0.499234,0.697852,0.137720,0.060252,0.215187,406.000000,390.000000,16.000000,7.000000,0.000000,0.000000,0.499234,0.697852,0.137720,0.060252,0.215187,406.000000,390.000000,16.000000,7.000000,0.000000,0.000000:
0000
0000
0000
0000
,
0000
0000
0000
0000
,
0000
0000
0000
0000
,
0000
0000
0000
0000
,
0000
0000
0000
0000
0000
0000
0000
0000
1000
0000
0000
1000
0100
0000
1000
0001
,
0000
0100
0000
0100
0001
0000
1000
0000
0001
0000
0000
0001
0100
0000
0001
1000
,
0000
0100
0000
0100
1000
0000
0001
0000
0010
0000
0000
0010
0100
0000
0010
0001
,
0000
1000
0000
1000
0010
0000
1000
0000
0001
0000
0000
0001
1000
0000
0100
0000
,
1000
0010
0010
0010
0100
0000
1001
0000
1000
0000
0000
0000
0100
0000
0010
0000
,
0000
0001
0200
0000
0000
0301
1000
0001
,
0100
0010
1010
1000
,
0001
1000
0100
1000
0001
0000
0100
0010
,
0000
0100
0001
0000
0001
0000
1000
0010
,
0000
1000
0200
0000
0000
0310
0000
0010
,
0100
1000
1001
0001
,
0010
0100
1000
0001
0100
0000
0010
1000
,
0000
0001
0010
0000
0011
0000
0001
0000
,
1001
0000
1000
0000
0100
1000
0010
0000
,
1010
0000
1000
0001
1000
0000
0100
0000
,
0110
0000
0010
0001
0000
1000
1000
0010
,
1000
0001
0000
0000
1001
0000
1000
0000
,
0010
0000
0100
0010
0000
1000
0100
0000
,
0010
0000
0001
1000
0001
0000
0000
0000
,
0000
0000
0000
0010
0000
0010
0001
1000
,
0010
1000
0100
0010
0001
0000
0001
0000
,
1000
0000
1000
0000
0010
0000
1000
0010
,
0000
0001
0000
0010
1000
0000
1000
0000
,
0001
0000
0001
0000
1000
0000
0100
0001
,
0000
0100
0000
1000
0001
0000
0001
0000
,
1000
0000
1000
0000
0010
0000
0100
0010
,
0000
1000
0000
0000
0010
1000
0010
1000
,
0000
0001
0010
0001
0010
0001
0000
0010
,
0100
1000
0020
0100
,
0100
0000
1000
0000
1030
0000
0001
0010
,
0000
0001
0000
1000
0200
0000
0010
0000
,
0010
0000
0010
0000
1300
0000
0100
0010
,
0000
0001
0000
1000
0010
0000
0010
0000
,
0100
0000
0100
0000
0001
0010
0001
0010
,
0100
1000
0001
1000
0020
0000
0000
0000
,
0000
0000
0230
0000
,
0000
0301
1000
0000
0100
0000
1000
0001
,
0000
0001
0000
0000
1000
0000
0010
0000
1000
0000
0000
0000
0001
0000
0010
0000
,
0000
0010
0000
0000
0001
0000
1000
0000
0001
0000
0000
0000
1000
0000
0100
0000
,
0000
0100
0000
0000
1000
0000
0010
0000
1000
0000
0000
0000
0001
0000
0100
0000
,
0000
0100
0000
0000
0010
0000
1000
0000
0001
1000
0001
0000
0010
0000
0100
0000
,
0000
0100
0000
0000
1000
0000
0001
0000
1000
0000
0000
0000
0010
0000
0100
0000
,
0000
0100
0000
0000
0001
0000
0010
0000
0001
0000
0000
0000
1000
0000
0100
0000
,
0000
0100
0000
0000
1000
0000
0010
0000
1000
0000
0100
0000
0001
0000
0100
0000
,
1000
0000
0010
0000
0100
0000
0100
0000
0001
0000
0000
0001
1000
0000
0010
0000
,
0000
0010
0000
0000
1000
0000
0001
0000
0010
0000
0001
0000
1000
0000
0100
0000
,
0000
0100
0000
0000
0010
0000
0001
0000
0010
0000
0100
0000
1000
0000
0100
0000
,
0000
0100
0000
0000
1000
0000
0010
0000
1000
0000
0001
0000
0100
0000
0010
0000
,
0000
0010
0000
0000
1000
0000
0001
0000
0010
0000
0000
0010
0000
0000
0001
0000
,
0000
0001
0000
0000
1000
0000
0001
0000
1000
0000
0000
1000
0000
0000
0010
0000
,
0000
0010
0000
0000
1000
0000
0001
0000
1000
0000
0000
0100
0000
0000
0001
0000
,
0000
0100
0000
0000
1000
0000
0001
0000
1000
0000
0010
0000
0001
0000
0010
0000
,
1000
0000
0001
0000
0010
0000
0100
0000
1000
0000
0010
0010
0010
0000
0000
0000
,
0101
0000
0001
0000
1001
0000
0000
0000
1100
0000
0100
0000
0010
0000
0100
0010
,
0001
0000
1000
0000
1001
0000
0001
0000
0010
0000
0100
0100
0000
0010
0010
0001
,
1000
0000
0001
0000
1001
0000
0000
0000
0101
0000
0100
0000
0010
0000
0100
0010
,
1000
0010
0110
0100
1001
0000
0001
0010
,
0000
0001
0000
0000
1000
0000
0001
0000
1000
0000
0000
1000
0010
0000
1000
0000
,
0001
0000
1000
0000
0100
0000
0000
0000
1000
0000
0000
0001
0010
0000
0001
0000
,
1000
0000
0010
0000
0100
0000
0100
0000
0001
0000
0000
1000
0010
0000
1000
0000
,
0001
0000
1000
0000
0100
0000
0000
0000
0010
0000
0000
0010
0001
0000
0100
0000
,
0000
0100
0010
0000
1000
0000
0001
0000
1000
0000
0000
1000
0100
0000
0010
0000
,
0000
0010
0100
0000
0010
0000
0010
0000
0001
0000
0000
0001
0010
0000
0100
0000
,
0000
0100
0010
0000
0001
0000
1000
0000
0001
0000
0010
0000
1000
0000
0010
0000
,
0001
1000
0010
1000
0200
0000
0000
0000
,
0000
0000
0000
0000
,
0000
0000
0300
0000
;

//---------------dance-single - ----------------
#NOTES:
     dance-single:
     :
     Easy:
     9:
     0.363974,0.637169,0.241009,0.025822,0.000000,296.000000,268.000000,28.000000,3.000000,0.000000,0.000000,0.363974,0.637169,0.241009,0.025822,0.000000,296.000000,268.000000,28.000000,3.000000,0.000000,0.000000:
0000
0000
0000
0000
,
0000
0000
0000
0000
,
0000
0000
0000
0000
,
0000
0000
0000
0000
,
0000
0000
1000
0010
,
1000
0100
1000
0000
0001
0000
0010
0000
,
0001
0100
0001
0000
1000
0000
0010
0000
,
1000
0001
1000
0000
0100
0000
0010
0000
,
0001
0010
0100
1000
1001
0000
0000
1100
,
0000
0000
0011
0000
0000
0000
0010
0100
,
0010
0001
0001
0000
,
1000
0000
0010
1000
,
0001
0000
1000
0000
1001
0000
0000
1010
,
0000
0000
0101
0000
0000
0001
0000
0001
,
0100
0010
1000
0000
,
0001
0000
1000
0001
1000
0000
0010
0000
,
0100
0001
1001
0000
,
1000
0010
1000
0001
,
0010
0000
0001
1000
0001
0000
1000
0000
,
0100
0000
0010
0100
0000
0010
0001
0000
,
0001
1000
0000
0000
1010
0000
1000
0000
,
0010
0100
0001
1000
,
0100
0000
0010
0001
1000
0000
0000
0000
,
0000
0000
0000
0000
0000
0000
0001
1000
,
0001
1001
1000
0100
,
1000
0000
1000
0000
0001
0000
0000
0001
,
0000
0100
0001
1000
,
0001
0000
0001
0000
0010
0000
0000
0100
,
0000
0110
0100
1000
,
0100
0000
0100
0000
1000
0000
0000
0001
,
0000
0000
1000
0000
0010
0000
0000
0010
,
0000
0000
0100
0000
0000
0100
0000
0000
,
0001
1000
0010
0010
,
0010
0000
0100
0000
0001
0000
0000
0001
,
0000
1000
0100
0100
,
0100
0000
0010
0000
0100
0000
0000
1000
,
0000
0001
1000
0010
,
0001
0010
1000
0001
,
0010
0100
0010
0100
0020
0000
0000
0000
,
0000
0000
0230
0000
,
0000
0310
1001
1000
,
0000
0010
1000
0000
0001
0000
0010
0000
,
0000
0100
0010
0000
0001
0000
1000
0000
,
0000
0010
1000
0000
0001
0000
0010
0000
,
0000
0001
0100
0000
0001
1000
0001
0000
,
0000
1000
0100
0000
1000
0000
0010
0000
,
0000
0100
0010
0000
1000
0000
0001
0000
,
0000
0100
0010
0000
0100
0000
0100
0000
,
0001
0001
1000
1001
,
0000
0001
0010
0000
0100
0000
0010
0000
,
0000
0100
1000
0000
0001
0000
0100
0000
,
0000
0010
1000
0000
0001
0000
0010
0000
,
0000
0100
0010
0000
0001
0000
1000
0000
,
0010
1000
0010
0000
1000
0000
0001
0000
,
0010
0100
0010
0000
0001
0000
1000
0000
,
0100
1000
0100
0000
0010
0000
0001
0000
,
1000
0010
0100
0001
,
0010
0100
1001
0000
1000
1000
1001
0011
,
0001
0011
1001
1000
0000
0100
0100
1000
,
0010
0010
0110
0000
0001
0001
1001
1010
,
1000
1010
1001
0001
1000
0000
0010
0000
,
0000
1000
0001
0000
0010
0000
0011
0000
,
1001
1000
0100
1100
,
1010
0000
1000
0010
1000
0000
1001
0000
,
0101
0001
1000
0010
,
1000
0100
1000
0000
0010
0000
0100
0000
,
0001
1000
0001
0000
0010
0000
0001
0000
,
1000
0100
1000
0000
0010
0100
0010
0000
,
1000
0001
1000
0000
0020
0000
0000
0000
,
0000
0000
0000
0000
,
0000
0000
0030
0000
;

//---------------dance-single - ----------------
#NOTES:
     dance-single:
     :
     Beginner:
     5:
     0.245928,0.442209,0.043037,0.000000,0.000000,200.000000,195.000000,5.000000,0.000000,0.000000,0.000000,0.245928,0.442209,0.043037,0.000000,0.000000,200.000000,195.000000,5.000000,0.000000,0.000000,0.000000:
// measure 0
0000
0000
0000
0000
,  // measure 1
0000
0000
0000
0000
,  // measure 2
0000
0000
0000
0000
,  // measure 3
0000
0000
0000
0000
,  // measure 4
0000
0000
0001
0010
,  // measure 5
0001
1000
1000
0100
,  // measure 6
1000
0001
0001
0100
,  // measure 7
0001
1000
1000
0010
,  // measure 8
0100
0100
0100
0000
0001
0000
0000
0001
,  // measure 9
0000
0001
0000
0000
,  // measure 10
1000
0000
1000
0000
,  // measure 11
0100
0000
0010
0000
,  // measure 12
0100
0000
0000
0000
1000
0000
0000
1000
,  // measure 13
0000
1000
0000
0000
,  // measure 14
0010
0000
1000
0000
,  // measure 15
0001
0000
0100
0100
,  // measure 16
0100
0000
1001
0000
,  // measure 17
0001
0000
0010
0000
,  // measure 18
0100
0100
0100
0000
,  // measure 19
1000
0000
0010
0000
,  // measure 20
0110
0000
1000
1000
,  // measure 21
1000
0000
0001
0000
,  // measure 22
0010
0010
0010
0000
,  // measure 23
0000
0000
0001
0000
,  // measure 24
1000
0000
0001
0000
,  // measure 25
0100
0000
0000
0000
0010
0000
0000
0010
,  // measure 26
0000
0000
1000
0000
,  // measure 27
0100
0000
0000
0000
0010
0000
0000
0010
,  // measure 28
0000
0010
0100
0000
,  // measure 29
1000
0000
0000
0000
0001
0000
0000
0001
,  // measure 30
0000
0000
0000
0000
1000
0000
0000
1000
,  // measure 31
0000
0000
0010
0000
0000
0010
0000
0000
,  // measure 32
1000
0001
1000
1000
,  // measure 33
1000
0000
0001
0000
1000
0000
0000
1000
,  // measure 34
0000
0000
0001
0001
,  // measure 35
0001
0000
1000
0000
0001
0000
0000
0001
,  // measure 36
0000
0000
0010
0000
,  // measure 37
0100
0000
1000
1000
,  // measure 38
0001
0001
1000
0000
,  // measure 39
0000
0000
0010
0000
,  // measure 40
0000
1001
0001
0010
,  // measure 41
0000
0100
0010
0100
,  // measure 42
0000
1000
0010
1000
,  // measure 43
0000
0001
1000
0001
,  // measure 44
0000
1000
0001
1001
,  // measure 45
0000
0010
0001
0010
,  // measure 46
0000
0100
1000
0100
,  // measure 47
0000
1000
0001
1000
,  // measure 48
0010
0010
1000
0001
,  // measure 49
0000
0010
0100
0010
,  // measure 50
0000
0100
1000
0100
,  // measure 51
0000
1000
0001
1000
,  // measure 52
0010
0010
0100
0100
,  // measure 53
0000
0010
1000
1000
,  // measure 54
0000
1000
0001
0001
,  // measure 55
0000
0010
0001
1000
,  // measure 56
0001
0100
0001
1001
,  // measure 57
1000
1000
1000
0000
0100
0100
0100
0100
,  // measure 58
0010
0010
0010
0010
0000
0001
0001
0001
,  // measure 59
1000
1000
1000
0000
0010
0010
0010
0010
,  // measure 60
0100
0100
0100
0000
0001
0000
0000
0000
,  // measure 61
1000
0000
0010
0010
,  // measure 62
0010
0000
1000
1000
,  // measure 63
1000
0001
0010
0010
,  // measure 64
0010
0000
0100
0000
,  // measure 65
1000
0100
0010
0000
,  // measure 66
0001
1000
0001
0000
,  // measure 67
1000
0010
1000
0001
,  // measure 68
0010
0001
1000
0000
;
