#TITLE:Illusionary Waterlily;
#ARTIST:DJ Noriken;
#BANNER:Illusionary Waterlily.png;
#BACKGROUND:Illusionary Waterlily-bg.png;
#JACKET:Illusionary Waterlily-jacket.png;
#CDTITLE:./CDTITLES/BEATMANIA IIDX.PNG;
#MUSIC:Illusionary Waterlily.ogg;
#SAMPLESTART:96;
#SAMPLELENGTH:15;
#BPMS:0=180;

//---------------dance-single - t7r----------------
#NOTES:
     dance-single:
     t7r:
     Beginner:
     5:
     :
0000
0000
0000
0000
,
0000
0000
0000
0000
,
0000
0000
0000
0000
,
0000
0000
0000
0000
,
0000
0000
0000
0000
,
0000
0000
0000
0000
,
0000
0000
0000
0000
,
0000
0000
0000
0000
,
0000
0000
0000
0000
,
1000
0000
0000
0000
,
0001
0000
0000
0000
,
0100
0000
0000
0000
,
0010
0000
0000
0000
,
1000
0000
1000
0000
,
0100
0000
0100
0000
,
0010
0000
0010
0000
,
0001
0000
0000
0000
,
0100
0000
0000
0000
,
0100
0000
0000
0000
,
0010
0000
0000
0000
,
0010
0000
0000
0000
,
1000
0000
1000
0000
,
0001
0000
0001
0000
,
0100
0100
0100
0100
,
0100
0000
0000
0000
,
0010
0000
0010
0000
,
0010
0000
0010
0000
,
1000
0000
1000
0000
,
1000
0000
1000
0000
,
0001
0000
0001
0000
,
0001
0000
0001
0000
,
0010
0000
0000
0000
,
0010
0000
0000
0000
,
0000
0001
0001
0000
,
0001
0000
0001
0000
,
0000
1000
1000
0000
,
1000
0000
1000
0000
,
0000
0010
0010
0000
,
0010
0000
0010
0000
,
0100
0000
0000
0000
,
0001
0000
0000
0000
,
1000
0000
1000
0000
,
0100
0000
0100
0000
,
0010
0000
0010
0000
,
0001
0000
0001
0000
,
0100
0000
0100
0000
,
0010
0000
0010
0000
,
1000
0000
0001
0000
,
0100
0000
0010
0000
,
1001
0000
0000
0000
,
1000
0000
0000
0000
,
0001
0000
0000
0000
,
0100
0000
0000
0000
,
0010
0000
0000
0000
,
1000
0000
0000
0000
,
0001
0000
0000
0000
,
0010
0000
0000
0000
,
0001
0000
0001
0000
,
0001
0001
0001
0000
,
1000
0000
1000
0000
,
1000
1000
1000
0000
,
0010
0000
0010
0000
,
0010
0010
0010
0000
,
0100
0000
0100
0000
,
0100
0000
0000
0000
,
0010
0000
0000
0000
,
0010
0000
0000
0000
,
1000
0000
0000
0000
,
1000
0000
0000
0000
,
0100
0000
0100
0000
,
0010
0000
0010
0000
,
0001
0001
0001
0001
,
0001
0000
0000
0000
,
0100
0000
0100
0000
,
0010
0000
0010
0000
,
1000
0000
1000
0000
,
0001
0000
0001
0000
,
0010
0000
0010
0000
,
0001
0000
0001
0000
,
1000
0000
1000
0000
,
0010
0000
0000
0000
,
0000
0000
0100
0100
,
0000
0000
0010
0010
,
0000
0000
1000
1000
,
0000
0000
0001
0001
,
0001
0000
0010
0000
,
0100
0000
1000
0000
,
0010
0010
0010
0000
,
1001
0000
0000
0000
,
0110
0000
0000
0000
;

//---------------dance-single - t7r----------------
#NOTES:
     dance-single:
     t7r:
     Easy:
     11:
     :
0000
0000
0000
0000
,
0000
0000
0000
0000
,
0000
0000
0000
0000
,
0000
0000
0000
0000
,
0000
0000
0000
0000
,
0000
0000
0000
0000
,
0000
0000
0000
0000
,
0000
0000
0000
0000
,
0000
0000
0000
0000
,
0001
0010
0100
1000
,
0010
0000
0100
0000
0001
1000
0001
0000
,
1000
0100
0100
0010
,
0010
0000
0001
0000
0100
0001
0100
0000
,
0001
0000
1000
0001
0100
0000
0001
1000
,
0100
0000
1000
0001
0010
0000
0001
1000
,
0001
0000
1001
0000
0100
0010
0100
0010
,
0200
0000
0000
0310
,
1001
1000
1100
1100
,
1000
0000
0001
0000
1000
0100
1000
0000
,
1001
0001
0101
0101
,
0001
0000
1000
0000
0001
0100
0001
0100
,
0001
0110
1000
0110
,
0001
1100
1000
0101
,
1000
0010
0100
0000
0001
0010
0100
0000
,
2000
0000
3010
0110
,
0020
0000
0000
0000
0000
0000
0000
0000
1030
0000
0000
1000
0000
0000
0001
0000
,
1000
0000
0000
1000
0000
0000
0001
0000
1000
0000
0000
1000
0000
0000
0010
0000
,
0200
0000
0000
0000
0302
0000
0000
0000
0013
0000
0000
0010
0000
0000
0100
0000
,
0010
0000
0000
0010
0000
0000
0010
0000
0100
0000
0000
0100
0000
0000
0100
0000
,
2000
0000
0000
0000
3002
0000
0000
0000
1003
0000
0000
1000
0000
0000
0001
0000
,
1000
0000
0000
1000
0000
0000
0010
0000
0100
0000
0000
0100
0000
0000
0010
0000
,
0100
0001
1000
0010
,
1000
0100
0010
1001
,
2000
0000
0000
0000
3100
0000
0000
0000
1100
0000
0000
1000
0000
0000
1000
0000
,
0100
0000
0000
0100
0000
0000
0100
0000
0010
0000
0000
0010
0000
0000
0010
0000
,
0002
0000
0000
0000
2003
0000
0000
0000
3001
0000
0000
0001
0000
0000
0001
0000
,
0100
0000
0000
0100
0000
0000
0100
0000
0010
0000
0000
0000
0000
0000
0000
0000
,
1001
0000
0000
0000
0201
0000
0000
0000
0310
0000
0000
0010
0000
0000
0010
0000
,
1000
0000
0000
1000
0000
0000
1000
0000
0001
0000
0000
0001
0000
0000
0001
0000
,
0010
0001
0100
0010
,
1000
0000
0100
0000
0010
0100
0010
0000
,
1001
0000
1000
0000
0001
0000
0010
0001
,
1000
0000
0010
0000
0100
0000
0010
1000
,
0001
0000
0010
0000
0100
0000
0010
0001
,
1000
0010
0100
0010
,
1001
0000
0001
0000
0010
0000
0100
1000
,
0001
0000
1000
0000
0010
0000
0100
0001
,
1000
0000
0100
0000
0010
0000
0100
1000
,
0001
0110
1000
0110
,
2002
0000
0000
0000
,
0000
0000
0000
3003
,
2000
0000
0000
0000
,
0000
0000
0000
3000
,
0020
0000
0000
0000
,
0000
0000
0000
0030
,
0200
0000
0000
0300
,
0002
0000
0003
1001
,
1000
0100
0010
0100
,
0002
0103
0010
0100
,
1000
0010
0100
0010
,
0002
0013
1000
0001
,
1000
0000
0100
0010
0100
0000
0001
0000
,
0200
0000
1300
0000
0010
0100
0010
0000
,
0001
0000
0010
0100
0010
0000
1000
0001
,
0020
0000
0130
0000
1000
1000
0001
0000
,
1100
0000
0100
0000
1000
0000
0001
1000
,
0010
0000
0100
0000
0001
0010
0001
1000
,
0001
0000
1000
0000
0010
0000
0010
0100
,
0001
0000
0010
0000
0100
1000
0001
0000
,
1000
0000
0010
1000
0010
0000
1000
0001
,
1000
0000
0001
0010
0001
0000
1000
0001
,
1000
0000
0010
0100
0010
0100
0010
0100
,
0020
0000
0130
0000
,
0001
0000
0010
0000
0100
0010
0001
0010
,
0001
0000
1000
0000
0010
0100
0001
0100
,
0001
0000
1000
0100
1000
0000
0001
0100
,
0001
0000
0010
0000
0100
1000
0001
0000
,
1000
0000
0010
0000
0100
0010
1000
0010
,
1000
0000
0001
0000
0010
0100
1000
0100
,
1000
0000
0001
1000
0100
0000
1000
0001
,
0010
0000
0001
0000
0100
0010
0100
0000
,
0010
0000
1000
0100
0010
0000
0001
0100
,
0010
0000
0001
0010
1000
0000
0001
0010
,
0100
0000
0010
0001
0010
0000
1000
0010
,
1000
0000
0010
0100
0100
0000
1000
0000
,
0001
0100
0001
0100
0010
0000
1001
0000
,
1000
0100
1000
0100
0010
0000
1001
0000
,
0001
0100
0001
0100
0010
1000
0001
1000
,
0200
0000
0310
1001
,
0220
0000
0000
0000
,
0000
0000
0000
0000
,
0330
0000
0000
0000
;

//---------------dance-single - t7r----------------
#NOTES:
     dance-single:
     t7r:
     Medium:
     14:
     :
0000
0000
0000
0000
,
0000
0000
0000
0000
,
0000
0000
0000
0000
,
0000
0000
0000
0000
,
0000
0000
0000
0000
,
0000
0000
0000
0000
,
0000
0000
0000
0000
,
0000
0000
0000
0000
,
0000
0000
0000
0000
,
0010
0000
1000
0100
0010
0000
0001
0100
,
0010
0000
1000
0001
0010
0001
1000
0001
,
0100
0000
0010
0100
0100
0000
0001
1000
,
0010
0000
1000
0100
0010
0100
1000
0001
,
0100
0001
0100
0010
0100
0000
0110
0000
,
1000
0100
0010
0100
1000
0000
1001
0000
,
1000
0010
1000
1000
0001
0010
0001
0001
,
0200
0000
0000
0000
0000
0000
0000
0000
0310
0100
0010
0000
1000
0000
0000
0000
,
0001
0000
0010
0001
0000
0000
0100
0000
0010
0000
0000
0000
0110
0000
0000
0000
,
1000
0000
0010
1000
0000
0000
0100
0000
0010
0000
0010
0000
0010
0000
0000
0000
,
1001
0000
0001
0100
0000
0000
0010
0000
0100
0000
0000
0000
0110
0000
0000
0000
,
1000
0000
0100
0010
0000
0000
0100
0000
1000
0000
1000
0000
1000
0000
0000
0000
,
0001
0000
0100
0001
0100
0000
0000
0000
0001
0000
1000
0001
1000
0000
0000
0000
,
0100
0000
1000
0100
1000
0000
0000
0000
0010
0000
0100
0010
0100
0000
0000
0000
,
0001
0000
0010
0001
0010
0000
0001
0000
1000
0000
0010
1000
0010
0000
1000
0000
,
0002
0103
1000
0110
,
0002
0000
0000
0000
0000
0000
0000
0000
0013
0000
0000
0011
0000
0000
0010
0000
,
0001
0000
0000
0011
0000
0000
0001
0000
0010
0000
0000
0110
0000
0000
1000
0000
,
0002
0000
0000
0000
2003
0000
0000
0000
3010
0000
0000
1010
0000
0000
0010
0000
,
1000
0000
0000
1010
0000
0000
1000
0000
0010
0000
0000
0110
0000
0000
0100
0000
,
0002
0000
0000
0000
2003
0000
0000
0000
3100
0000
0000
1100
0000
0000
1000
0000
,
0100
0000
0000
0110
0000
0000
0010
0000
0001
0000
0000
0011
0000
0000
0001
0000
,
1000
0010
0100
0010
1000
0001
0100
0000
,
0001
0000
0010
0000
0100
0000
1000
0000
0010
0100
0000
0100
0010
0000
0000
0000
,
2000
0000
0000
0001
0000
0000
3001
0000
1000
0000
0000
1001
0000
0000
0001
0000
,
0100
0000
0000
0101
0000
0000
0001
0000
1000
0000
0000
1001
0000
0000
1000
0000
,
0002
0000
0000
0000
2003
0000
0000
0000
3010
0000
0000
0110
0000
0000
0100
0000
,
0010
0000
0000
0110
0000
0000
0100
0000
0001
0000
0000
0001
0000
0000
0001
0000
,
1000
0000
0000
0000
1001
0000
0001
0000
0101
0000
0000
0101
0000
0000
1000
0000
,
1100
0000
0000
1100
0000
0000
0001
0000
0011
0000
0000
0011
0000
0000
0001
0000
,
1000
0000
0010
0000
0100
0000
0010
1000
0010
0000
1000
0000
0001
0000
0000
0000
,
2000
0000
0000
0000
0000
0000
0000
0000
3100
0010
0100
0000
1000
0000
0000
0000
,
0001
0000
0100
0000
0000
0001
0000
0000
0010
0000
0000
0001
0000
0000
1000
0001
,
0000
0000
0100
0000
0000
0010
0000
0000
0100
0000
0000
0001
0000
0000
0010
0100
,
0000
0000
0010
0000
0000
1000
0000
0000
0010
0000
0000
0001
0000
0100
0010
0000
,
0000
0000
0100
0000
0000
0001
0000
0000
0100
0000
0000
1000
0000
0100
0010
0000
,
0100
0000
0001
0000
0000
0010
0000
0000
0100
0000
0000
1000
0000
0000
0010
0100
,
0010
0000
1000
0000
0000
0001
0000
0000
0100
0000
0000
0010
0000
0000
1000
0100
,
1000
0000
0001
0000
0000
0010
0000
0000
1000
0000
0000
0010
0000
0000
0001
1000
,
0001
0000
0000
0000
0110
0000
0000
0000
1000
0000
0100
0010
0100
0000
0000
0000
,
2002
0000
0000
0000
,
0000
0000
0000
3003
,
2000
0000
0000
0000
,
0000
0000
0000
3000
,
0020
0000
0000
0000
,
0000
0000
0000
0030
,
0200
0000
0000
0300
,
0002
0000
1003
1001
,
0002
0000
0103
0010
0100
1000
0100
0010
,
0200
0000
0000
0000
0301
0000
0010
0000
0001
0000
1000
0000
0001
0100
0001
0000
,
2000
0000
0000
0000
3100
0010
0100
0000
0020
0000
0000
0000
0031
1000
0001
0000
,
0200
0000
0000
0000
0310
0100
0010
0000
1000
0000
0100
0000
0010
0000
0001
0000
,
2000
0000
3010
0100
0010
0001
0010
0100
,
0020
0000
0000
0000
1030
0000
0100
0000
1000
0000
0001
0000
1000
0010
1000
0000
,
0002
0000
0000
0000
0013
0100
0010
0000
0200
0000
0000
0000
1300
0001
1000
0000
,
0020
0000
0000
0000
0130
0000
0000
0000
0001
1000
0001
0000
1001
0000
0000
0000
,
1000
0000
0100
0010
0000
0100
1000
0000
0001
0000
0000
0000
1000
0000
0001
0100
,
0001
0000
0100
0010
0000
0100
0001
0000
0100
0000
0100
0000
0100
0000
0001
1000
,
0001
0000
0010
0100
0000
0010
0001
0000
1000
0000
0000
0000
0001
0000
1000
0100
,
1000
0000
0010
0100
0000
0010
1000
0000
0001
0000
0001
0000
0001
0000
0010
0100
,
0010
0000
0001
0100
0001
0000
0000
0000
1000
0000
0100
1000
0100
0000
0000
0000
,
1000
0000
0010
1000
0010
0000
0000
0000
1000
0000
0001
0010
0001
0000
0000
0000
,
0100
0000
0010
1000
0010
0000
1000
0000
0001
0000
0010
0001
0010
0000
0001
0000
,
2000
0000
0000
0000
0000
0000
0000
0000
3010
0000
0100
0010
0000
0010
0000
0000
,
1000
0000
0100
0010
0000
0100
1000
0000
0001
0000
0100
0000
0010
0000
0100
0000
,
0001
0000
0010
0000
0000
0100
0010
0000
0001
0000
0100
0000
1000
0000
0100
0000
,
0010
0000
0100
0000
0001
0100
0001
0000
1000
0000
0000
0000
0001
0010
0001
0000
,
0010
0000
0000
0100
1000
0000
0010
0000
0100
0000
0001
0000
1000
0100
1000
0000
,
0100
0000
0001
0000
0000
0100
0010
0000
0001
0000
0100
0000
0010
0000
1000
0000
,
0001
0000
0010
0000
0000
0100
0010
0000
1000
0000
0010
0000
0100
0000
0010
0000
,
0001
0000
1000
0000
0010
0100
0010
0000
1000
0000
0000
0001
0010
0000
0001
1000
,
0001
0000
0110
0000
1000
0100
1001
0000
,
1000
0100
0010
0100
0001
0000
1100
0000
,
0001
0000
0010
0000
0100
0000
0010
0000
1000
0000
0010
0000
0001
0000
1000
0001
,
1000
0000
0010
0000
0100
0000
0010
0000
0001
0000
0000
0010
0100
0000
0010
0000
,
1000
0000
0000
0100
0010
0000
0100
0000
0001
0000
0100
0000
0110
0000
0000
0000
,
0001
0000
0100
0001
0100
0000
0001
0000
1000
0000
0100
1000
0100
0000
1000
0000
,
0001
0000
0010
0001
0010
0000
0001
0000
1000
0000
0010
1000
0010
0000
1000
0000
,
0001
0100
0001
0100
0001
0100
0001
0000
1000
0100
1000
0100
1000
0100
1000
0000
,
2001
0000
0000
0000
3010
0000
0000
0000
0100
0010
0100
0000
0001
0000
0000
0000
,
2002
0000
0000
0000
,
0000
0000
0000
0000
,
3003
0000
0000
0000
;

//---------------dance-single - t7r----------------
#NOTES:
     dance-single:
     t7r:
     Hard:
     17:
     :
0000
0000
0000
0000
,
0000
0000
0000
0000
,
0000
0000
0000
0000
,
0000
0000
0000
0000
,
0000
0000
0000
0000
,
0000
0000
0000
0000
,
0000
0000
0000
0000
,
0000
0000
0000
0000
,
0000
0000
0000
0000
,
1000
0000
0100
0010
0100
0000
1000
0010
1000
0000
0001
0000
0100
0010
0100
0001
,
1000
0000
0001
0000
1000
0100
0010
0000
0001
0100
0010
1000
0001
0000
0010
0000
,
0001
0000
0100
0000
0010
0100
0001
0000
0001
0000
0010
0000
0100
0010
0001
1000
,
0010
0000
0100
0001
0100
0000
0001
0000
1000
0001
0100
0000
0001
1000
0001
0000
,
1000
0000
0100
0010
0001
1000
0010
0000
0100
0000
0001
1000
0010
0100
0001
0000
,
0010
0000
0100
1000
0001
0100
0010
0000
1000
0000
0001
0010
0100
1000
0001
0000
,
1000
0000
0010
1000
0010
0100
0001
0000
0001
0000
0010
0100
1000
0100
0010
0000
,
0002
0000
0000
0000
2003
0000
0000
0000
3100
0100
0001
0000
1100
0000
0000
0000
,
1000
0000
0010
0100
0000
0010
1000
0001
0010
0000
0001
0000
1000
0000
0001
0100
,
0001
0000
0010
0100
0000
0010
0001
1000
0010
0000
1000
0000
0001
1000
0100
0000
,
1000
0000
0001
0010
0000
0001
1000
0100
0010
0000
0100
0000
1000
0000
1000
0001
,
1000
0000
0001
0100
0001
0000
1000
0100
0010
0000
0001
0000
1000
0001
1000
0000
,
0001
0100
0001
0100
0001
0100
0010
0000
1000
0100
1000
0100
1000
0100
0010
0000
,
0001
1000
0001
1000
0001
1000
0010
0000
1000
0001
1000
0001
1000
0001
0010
0000
,
0001
0100
0001
0100
0001
0100
0010
1000
0001
0010
0001
0010
0001
0010
0100
1000
,
0002
0000
0000
0000
0023
0000
0000
0000
0031
0000
0100
0100
1000
0000
0000
0000
,
0210
0000
0000
0000
0000
0000
0000
0000
0310
0000
0100
0001
0000
0100
1000
0000
,
0100
0000
0010
0100
0000
0001
0100
0000
0010
0000
0100
1000
0000
0100
0010
0000
,
0200
0000
0320
0000
2030
0000
3002
0000
1003
0000
0100
0010
0000
0100
0001
0000
,
0100
0000
0010
0100
0000
0010
1000
0000
0010
0000
0100
1000
0000
0001
0100
0010
,
2000
0000
3000
0000
1001
0000
0001
0000
0100
0000
0010
0100
0000
1000
0100
0000
,
0010
0000
0100
0001
0000
0100
0010
0000
1000
0000
0100
0001
0000
0100
0010
0000
,
0100
0000
0001
0100
0001
0000
0100
0000
1000
0010
0100
0001
1000
0000
0001
1000
,
0001
0000
0100
0010
0100
0000
1000
0100
0010
0100
0000
0100
0002
0000
0003
0000
,
2001
0000
0000
0001
0000
0000
3001
0000
1001
0000
0000
1100
0000
0000
1010
0000
,
1010
0000
0010
0100
0000
0001
0100
0000
0101
0000
0001
0010
0000
0001
1000
0000
,
2001
0000
3100
0010
0100
1000
0010
0000
0110
0000
0000
0101
0000
0000
0101
0000
,
0011
0000
0001
1000
0000
0001
0100
0000
0010
0000
0100
0100
0000
0010
0100
0010
,
0100
0000
0000
0000
1001
0000
0010
0000
1100
0000
0100
0010
0000
1000
0010
0000
,
0011
0000
0010
0100
0000
0001
0100
0000
1100
0000
1000
0010
0000
0001
0010
0000
,
0100
0000
1000
0100
0010
0000
1000
0100
0010
0001
0100
0010
1000
0000
0001
1000
,
0001
0010
0100
1000
0100
0010
0001
0100
0001
1000
0001
1000
0002
0000
0000
0000
,
1003
0000
0010
0000
1000
0100
0000
0010
0001
0000
1000
0100
0000
1000
0001
0010
,
0000
0001
1000
0000
0001
0100
0000
0010
1000
0000
0001
0010
0000
0001
1000
0010
,
0000
0100
0010
0000
0100
0001
0000
0100
1000
0000
0100
0010
0000
0100
0000
0100
,
0001
0010
0100
0000
0010
1000
0000
0010
0001
0000
1000
0010
0000
0100
0000
0010
,
1000
0010
0100
0000
1000
0100
0000
0010
0100
0000
0001
0100
0000
0010
0100
0001
,
0000
0010
0100
0000
0001
0100
0000
0010
0100
0000
1000
0100
0000
1000
0001
0100
,
0000
0001
0010
0000
0100
1000
0000
1000
0010
0000
0100
0001
0000
0001
0000
0010
,
0001
0100
0010
0000
1002
0000
0000
0000
1003
0000
0100
0100
0001
0000
0000
0000
,
0220
0000
0000
0000
,
0000
0000
0000
0330
,
2000
0000
0000
0000
,
0000
0000
0000
3000
,
0002
0000
0000
0010
0000
0000
0100
0000
,
2003
0000
0000
3001
0010
0001
1000
0100
,
0020
0000
0000
1000
0000
0000
0130
0000
,
2001
0000
0000
0000
0000
0000
0000
0000
3100
0100
0001
0000
1100
0000
0000
0000
,
1000
0000
0100
0000
0010
0100
0001
0100
0020
0000
0031
0000
0100
0010
1000
0001
,
0020
0000
0031
0000
0100
0010
0100
0000
1000
0100
0010
0100
0000
0100
0002
0000
,
2003
0000
3010
0000
0100
1000
0100
1000
0200
0000
0301
0000
0010
0001
0010
0100
,
0020
0000
0031
0000
1000
0010
0200
0000
0301
0000
0010
0001
0100
0010
1000
0000
,
0001
0000
0010
0000
0100
0010
1000
0010
0200
0000
1300
0000
0010
0100
0001
1000
,
0200
0000
1300
0000
0010
0100
0010
0000
0001
0010
0100
0010
0000
0010
2000
0000
,
3002
0000
0103
0000
0010
0001
0010
0001
0020
0000
1030
0000
0100
1000
0100
0010
,
0200
0000
0000
0000
0302
0000
0000
0000
0103
0100
1000
0000
0101
0000
0000
0000
,
1000
0000
0100
0010
0000
0100
1000
0010
0100
0000
0000
0000
0001
0000
0001
1000
,
0001
0000
0010
0100
0000
0010
0001
1000
0010
0000
0010
0000
1000
0001
1000
0000
,
1001
0000
0001
0000
0010
0100
1000
0000
1000
0000
0010
0000
0100
0001
1000
0010
,
1000
0000
0001
0000
0010
0000
0001
1000
0001
0000
1000
0000
0010
0100
0010
0000
,
1000
0100
1000
0100
1000
0100
0010
0000
0001
0100
0001
0100
0001
0100
0010
0000
,
1000
0010
1000
0010
1000
0010
0100
0000
0001
0010
0001
0010
0001
0010
0100
0000
,
1000
0010
0100
0001
0100
0010
1000
0100
0010
0001
0010
0100
1000
0001
1000
0001
,
0020
0000
0000
0000
0000
0000
0000
0000
0130
0000
0100
0100
0000
0100
0000
0000
,
1001
0000
1000
0000
0001
0100
0010
0100
0001
0000
0010
0000
0001
0010
0100
0010
,
0001
0000
0100
0000
0010
1000
0001
0000
0010
0001
1000
0001
0010
0100
1000
0100
,
0010
0000
0100
0000
0001
0100
0010
0000
0010
0000
0001
0000
0100
0010
1000
0001
,
0010
0000
0001
0100
0001
0000
1000
0000
0100
0000
1000
0000
0010
0100
0010
0000
,
1001
0000
0001
0010
0000
0100
0010
0001
1000
0000
0010
0000
0100
0010
1000
0001
,
1000
0000
0100
0000
0010
0100
1000
0000
0010
0100
1000
0100
0000
0100
0010
0100
,
0001
0000
0010
0000
1000
0010
0100
0000
0100
0000
1000
0000
0001
0100
0010
1000
,
0010
0000
0100
0000
1000
0100
1000
0000
0100
0001
0100
0001
1000
0000
0100
0100
,
0001
0000
0000
0000
0110
0000
1000
0001
0100
0000
0001
0000
1000
0100
0010
0001
,
1000
0000
0001
0010
0001
0000
0010
0000
1000
0000
0010
0000
0100
0010
0001
1000
,
0010
0000
0100
0000
0010
0001
0010
0001
0010
0000
1000
0000
0001
0010
0100
0000
,
0100
0000
0001
0100
0010
0000
0001
0000
1000
0000
0100
0000
0011
0000
1000
0001
,
1000
0100
0010
0100
1000
0001
0100
0000
0001
0100
0010
0100
0001
1000
0100
0000
,
1000
0010
0100
0010
1000
0001
0010
0000
0001
0010
0100
0010
0001
1000
0010
0000
,
1000
0100
0010
0100
1000
0001
0100
0010
0100
0001
1000
0010
0100
0010
1000
0001
,
0020
0000
0000
0000
0032
0000
0000
0000
0103
0100
1000
0000
0110
0000
0000
0000
,
2002
0000
0000
0000
,
0000
0000
0000
0000
,
3003
0000
0000
0000
;
