#VERSION:0.83;
#TITLE:I'm Leaving;
#SUBTITLE:;
#ARTIST:Joy;
#TITLETRANSLIT:;
#SUBTITLETRANSLIT:;
#ARTISTTRANSLIT:;
#GENRE:;
#ORIGIN:;
#CREDIT:Nezemarth;
#BANNER:I'm Leaving.png;
#BACKGROUND:I'm Leaving-bg.png;
#PREVIEWVID:;
#JACKET:I'm Leaving-jacket.png;
#CDIMAGE:;
#DISCIMAGE:;
#LYRICSPATH:;
#CDTITLE:;
#MUSIC:I'm Leaving.ogg;
#OFFSET:-0.028000;
#SAMPLESTART:46.667999;
#SAMPLELENGTH:12.000000;
#SELECTABLE:YES;
#BPMS:0.000=122.200,
96.000=122.020;
#STOPS:;
#DELAYS:;
#WARPS:;
#TIMESIGNATURES:0.000=4=4;
#TICKCOUNTS:0.000=4;
#COMBOS:0.000=1;
#SPEEDS:0.000=1.000=0.000=0;
#SCROLLS:0.000=1.000;
#FAKES:;
#LABELS:0.000=Song Start;
#BGCHANGES:;
#KEYSOUNDS:;
#ATTACKS:
;

//---------------dance-single - ----------------
#NOTEDATA:;
#CHARTNAME:;
#STEPSTYPE:dance-single;
#DESCRIPTION:;
#CHARTSTYLE:;
#DIFFICULTY:Hard;
#METER:12;
#RADARVALUES:0.476885,0.566588,0.221206,0.010055,0.417274,332.000000,310.000000,22.000000,1.000000,0.000000,0.000000,0.000000,0.000000,0.000000,0.476885,0.566588,0.221206,0.010055,0.417274,332.000000,310.000000,22.000000,1.000000,0.000000,0.000000,0.000000,0.000000,0.000000;
#CREDIT:Nezemarth;
#NOTES:
0000
0000
0000
0000
,
0000
0000
0000
0000
,
0000
0000
0000
0000
,
0000
0000
0000
0000
,
0010
0000
0000
0000
1001
0000
0000
0001
0000
0001
0000
0000
0100
0000
0000
0000
,
0010
0000
0000
0000
1001
0000
0000
1000
0000
1000
0000
0000
0100
0000
0000
0000
,
0010
0000
0000
0000
1001
0000
0000
0001
0000
0001
0000
0000
0100
0000
0000
0000
,
0010
0000
0000
0000
1001
0000
0000
1000
0000
0000
1000
0000
0100
0010
0000
0001
,
1000
0000
0000
0000
1010
0000
0000
0010
0000
0100
0000
0000
0001
0000
1000
0000
,
0100
0000
0001
0000
0010
0000
1000
0100
,
0010
0000
0000
0000
0011
0000
0000
0001
0000
0100
0000
0000
0010
0000
0010
0000
,
0100
0000
0000
0000
0001
0000
0000
0010
0000
0010
0000
0000
0100
0000
0001
0000
,
0100
0000
1000
0000
0001
0000
0000
0100
0000
0010
0000
0000
1000
0000
0010
0000
,
0001
0000
0100
0000
1000
0000
0010
0100
,
0001
0000
0000
0000
0011
0000
0000
0010
0000
0100
0000
0000
1000
0000
0000
0000
,
0100
0000
0000
0000
0010
0000
0000
0001
0000
0001
0000
0000
0100
0000
0010
0000
,
0001
0010
1000
0001
0010
1000
0010
0100
,
1000
0000
0000
0000
0010
0000
0000
0100
0000
0000
0100
0000
0000
0000
0100
0000
,
0001
0010
1000
0010
0100
1000
0010
0100
,
1000
0000
0000
0000
1000
0000
0000
0100
0000
0000
0100
0000
0000
0000
0001
0000
,
0010
1000
0010
0100
1000
0010
0100
1000
,
0100
0000
0000
0000
0100
0000
0000
0010
0000
0000
0010
0000
0000
0000
1000
0000
,
0100
0000
0001
0000
1000
0000
0010
0001
0000
0000
0100
0000
0000
0000
0100
0000
,
1000
0000
0100
0000
0001
0000
0010
0000
0000
0100
0000
0100
1000
0000
0001
0000
,
1001
0000
1000
0000
0010
0000
0100
0000
0001
0000
0010
0100
0000
1000
0100
0000
,
0010
0000
0010
0000
0001
0000
1000
0000
1001
0000
1001
0000
0000
0100
0000
0000
,
1001
0000
0001
0000
0010
0000
0100
0000
1000
0000
0010
0100
0000
0010
1000
0000
,
0001
0000
0001
0000
0010
0000
0100
0000
1001
0000
1001
0000
0000
0010
0000
0000
,
1001
0000
0001
0000
0010
0000
0100
0000
1000
0000
0010
0100
0000
0001
0100
0000
,
0010
0000
0010
0000
1000
0000
0001
0000
0110
0000
0110
0000
0000
0001
0000
0000
,
1001
0000
1000
0000
0010
0000
0100
0000
0001
0000
0010
0100
0000
1000
0100
0000
,
0010
0000
0001
0000
0100
0000
0010
0000
1000
0001
1000
0001
0010
0100
0010
0100
,
1000
0000
0001
0000
0100
0000
0000
0010
0000
0010
0000
0100
0001
1000
0000
0000
,
0100
0000
0010
0000
0001
0000
0000
1000
0000
1000
0000
0010
0100
0001
0000
0000
,
0010
0000
0100
0000
1000
0000
0000
0001
0000
0001
0000
0100
0010
1000
0000
0000
,
0100
0000
0010
0000
0001
0000
0000
1000
0000
1000
0000
0010
0100
0001
0100
0000
,
0001
0000
0010
0000
1000
0000
0000
0010
0000
0010
0000
0001
0100
0010
0000
0000
,
0001
0000
0010
0000
1000
0000
0000
0100
0000
0100
0000
0010
0001
0100
0000
0000
,
1000
0000
0100
0000
0001
0000
0000
0010
0000
0010
0000
0100
0010
0001
0000
0000
,
0001
0010
0001
0000
1000
0010
1000
0000
0001
0100
0001
0000
1000
0100
1000
0000
,
1001
0000
0000
0000
1000
0000
0000
0100
0000
0100
0000
0000
0010
0000
0000
0000
,
0001
0000
1001
1000
0010
0100
0001
0010
,
0100
0000
0000
0000
1001
0000
0000
0001
0000
0001
0000
0000
0100
0000
0000
0000
,
0010
1000
0100
0001
0100
1000
0100
0010
,
0001
0000
0000
0000
1001
0000
0000
1000
0000
1000
0000
0000
0010
0000
0000
0000
,
0100
0000
0000
0000
1001
0000
0000
0001
0000
0001
0000
0000
0010
0000
0000
0000
,
0100
1000
0010
0001
0000
0010
0001
0100
,
0000
0000
0001
0000
0100
0000
1000
0000
0000
0000
0010
0000
0000
1000
0000
0000
,
0100
0001
0000
0020
0000
0000
0000
0000
,
0030
0000
0000
0000
;

//---------------dance-single - ----------------
#NOTEDATA:;
#CHARTNAME:;
#STEPSTYPE:dance-single;
#DESCRIPTION:;
#CHARTSTYLE:;
#DIFFICULTY:Medium;
#METER:10;
#RADARVALUES:0.406501,0.394148,0.180986,0.080438,0.211151,283.000000,265.000000,18.000000,8.000000,0.000000,0.000000,0.000000,0.000000,0.000000,0.406501,0.394148,0.180986,0.080438,0.211151,283.000000,265.000000,18.000000,8.000000,0.000000,0.000000,0.000000,0.000000,0.000000;
#CREDIT:Nezemarth;
#NOTES:
0000
0000
0000
0000
,
0000
0000
0000
0000
,
0000
0000
0000
0000
,
0000
0000
0000
0000
,
0010
0000
0000
0000
1001
0000
0000
0001
0000
0001
0000
0000
0100
0000
0000
0000
,
0010
0000
0000
0000
1001
0000
0000
1000
0000
1000
0000
0000
0100
0000
0000
0000
,
0010
0000
0000
0000
1001
0000
0000
0001
0000
0001
0000
0000
0100
0000
0000
0000
,
0010
0000
0000
0000
1001
0000
0000
1000
0000
1000
0000
0000
0100
0000
0010
0000
,
0001
0000
0000
0000
1001
0000
0000
1000
0000
1000
0000
0000
0001
0000
0100
0000
,
1000
0000
0010
0000
0001
0000
0100
0001
,
0010
0000
0000
0000
1001
0000
0000
0001
0000
0001
0000
0000
0010
0000
0000
0000
,
0100
0000
0000
0000
1001
0000
0000
1000
0000
1000
0000
0000
0010
0000
0100
0000
,
0001
0000
0001
0000
1001
0000
0000
1000
0000
1000
0000
0000
0001
0000
0010
0000
,
1000
0000
0100
0000
0001
0000
0010
0001
,
0100
0000
0000
0000
1001
0000
0000
0001
0000
0001
0000
0000
1000
0000
0010
0000
,
0100
0000
0000
0000
1001
0000
0000
1000
0000
1000
0000
0000
0100
0000
0010
0000
,
0001
0000
0001
0100
2000
0000
3100
0000
,
0010
0000
1000
0000
0100
0000
0001
0100
,
2000
0000
3010
0100
2000
0000
3100
0000
,
0001
0000
0010
0000
0100
0000
0001
0100
,
2000
0000
3010
0100
2000
0000
3100
0000
,
0001
0000
0010
0000
1000
0000
0010
0001
,
0200
0000
1300
0001
0020
0000
1030
0001
,
0010
1000
0010
0001
0000
1000
0010
0100
,
0101
0000
0001
0000
1000
0000
0100
0000
0010
0000
0000
0010
0000
0000
0100
0000
,
0000
0000
0100
0000
1000
0000
0010
0000
0001
0000
0001
0000
0000
0010
0000
0000
,
0100
0000
0001
0000
1000
0000
0100
0000
0010
0000
0000
0010
0000
0000
0100
0000
,
0000
0000
0100
0000
1000
0000
0010
0000
0001
0000
0001
0000
0000
0010
0000
0000
,
0100
0000
0001
0000
0010
0000
0100
0000
1000
0000
0000
1000
0000
0000
0100
0000
,
0000
0000
0010
0000
0001
0000
1000
0000
0010
0000
0010
0000
0000
0010
0000
0000
,
0100
0000
1000
0000
0100
0000
0010
0000
1000
0000
0000
1000
0000
0000
0100
0000
,
0000
0010
0001
1000
0010
0010
0100
0100
,
0101
0000
0001
0000
1000
0000
0100
0000
0010
0000
0000
0010
0000
0000
0100
0000
,
0000
0000
0100
0000
1000
0000
0100
0000
0010
0000
0010
0000
0000
0010
0000
0000
,
0001
0000
0100
0000
1000
0000
0100
0000
0010
0000
0000
0010
0000
0000
1000
0000
,
0000
0000
1000
0000
0100
0000
1000
0000
0001
0000
0001
0000
0000
0001
0000
0000
,
0100
0000
1000
0000
0100
0000
0010
0000
1000
0000
0000
1000
0000
0000
0100
0000
,
0000
0000
0100
0000
0010
0000
0001
0000
0000
0100
0000
0000
0100
0000
1000
0000
,
0100
0000
0010
0000
1000
0000
0001
0000
0010
0000
0000
0010
0000
0000
1000
0000
,
0001
0100
1000
0010
0001
0010
0100
0000
,
0101
0000
0000
0000
0001
0000
0000
0010
0000
0010
0000
0000
1000
0000
0000
0000
,
1001
0000
0001
1000
0010
0001
1000
0010
,
1010
0000
0000
0000
1000
0000
0000
0010
0000
0010
0000
0000
0001
0000
0000
0000
,
1001
0000
0001
1000
0001
0010
1000
0100
,
1100
0000
0000
0000
0100
0000
0000
0010
0000
0010
0000
0000
0001
0000
0000
0000
,
1001
0000
0000
0000
0001
0000
0000
0100
0000
0100
0000
0000
0010
0000
0000
0000
,
1000
0010
1000
0100
0000
0100
0001
0100
,
0000
0001
0010
0001
0000
0001
0000
0010
,
1000
0100
0000
0002
0000
0000
0000
0000
,
0003
0000
0000
0000
;

//---------------dance-single - ----------------
#NOTEDATA:;
#CHARTNAME:;
#STEPSTYPE:dance-single;
#DESCRIPTION:;
#CHARTSTYLE:;
#DIFFICULTY:Easy;
#METER:5;
#RADARVALUES:0.199660,0.246343,0.070384,0.010055,0.000000,139.000000,132.000000,7.000000,1.000000,0.000000,0.000000,0.000000,0.000000,0.000000,0.199660,0.246343,0.070384,0.010055,0.000000,139.000000,132.000000,7.000000,1.000000,0.000000,0.000000,0.000000,0.000000,0.000000;
#CREDIT:Nezemarth;
#NOTES:
0000
0000
0000
0000
,
0000
0000
0000
0000
,
0000
0000
0000
0000
,
0000
0000
0000
0000
,
1000
0000
1000
1000
,
0100
0000
0100
0100
,
0010
0000
0010
0010
,
0001
0000
0001
0001
,
1001
0000
0000
0000
,
1000
0010
0001
0100
,
1000
0000
0000
1000
,
0010
0000
0000
0100
,
0001
0000
0000
0000
,
1000
0100
0001
0010
,
1000
0000
0000
1000
,
0001
0000
0000
0000
,
0001
0010
0100
0010
,
0001
0000
1000
0000
,
0010
0100
1000
0000
,
0100
0000
0100
0000
,
0010
1000
0100
1000
,
0010
0000
0100
0000
,
0001
0010
1000
0000
,
0010
0000
0100
1000
,
1001
0000
0001
0100
,
0010
0100
0001
0000
,
1001
0000
1000
0100
,
0010
0100
1000
0000
,
1001
0000
1000
0010
,
0100
0001
1000
0000
,
1001
0000
0001
0010
,
0100
1000
0001
0001
,
1001
0000
1000
1000
,
0010
0100
0001
1000
,
0100
0000
0010
0010
,
0001
1000
0010
0100
,
0001
0000
0010
0010
,
0100
1000
0001
0100
,
0010
0000
1000
0001
,
0010
0010
1000
1000
,
1010
0000
0010
0100
,
1000
0000
0010
0100
,
1000
0000
0100
0001
,
1000
0000
0100
0010
,
1000
0000
0010
0001
,
0100
0000
0010
0001
,
1000
0000
0100
0001
,
1000
0000
0100
0010
,
1000
0010
0000
0002
0000
0000
0000
0000
,
0003
0000
0000
0000
;

//---------------dance-double - ----------------
#NOTEDATA:;
#CHARTNAME:;
#STEPSTYPE:dance-double;
#DESCRIPTION:;
#CHARTSTYLE:;
#DIFFICULTY:Hard;
#METER:12;
#RADARVALUES:0.481194,0.566588,0.150822,0.010055,0.412247,335.000000,320.000000,15.000000,1.000000,0.000000,0.000000,0.000000,0.000000,0.000000,0.481194,0.566588,0.150822,0.010055,0.412247,335.000000,320.000000,15.000000,1.000000,0.000000,0.000000,0.000000,0.000000,0.000000;
#CREDIT:Nezemarth;
#NOTES:
// measure 0
00000000
00000000
00000000
00000000
,  // measure 1
00000000
00000000
00000000
00000000
,  // measure 2
00000000
00000000
00000000
00000000
,  // measure 3
00000000
00000000
00000000
00000000
,  // measure 4
00011000
00000000
00000000
00000000
01000000
00000000
00000000
10000000
00000000
10000000
00000000
00000000
00100000
00000000
00000000
00000000
,  // measure 5
00011000
00000000
00000000
00000000
00000100
00000000
00000000
00000001
00000000
00000001
00000000
00000000
00000010
00000000
00000000
00000000
,  // measure 6
00011000
00000000
00000000
00000000
00100000
00000000
00000000
10000000
00000000
10000000
00000000
00000000
01000000
00000000
00000000
00000000
,  // measure 7
00011000
00000000
00000000
00000000
00000010
00000000
00000000
00000001
00000000
00000001
00000000
00000000
00000100
00001000
00000000
00010000
,  // measure 8
00001000
00000000
00000000
00000000
00000110
00000000
00000000
00000001
00000000
00000001
00000000
00000000
00000100
00000000
00001000
00000000
,  // measure 9
00010000
00000000
00100000
00000000
10000000
00000000
01000000
00010000
,  // measure 10
00001000
00000000
00000000
00000000
00000110
00000000
00000000
00000001
00000000
00000001
00000000
00000000
00000100
00000000
00001000
00000000
,  // measure 11
00010000
00000000
00000000
00000000
01100000
00000000
00000000
10000000
00000000
10000000
00000000
00000000
01000000
00000000
00010000
00000000
,  // measure 12
00000010
00000000
00001000
00000000
00001010
00000000
00000000
00000001
00000000
00000001
00000000
00000000
00000010
00000000
00001000
00000000
,  // measure 13
00010000
00000000
00100000
00000000
10000000
00000000
01000000
00010000
,  // measure 14
00001000
00000000
00000010
00000000
00001000
00000000
00000000
00010000
00000000
00010000
00000000
00000000
00100000
00000000
00000000
00000000
,  // measure 15
10000000
00000000
00000000
00000000
10010000
00000000
00000000
00001000
00000000
00001000
00000000
00000000
00000010
00000000
00000001
00000000
,  // measure 16
00000100
00001000
00010000
01000000
10000000
00100000
00010000
00100000
,  // measure 17
10000000
00000000
00000000
00000000
10010000
00000000
00000000
00010000
00000000
00000000
00100000
00000000
00000000
00000000
01000000
00000000
,  // measure 18
10000000
00100000
00010000
00001000
00000010
00000001
00000100
00001000
,  // measure 19
00000100
00000000
00000000
00000000
00000001
00000000
00000000
00000010
00000000
00000000
00000010
00000000
00000000
00000000
00001000
00000000
,  // measure 20
00010000
00100000
10000000
01000000
00010000
00001000
00000001
00000100
,  // measure 21
00001000
00000000
00000000
00000000
00000010
00000000
00000000
00000100
00000000
00000000
00001000
00000000
00000000
00000000
00010000
00000000
,  // measure 22
00100000
00000000
10000000
00000000
01000000
00000000
00010000
00001000
00000000
00000000
00010000
00000000
00000000
00000000
00001000
00000000
,  // measure 23
00000010
00000000
00000001
00000000
00000100
00000000
00001000
00000000
00000000
00010000
00000000
00010000
00100000
00000000
10000000
00000000
,  // measure 24
10010000
00000000
00010000
00000000
10000000
00000000
00100000
00000000
01000000
00000000
00001000
00010000
00000000
00000010
00000100
00000000
,  // measure 25
00000001
00000000
00000010
00000000
00001000
00000000
00010000
00000000
01000000
00000000
01000000
00000000
00000000
01000000
00000000
00000000
,  // measure 26
10000000
00000000
00100000
00000000
01000000
00000000
00001000
00000000
00010000
00000000
00000010
00001000
00000000
00000001
00000010
00000000
,  // measure 27
00000100
00000100
00000010
00001000
00010000
00010000
01000000
10000000
,  // measure 28
10100000
00000000
10000000
00000000
00010000
00000000
00100000
00000000
00001000
00000000
00000010
00000001
00000000
00000100
00000010
00000000
,  // measure 29
00010000
00000000
00010000
00000000
00001000
00000000
00100000
00000000
01000000
00000000
01000000
00000000
00000000
10000000
00000000
00000000
,  // measure 30
00100000
00000000
01000000
00000000
00001000
00000000
00010000
00000000
00000010
00000000
00000100
00000001
00000000
00000010
00000100
00000000
,  // measure 31
00010000
00000000
00001000
00000000
00100000
00000000
00010000
00000000
10000000
00100000
10000000
00100000
01000000
00010000
01000000
00010000
,  // measure 32
10000000
00000000
01000000
00000000
00100000
00000000
00000000
00001000
00000000
00001000
00000000
00010000
00000010
00000100
00000001
00000000
,  // measure 33
00000010
00000000
00000100
00000000
00010000
00000000
00000000
00001000
00000000
00001000
00000000
00100000
00010000
10000000
00100000
00000000
,  // measure 34
01000000
00000000
00001000
00000000
00010000
00000000
00000000
00000100
00000000
00000100
00000000
00000010
00000001
00001000
00000010
00000000
,  // measure 35
00000100
00000000
00001000
00000000
00010000
00000000
00000000
00100000
00000000
00100000
00000000
10000000
00010000
00100000
01000000
00000000
,  // measure 36
10000000
00000000
00100000
00000000
00010000
00000000
00000000
00001000
00000000
00001000
00000000
00000100
00000010
00001000
00000100
00000000
,  // measure 37
00000010
00000000
00000001
00000000
00000100
00000000
00000000
00001000
00000000
00001000
00000000
00010000
00100000
01000000
00010000
00000000
,  // measure 38
10000000
00000000
01000000
00000000
00010000
00000000
00000000
00001000
00000000
00001000
00000000
00000010
00000001
00000100
00000010
00000000
,  // measure 39
00010000
00001000
00010000
00000000
01000000
00100000
01000000
00000000
10000000
00010000
10000000
00000000
00100000
00010000
00001000
00000000
,  // measure 40
00011000
00000000
00000000
00000000
00000010
00000000
00000000
00000100
00000000
00000100
00000000
00000000
00001000
00000000
00000000
00000000
,  // measure 41
00011000
00000000
00100000
01000000
00010000
10000000
01000000
00010000
,  // measure 42
00001000
00000000
00000010
00000000
00000001
00000000
00000000
00000100
00000000
00000100
00000000
00000000
00000010
00000000
00000000
00000000
,  // measure 43
00001000
00000010
00010000
00001000
00100000
00010000
10000000
00100000
,  // measure 44
00010000
00000000
00001000
00000000
00000100
00000000
00000000
00000001
00000000
00000001
00000000
00000000
00000010
00000000
00000000
00000000
,  // measure 45
00001000
00000000
00000000
00000000
01100000
00000000
00000000
10000000
00000000
10000000
00000000
00000000
01000000
00000000
00000000
00000000
,  // measure 46
00010000
00001000
00000010
00000001
00000000
00000010
00000001
00000100
,  // measure 47
00000000
00000001
00000100
00001000
00000000
00010000
00000000
00100000
,  // measure 48
10000000
01000000
00000000
00020000
00000000
00000000
00000000
00000000
,  // measure 49
00030000
00000000
00000000
00000000
;

//---------------dance-double - ----------------
#NOTEDATA:;
#CHARTNAME:;
#STEPSTYPE:dance-double;
#DESCRIPTION:;
#CHARTSTYLE:;
#DIFFICULTY:Medium;
#METER:10;
#RADARVALUES:0.403628,0.394148,0.100548,0.040219,0.261425,281.000000,271.000000,10.000000,4.000000,0.000000,0.000000,0.000000,0.000000,0.000000,0.403628,0.394148,0.100548,0.040219,0.261425,281.000000,271.000000,10.000000,4.000000,0.000000,0.000000,0.000000,0.000000,0.000000;
#CREDIT:Nezemarth;
#NOTES:
// measure 0
00000000
00000000
00000000
00000000
,  // measure 1
00000000
00000000
00000000
00000000
,  // measure 2
00000000
00000000
00000000
00000000
,  // measure 3
00000000
00000000
00000000
00000000
,  // measure 4
00001000
00000000
00000000
00000000
00000110
00000000
00000000
00000001
00000000
00000001
00000000
00000000
00000010
00000000
00000000
00000000
,  // measure 5
00010000
00000000
00000000
00000000
01100000
00000000
00000000
10000000
00000000
10000000
00000000
00000000
00100000
00000000
00000000
00000000
,  // measure 6
00010000
00000000
00000000
00000000
00000110
00000000
00000000
00000001
00000000
00000001
00000000
00000000
00000010
00000000
00000000
00000000
,  // measure 7
00001000
00000000
00000000
00000000
01100000
00000000
00000000
10000000
00000000
10000000
00000000
00000000
00100000
00000000
00010000
00000000
,  // measure 8
00001000
00000000
00000000
00000000
00000110
00000000
00000000
00000001
00000000
00000001
00000000
00000000
00001000
00000000
00000001
00000000
,  // measure 9
00001001
00000000
00000000
00000000
00000001
00000000
00000000
00000010
00000000
00000010
00000000
00000000
00001000
00000000
00010000
00000000
,  // measure 10
01000000
00000000
00000000
00000000
10000000
00000000
00000000
00100000
00000000
00100000
00000000
00000000
00010000
00000000
00001000
00000000
,  // measure 11
00000010
00000000
00000000
00000000
00001001
00000000
00000000
00000001
00000000
00000001
00000000
00000000
00000100
00000000
00001000
00000000
,  // measure 12
00010000
00000000
00000000
00000000
00011000
00000000
00000000
00010000
00000000
00010000
00000000
00000000
01000000
00000000
10000000
00000000
,  // measure 13
00010000
00000000
00000000
00000000
01000000
00000000
00000000
00100000
00000000
00100000
00000000
00000000
10000000
00000000
01000000
00000000
,  // measure 14
00010000
00000000
00000000
00000000
00001000
00000000
00000000
00000001
00000000
00000001
00000000
00000000
00000100
00000000
00000000
00000000
,  // measure 15
00001000
00000000
00000000
00000000
00000010
00000000
00000000
00000001
00000000
00000001
00000000
00000000
00000010
00000000
00001000
00000000
,  // measure 16
00010000
00000000
00010000
00100000
10000000
00000000
00010000
00000000
,  // measure 17
00001000
00000000
00000000
00000000
00011000
00000000
00000000
00001000
00000000
00001000
00000000
00000000
00000010
00000000
00000001
00000000
,  // measure 18
00000100
00000000
00001000
00010000
00100000
00000000
10000000
00000000
,  // measure 19
01000000
00000000
00000000
00000000
00010000
00000000
00000000
00001000
00000000
00000000
00001000
00000000
00000010
00000000
00000001
00000000
,  // measure 20
00000100
00000000
00000100
00001000
00010000
00000000
00100000
00000000
,  // measure 21
10000000
00000000
00000000
00000000
10100000
00000000
00000000
00010000
00000000
00000000
00100000
00000000
00000000
00000000
00001000
00000000
,  // measure 22
00010000
00000010
00001000
00000002
00000000
00000003
00000000
00001000
,  // measure 23
00000010
00000000
00010000
00000000
00001000
00000000
00200000
00000000
00000000
01300000
00000000
01000000
10000000
00000000
00010000
00000000
,  // measure 24
01000000
00000000
00001000
00000000
00010000
00000000
00000100
00000000
00000010
00000000
00000000
00000010
00000000
00000000
00000100
00000000
,  // measure 25
00000000
00000000
00000100
00000000
00001000
00000000
00000100
00000000
00000010
00000000
00000010
00000000
00000000
00000010
00000000
00000000
,  // measure 26
00000001
00000000
00001000
00000000
00000010
00000000
00010000
00000000
00001000
00000000
00000000
00001000
00000000
00000000
01000000
00000000
,  // measure 27
00000000
00000000
01000000
00000000
10000000
00000000
01000000
00000000
00100000
00000000
00100000
00000000
00000000
00100000
00000000
00000000
,  // measure 28
10000000
00000000
00010000
00000000
00100000
00000000
00001000
00000000
00010000
00000000
00000000
00010000
00000000
00000000
00000100
00000000
,  // measure 29
00000000
00000000
00000100
00000000
00001000
00000000
00000100
00000000
00000010
00000000
00000010
00000000
00000000
00000010
00000000
00000000
,  // measure 30
00000001
00000000
00001000
00000000
00000010
00000000
00010000
00000000
00001000
00000000
00000000
00001000
00000000
00000000
01000000
00000000
,  // measure 31
00000000
01000000
10000000
01000000
00100000
00100000
10000000
10000000
,  // measure 32
01000000
00000000
00010000
00000000
00001000
00000000
00000010
00000000
00001000
00000000
00000000
00001000
00000000
00000000
01000000
00000000
,  // measure 33
00000000
00000000
02000000
03000000
10000000
00000000
01000000
00000000
00100000
00000000
00100000
00000000
00000000
00100000
00000000
00000000
,  // measure 34
10000000
00000000
01000000
00000000
00010000
00000000
00001000
00000000
00000010
00000000
00000000
00000010
00000000
00000000
00000100
00000000
,  // measure 35
00000000
00000000
00000100
00000000
00001000
00000000
00000010
00000000
00000001
00000000
00000001
00000000
00000000
00000010
00000000
00000000
,  // measure 36
00000100
00000000
00001000
00000000
00010000
00000000
00100000
00000000
00010000
00000000
00000000
00010000
00000000
00000000
00000100
00000000
,  // measure 37
00000000
00000000
00000100
00000000
00000001
00000000
00000010
00000000
00001000
00000000
00001000
00000000
00000000
00010000
00000000
00000000
,  // measure 38
00100000
00000000
10000000
00000000
01000000
00000000
00010000
00000000
00001000
00000000
00000000
00001000
00000000
00000000
00000001
00000000
,  // measure 39
00000100
00001000
00000001
00000100
00001000
00010000
01000000
10000000
,  // measure 40
00100000
00000000
00000000
00000000
00100000
00000000
00000000
10000000
00000000
10000000
00000000
00000000
01000000
00000000
00000000
00000000
,  // measure 41
00010000
00000000
00001000
00000010
00000001
00001000
00000010
00010000
,  // measure 42
00001000
00000000
00100000
00000000
00010000
00000000
00000000
01000000
00000000
01000000
00000000
00000000
00100000
00000000
00000000
00000000
,  // measure 43
10000000
00010000
00100000
00001000
00010000
00000010
00001000
00000001
,  // measure 44
00000010
00000000
00000000
00000000
00000100
00000000
00000000
00001000
00000000
00001000
00000000
00000000
00000001
00000000
00000000
00000000
,  // measure 45
00000100
00000000
00000000
00000000
00001000
00000000
00000000
00010000
00000000
00010000
00000000
00000000
01000000
00000000
00000000
00000000
,  // measure 46
10000000
00100000
00010000
00001000
00000000
00010000
00001000
00000010
,  // measure 47
00000000
00001000
00000010
00000001
00000000
00000100
00000000
00000001
,  // measure 48
00000010
00001000
00000000
00020000
00000000
00000000
00000000
00000000
,  // measure 49
00030000
00000000
00000000
00000000
;

//---------------dance-double - ----------------
#NOTEDATA:;
#CHARTNAME:;
#STEPSTYPE:dance-double;
#DESCRIPTION:;
#CHARTSTYLE:;
#DIFFICULTY:Easy;
#METER:6;
#RADARVALUES:0.215460,0.246343,0.050274,0.010055,0.000000,150.000000,145.000000,5.000000,1.000000,0.000000,0.000000,0.000000,0.000000,0.000000,0.215460,0.246343,0.050274,0.010055,0.000000,150.000000,145.000000,5.000000,1.000000,0.000000,0.000000,0.000000,0.000000,0.000000;
#CREDIT:Nezemarth;
#NOTES:
// measure 0
00000000
00000000
00000000
00000000
,  // measure 1
00000000
00000000
00000000
00000000
,  // measure 2
00000000
00000000
00000000
00000000
,  // measure 3
00000000
00000000
00000000
00000000
,  // measure 4
00011000
00000000
00001000
00010000
,  // measure 5
01000000
00000000
01000000
00010000
,  // measure 6
00001000
00000000
00001000
00000100
,  // measure 7
00000010
00000000
00000010
00000100
,  // measure 8
00001001
00000000
00000000
00000000
,  // measure 9
00000001
00000010
00001000
00010000
,  // measure 10
01000000
00000000
01000000
10000000
,  // measure 11
00010000
00000000
01000000
00100000
,  // measure 12
10010000
00000000
00000000
00000000
,  // measure 13
10000000
00100000
00010000
00001000
,  // measure 14
00000010
00000000
00000001
00000100
,  // measure 15
00000010
00000000
00010000
00001000
,  // measure 16
10000000
01000000
00010000
00001000
,  // measure 17
00000010
00000000
00000001
00000000
,  // measure 18
00000100
00001000
00010000
00000000
,  // measure 19
01000000
01000000
10000000
00000000
,  // measure 20
10000000
00100000
00010000
00001000
,  // measure 21
00000010
00000000
00000001
00000000
,  // measure 22
00000100
00001000
00010000
00000000
,  // measure 23
01000000
00010000
00001000
00000000
,  // measure 24
00011000
00000010
00001000
00001000
,  // measure 25
00000001
00000010
00000100
00000000
,  // measure 26
00010000
00001000
00100000
00100000
,  // measure 27
00010000
10000000
00100000
00000000
,  // measure 28
00010000
00000010
00001000
00001000
,  // measure 29
00000001
00000010
00001000
00000000
,  // measure 30
00010000
00100000
10000000
10000000
,  // measure 31
00010000
00100000
01000000
01000000
,  // measure 32
10000000
00100000
00010000
00001000
,  // measure 33
00000010
00000001
00000100
00000000
,  // measure 34
00000001
00000010
00001000
00010000
,  // measure 35
00100000
10000000
01000000
00000000
,  // measure 36
00010000
01000000
10000000
00100000
,  // measure 37
00010000
00001000
00000001
00000000
,  // measure 38
00001000
00000100
00000001
00000010
,  // measure 39
00001000
00001000
00010000
00010000
,  // measure 40
00011000
00000000
00010000
01000000
,  // measure 41
10000000
00000000
10000000
00100000
,  // measure 42
00010000
00000000
00001000
00000100
,  // measure 43
00000001
00000000
00000001
00000010
,  // measure 44
00001000
00000000
00010000
00100000
,  // measure 45
10000000
00000000
10000000
01000000
,  // measure 46
00010000
00010000
00001000
00001000
,  // measure 47
00000010
00000010
00000001
00000100
,  // measure 48
00001000
00010000
00000000
02000000
00000000
00000000
00000000
00000000
,  // measure 49
03000000
00000000
00000000
00000000
;

//---------------dance-single - ----------------
#NOTEDATA:;
#CHARTNAME:;
#STEPSTYPE:dance-single;
#DESCRIPTION:;
#CHARTSTYLE:;
#DIFFICULTY:Beginner;
#METER:2;
#RADARVALUES:0.110603,0.197074,0.030164,0.010055,0.000000,77.000000,74.000000,3.000000,1.000000,0.000000,0.000000,0.000000,0.000000,0.000000,0.110603,0.197074,0.030164,0.010055,0.000000,77.000000,74.000000,3.000000,1.000000,0.000000,0.000000,0.000000,0.000000,0.000000;
#CREDIT:Nezemarth;
#NOTES:
0000
0000
0000
0000
,
0000
0000
0000
0000
,
0000
0000
0000
0000
,
0000
0000
0000
0000
,
1000
0000
0000
0000
,
0100
0000
0000
0000
,
0001
0000
0000
0000
,
0100
0000
0000
0000
,
1000
0000
0000
0000
,
0010
0000
0100
0000
,
0001
0000
0000
0000
,
1000
0000
0000
0000
,
0001
0000
0000
0000
,
0010
0000
0100
0000
,
1000
0000
0000
0000
,
0001
0000
0000
0000
,
1000
0000
1000
0000
,
0100
0000
0010
0000
,
0001
0000
0000
0000
,
1000
0000
0000
0000
,
0001
0000
0001
0000
,
0100
0000
0010
0000
,
1000
0000
0000
0000
,
1000
0000
0000
1000
,
1001
0000
0000
0000
,
0000
0001
0001
0000
,
0010
0000
0000
0000
,
0000
0000
0000
0100
,
0100
0000
0000
0000
,
0000
0000
1000
0000
,
1000
0000
0000
0000
,
0010
0000
0100
0100
,
0110
0000
0100
0000
,
0001
0000
0001
0001
,
0001
0000
1000
0000
,
0100
0000
0010
0010
,
0010
0000
0001
0000
,
1000
0000
0010
0010
,
0010
0000
0100
0000
,
0001
0001
0001
0001
,
1001
0000
0000
1000
,
1000
0000
0000
0100
,
0100
0000
0000
0000
,
0010
0000
0000
0001
,
0001
0000
0000
1000
,
1000
0000
0000
0010
,
0010
0000
0000
0000
,
0100
0000
0000
0001
,
0002
0000
0000
0000
,
0003
0000
0000
0000
;
