#VERSION:0.83;
#TITLE:I HATE MY PUTER;
#SUBTITLE:-ALL MY ENEMIES ARE INSIDE IT-;
#ARTIST:Mameyudoufu;
#TITLETRANSLIT:;
#SUBTITLETRANSLIT:;
#ARTISTTRANSLIT:;
#GENRE:;
#ORIGIN:;
#CREDIT:;
#BANNER:I HATE MY PUTER.png;
#BACKGROUND:I HATE MY PUTER-bg.png;
#PREVIEWVID:;
#JACKET:I HATE MY PUTER-jacket.png;
#CDIMAGE:;
#DISCIMAGE:;
#LYRICSPATH:;
#CDTITLE:;
#MUSIC:I HATE MY PUTER.ogg;
#OFFSET:-0.020781;
#SAMPLESTART:30.032076;
#SAMPLELENGTH:14.999998;
#SELECTABLE:YES;
#BPMS:0.000=128.000;
#STOPS:;
#DELAYS:;
#WARPS:;
#TIMESIGNATURES:0.000=4=4;
#TICKCOUNTS:0.000=4;
#COMBOS:0.000=1;
#SPEEDS:0.000=1.000=0.000=0;
#SCROLLS:0.000=1.000;
#FAKES:;
#LABELS:0.000=Song Start;
#BGCHANGES:;
#KEYSOUNDS:;
#ATTACKS:
;

//---------------dance-single - ----------------
#NOTEDATA:;
#CHARTNAME:;
#STEPSTYPE:dance-single;
#DESCRIPTION:;
#CHARTSTYLE:;
#DIFFICULTY:Hard;
#METER:15;
#RADARVALUES:0.736226,0.786556,0.204832,0.483404,1.077418,629.000000,604.000000,25.000000,59.000000,0.000000,0.000000,0.000000,0.000000,0.000000,0.736226,0.786556,0.204832,0.483404,1.077418,629.000000,604.000000,25.000000,59.000000,0.000000,0.000000,0.000000,0.000000,0.000000;
#CREDIT:Daniel Van Eden;
#NOTES:
// measure 0
0000
0000
0000
0000
,  // measure 1
0000
0000
0000
0000
,  // measure 2
0000
0000
0000
0000
,  // measure 3
0000
0000
0000
0000
,  // measure 4
0000
0000
0000
0000
,  // measure 5
0000
0000
0000
0000
,  // measure 6
0000
0000
0000
0000
,  // measure 7
0000
0000
0000
0000
,  // measure 8
0001
0000
0000
0001
1000
0010
1000
0001
0000
0100
0001
2000
0000
0000
3100
0010
,  // measure 9
0001
0000
0000
0000
0010
0000
0100
0000
0010
0000
0001
0000
1000
0000
0010
0000
0000
0000
0100
0010
0100
0000
0001
0000
0000
0000
1000
0000
0100
0000
0010
0000
,  // measure 10
0001
0000
1000
0100
1000
0001
0100
0010
0000
1000
0001
0200
0000
0000
0301
0010
,  // measure 11
0100
0000
0000
0000
1000
0000
0001
0000
0010
0000
0001
0000
0100
0000
0010
1000
0010
0000
0100
0000
0001
0000
0010
0000
0000
0000
0001
0000
0010
0000
0100
0000
,  // measure 12
1000
0000
0000
1000
0001
0010
0001
1000
0000
0100
1000
0002
0000
0000
0103
0010
,  // measure 13
1000
0000
0000
0000
0010
0000
0100
0000
0010
0000
1000
0000
0001
0000
0010
0000
0000
0000
0100
0010
0100
0000
1000
0000
0000
0000
0001
0000
0100
0000
0010
0000
,  // measure 14
1000
0000
0001
0100
0001
1000
0100
0010
0000
0001
1000
0200
0000
0000
0310
0100
,  // measure 15
2000
3000
0000
0022
0033
0000
0202
0303
0000
2020
3030
0000
1000
0010
0100
0001
,  // measure 16
1000
0000
0001
0100
0010
0100
0001
0010
0100
1000
0100
0020
0000
0000
0031
1000
,  // measure 17
0100
0000
0000
0000
1000
0000
0001
0000
0100
0000
0010
0000
1000
0000
0001
0000
0000
0000
1000
0001
1000
0000
0100
0000
0000
0000
1000
0000
0100
0000
0010
0000
,  // measure 18
0001
0000
1000
0010
0100
0010
1000
0100
0010
0100
1000
0002
0000
0000
0013
0001
,  // measure 19
1000
0000
0000
0000
0010
0000
0100
0000
1000
0000
0100
0000
0001
0000
0010
0001
0010
0000
0100
0000
1000
0000
0001
0000
0100
0000
0010
0000
0000
0000
0100
0000
,  // measure 20
0001
0000
1000
0001
0100
0001
0010
0100
1000
0001
0100
0020
0000
0000
1030
0001
,  // measure 21
0100
0000
0000
0000
0001
0000
1000
0000
0100
0000
0010
0000
0001
0000
0100
0000
0000
0000
0010
0100
0010
0000
1000
0000
0000
0000
0100
0000
1000
0000
0001
0000
,  // measure 22
0010
0000
0001
1000
0100
1000
0001
0100
0010
1000
0001
0020
0000
0000
0130
1000
,  // measure 23
0001
0000
0000
0000
0010
0000
0100
0000
0001
0000
0100
0000
1000
0000
0010
1000
0010
0000
0100
0000
0001
0000
1000
0000
0100
0000
0010
0000
0001
0000
0100
0000
,  // measure 24
0020
0000
0000
0000
0100
0000
0000
0000
0000
0000
0000
0000
0130
0000
0001
1000
,  // measure 25
0200
0000
0000
0310
0001
0000
1000
0000
0020
0000
0000
0130
0001
0000
0010
0000
,  // measure 26
0200
0000
0000
0000
0010
0000
0000
0000
0000
0000
0000
0000
0310
0000
0001
0010
,  // measure 27
0200
0000
0000
1300
0010
0000
0001
0000
0010
0000
1000
0100
0000
0010
0100
0000
,  // measure 28
2000
0000
0000
0000
0001
0000
0000
0000
0000
0000
0000
0000
0001
0000
3010
0100
,  // measure 29
0002
0000
0000
1003
0100
0000
0001
0000
0200
0000
0000
1300
0000
0010
0000
1000
,  // measure 30
0002
0000
0000
0000
0010
0000
0000
0000
0000
0000
0000
0000
0010
0000
0103
0010
,  // measure 31
1000
0000
0001
0100
0000
0000
0010
0100
0010
1000
0000
1000
0000
0001
0010
0000
,  // measure 32
0110
0000
0000
0100
1000
0000
0010
0000
0001
0000
0000
0010
1000
0000
0001
0000
,  // measure 33
0010
0000
0000
1000
0010
0000
0001
0000
1000
0000
0000
0000
0010
0000
0100
0000
,  // measure 34
0001
0000
0000
0010
0001
0000
0100
0000
1000
0000
0000
0100
0001
0000
1000
0000
,  // measure 35
0100
0000
0000
0001
0100
0000
0010
0000
1000
0000
0000
0010
0001
0000
1000
0001
,  // measure 36
1000
0000
0010
0001
0010
0000
1000
0000
0001
0000
0100
1000
0100
0000
0001
0000
,  // measure 37
0010
0000
0100
0010
0100
0000
1000
0000
0001
0000
0001
0000
0010
0000
0100
0000
,  // measure 38
1000
0000
0100
0001
0100
0000
1000
0000
0001
0000
0010
1000
0010
0000
0001
0000
,  // measure 39
1000
0000
0010
0100
0010
0000
1000
0000
0001
0100
0010
1000
0001
1000
0100
0010
,  // measure 40
0001
0000
0000
0000
0011
0000
0001
0100
0000
0010
0100
0000
0110
0000
0010
0000
,  // measure 41
1010
0000
0000
0000
1100
0000
0100
1000
0000
1000
0001
1000
0001
0100
0010
1000
,  // measure 42
0001
0000
0000
0010
0100
0000
1000
0000
1010
0000
0000
0010
0100
0000
0001
0000
,  // measure 43
0011
0000
0000
0001
0010
0000
0100
1000
0010
1000
0000
0100
0010
0000
0001
0000
,  // measure 44
1001
0000
0000
0000
1100
0000
0100
0010
0000
0100
1000
0000
1010
0000
0010
0000
,  // measure 45
0110
0000
0000
0000
0101
0000
0100
0001
0000
1000
0001
1000
0100
0010
0001
1000
,  // measure 46
0010
0000
0000
0001
1000
0000
0100
0000
0001
0000
0000
0010
1000
0000
0001
0000
,  // measure 47
0100
0000
0000
1000
0001
0000
0010
0100
0010
0100
1000
0001
0100
0010
1000
0001
,  // measure 48
1000
0000
0000
0000
0000
0000
0000
0000
2200
0000
0000
0000
3300
0000
0000
0000
0202
0000
0000
0000
0303
0000
0000
0000
0001
0000
2000
3000
0020
0030
2000
3000
,  // measure 49
0001
0000
0020
0030
0200
0300
0020
0030
0001
0000
2000
3000
0200
0300
2000
3000
0001
0000
0200
0300
0020
0030
0200
0300
0001
0000
1000
0000
0100
0000
0010
0000
,  // measure 50
0001
0000
0000
1000
0100
0000
0010
0000
0011
0000
0000
0001
0100
0000
0010
0000
,  // measure 51
1010
0000
0000
1000
0001
0000
0100
0010
0100
0010
0000
1000
0001
0000
0010
0000
,  // measure 52
0110
0000
0000
0000
0000
0000
0000
0000
0022
0000
0000
0000
0033
0000
0000
0000
2020
0000
0000
0000
3030
0000
0000
0000
1000
0000
0002
0003
0020
0030
0002
0003
,  // measure 53
1000
0000
0020
0030
0200
0300
0020
0030
1000
0000
0002
0003
0200
0300
0002
0003
1000
0000
0200
0300
0020
0030
0200
0300
1000
0000
0001
0000
0100
0000
0010
0000
,  // measure 54
1000
0000
0000
0010
0001
0000
1000
0000
0100
0000
0000
0001
1000
0000
0100
0000
,  // measure 55
0110
0000
0000
0021
0000
0000
0130
0000
1001
0000
0000
1000
0010
0000
1000
0001
,  // measure 56
0100
0000
0000
0100
0001
0010
0001
1000
0000
0001
0100
2000
0000
3100
0001
1000
,  // measure 57
0100
0000
0000
0000
0010
0000
0001
0000
0010
0000
0100
0000
1000
0000
0001
0000
0000
0000
0100
0010
0100
0000
0001
0000
0000
0000
1000
0000
0001
0000
0100
0000
,  // measure 58
0010
0000
0100
0010
1000
0001
0010
1000
0000
0010
0001
1000
0000
0001
0100
0010
,  // measure 59
1000
0000
0000
0000
0001
0000
0100
0000
1000
0000
0100
0000
0001
0000
1000
0010
1000
0000
0100
0000
0010
0000
0001
0000
1000
0000
0100
0000
0000
0000
0001
0000
,  // measure 60
0100
0000
0000
0100
1000
0010
1000
0001
0000
1000
0010
0002
0000
0013
1000
0001
,  // measure 61
0010
0000
0000
0000
0100
0000
1000
0000
0100
0000
0010
0000
0001
0000
1000
0000
0000
0000
0010
0100
0010
0000
1000
0000
0000
0000
0001
0000
1000
0000
0100
0000
,  // measure 62
0010
0000
0100
0010
0001
1000
0010
0001
0000
0010
1000
0001
0000
1000
0010
0100
,  // measure 63
0001
0000
0000
0000
1000
0000
0010
0000
0001
0000
0010
0000
1000
0000
0001
0100
0001
0000
0010
0000
0100
0000
1000
0000
0001
0000
1000
0000
0100
0000
0010
0000
,  // measure 64
0001
0000
0000
0000
;

//---------------dance-single - ----------------
#NOTEDATA:;
#CHARTNAME:;
#STEPSTYPE:dance-single;
#DESCRIPTION:;
#CHARTSTYLE:;
#DIFFICULTY:Medium;
#METER:12;
#RADARVALUES:0.513837,0.576808,0.032773,0.139286,0.589917,439.000000,435.000000,4.000000,17.000000,0.000000,0.000000,0.000000,0.000000,0.000000,0.513837,0.576808,0.032773,0.139286,0.589917,439.000000,435.000000,4.000000,17.000000,0.000000,0.000000,0.000000,0.000000,0.000000;
#CREDIT:Daniel Van Eden;
#NOTES:
0000
0000
0000
0000
,
0000
0000
0000
0000
,
0000
0000
0000
0000
,
0000
0000
0000
0000
,
0000
0000
0000
0000
,
0000
0000
0000
0000
,
0000
0000
0000
0000
,
0000
0000
0000
0000
,
1000
0000
0000
1000
0001
0000
0010
0000
0001
0000
1000
0000
0010
0000
1000
0001
,
1000
0000
0000
0001
0100
0000
1000
0000
0100
0000
0001
0000
0010
0000
0100
0000
,
1000
0000
0000
1000
0100
0000
0010
0000
0001
0000
1000
0000
0010
0000
1000
0000
,
0001
0010
1000
0010
0001
1000
0100
0010
,
0001
0000
0000
0001
1000
0000
0010
0000
1000
0000
0001
0000
0010
0000
0001
1000
,
0001
0000
0000
1000
0100
0000
0001
0000
0100
0000
1000
0000
0010
0000
0100
0000
,
0001
0000
0000
0001
0100
0000
0010
0000
1000
0000
0001
0000
0010
0000
0001
0000
,
2000
3000
0000
0200
0300
0000
0020
0030
0000
0002
0003
0000
0110
0000
0100
0000
,
1000
0000
0000
1000
0010
0000
0100
0000
0010
0100
0000
0001
0000
1000
0001
0000
,
1000
0000
0001
0000
0010
0100
0000
0010
0000
0001
0000
1000
0000
0010
1000
0000
,
0001
0000
0000
0001
0100
0000
0010
0000
0100
0010
0000
1000
0000
0001
1000
0000
,
0100
0000
0010
0000
0001
0000
1000
0010
0000
0100
0001
0000
1000
0001
0000
1000
,
0100
0000
0000
0100
1000
0000
0001
0000
0100
0010
0000
1000
0000
0010
0100
0000
,
0001
0000
0010
0000
0100
0010
0000
0001
0000
1000
0000
0010
0000
0100
0010
0000
,
1000
0000
0000
1000
0001
0000
0010
0000
0100
0010
0000
0001
0000
1000
0010
0000
,
1000
0000
0001
1000
0001
0000
0010
0100
0000
1000
0001
0000
1000
0100
0010
0001
,
2000
0010
0000
3100
,
0002
0000
0000
0010
0000
0000
1003
0000
2000
0000
0000
0100
0000
0000
3001
0000
,
0002
0010
0000
0103
,
0020
0000
0000
1000
0000
0000
1030
0000
0001
0000
0000
0010
0000
0000
0100
0000
,
2000
0000
0100
0000
0000
0000
3001
0100
,
0020
0000
0000
1000
0000
0000
1030
0000
0200
0000
0000
0001
0000
0000
0301
0000
,
0002
0000
0010
0000
0000
0000
1003
0100
,
0010
0000
0000
0001
0000
0000
1000
0000
0010
0000
0000
0001
0000
0000
0010
0000
,
1000
0000
0000
0001
0000
0000
1000
0000
0100
0000
0000
0001
0000
0000
0100
0000
,
1000
0000
0000
0010
0000
0000
0100
0000
0001
0000
0000
0000
0001
0000
0010
0000
,
0100
0000
0000
0001
0000
0000
0100
0000
1000
0000
0000
0001
0000
0000
1000
0000
,
0010
0000
0000
0001
0000
0000
0010
0000
1000
0000
0000
0001
0000
0000
0010
0000
,
0100
0000
0000
1000
0000
0000
0001
0000
0010
0000
0000
1000
0000
0000
0010
0000
,
0001
0000
0000
1000
0000
0000
0010
0000
0100
0000
0000
0000
0001
0000
1000
0000
,
0010
1000
0001
1000
0100
0010
0100
0010
,
0001
0000
0010
0000
0001
0000
1000
0000
0001
1000
0001
1000
0100
0010
0001
1000
,
0001
0000
0000
0000
1000
0000
0100
1000
0000
0100
1000
0000
0001
0000
1000
0000
,
0010
0000
0000
0000
1000
0000
0010
1000
0000
0010
1000
0010
1000
0000
0001
0000
,
0010
0000
0000
1000
0000
0000
0010
0000
0001
0000
0000
1000
0000
0000
0001
0000
,
0010
0000
0000
1000
0000
0000
0010
0000
0001
0000
0000
0000
1000
0000
0001
0000
,
0101
0000
0000
0000
0001
0000
0100
0001
0000
0100
0001
0000
1000
0000
0001
0000
,
0010
0000
0000
0000
0001
0000
0010
0001
0000
0010
0001
0010
0001
0000
1000
0000
,
0100
0000
0000
0001
0000
0000
0100
0000
1000
0000
0000
0001
0000
0000
1000
0000
,
0100
0000
0000
0001
0000
0000
0100
0000
1000
0000
0000
1000
0010
0000
0100
0000
,
0001
0000
0000
0000
2000
0000
0000
0000
3002
0000
0000
0000
0003
1000
0100
1000
,
0000
0001
0100
0001
0000
1000
0100
1000
0000
0001
0100
0001
0000
1000
0100
0010
,
0001
0000
0000
1000
0010
0000
1000
0000
0001
0000
0000
0100
0010
0000
0100
0000
,
0001
0000
0000
1000
0100
0000
1000
0000
0001
0000
0000
0000
0010
0000
0100
0000
,
1100
0000
0000
0000
0002
0000
0000
0000
2003
0000
0000
0000
3000
0001
0100
0001
,
0000
1000
0100
1000
0000
0001
0100
0001
0000
1000
0100
1000
0000
0001
0100
0010
,
1000
0000
0000
0001
0010
0000
0001
0000
1000
0000
0000
0010
0100
0000
0010
0000
,
1000
0000
0000
1001
0000
0000
0001
0000
1000
0000
0000
1000
0100
0000
0010
0000
,
0001
0000
0000
0001
0100
0000
0010
0000
1000
0001
0000
1000
0000
0100
0010
0000
,
0001
0000
1000
0000
0010
0100
0000
0001
0000
1000
0000
0100
0000
0010
0100
0000
,
1000
0000
0000
1000
0001
0000
0010
0000
0001
0100
0000
0010
0000
1000
0001
0000
,
1000
0000
0001
0000
0100
0000
0010
1000
0000
0001
0100
0000
0001
0000
1000
0000
,
0100
0000
0000
0100
1000
0000
0010
0000
1000
0001
0000
0100
0000
0010
1000
0000
,
0001
0000
0010
0000
0001
1000
0000
0001
0000
0010
0000
0100
0000
0010
0001
0000
,
1000
0000
0000
1000
0010
0000
1000
0000
0001
0010
0000
0001
0000
1000
0100
0000
,
1000
0000
0001
0100
0001
0000
1000
0100
0000
0010
0001
0000
1000
0010
0100
0001
,
1000
0000
0000
0000
;

//---------------dance-single - ----------------
#NOTEDATA:;
#CHARTNAME:;
#STEPSTYPE:dance-single;
#DESCRIPTION:;
#CHARTSTYLE:;
#DIFFICULTY:Easy;
#METER:8;
#RADARVALUES:0.311345,0.393278,0.081933,0.065546,0.102416,266.000000,256.000000,10.000000,8.000000,0.000000,0.000000,0.000000,0.000000,0.000000,0.311345,0.393278,0.081933,0.065546,0.102416,266.000000,256.000000,10.000000,8.000000,0.000000,0.000000,0.000000,0.000000,0.000000;
#CREDIT:Daniel Van Eden;
#NOTES:
0000
0000
0000
0000
,
0000
0000
0000
0000
,
0000
0000
0000
0000
,
0000
0000
0000
0000
,
0000
0000
0000
0000
,
0000
0000
0000
0000
,
0000
0000
0000
0000
,
0000
0000
0000
0000
,
1000
0000
0010
0000
0100
0010
0100
0000
,
0001
0000
0010
0000
0100
0000
1000
0001
,
1000
0000
0010
0000
0100
0001
0100
0000
,
0001
1000
0001
0000
0010
0000
0100
0000
,
1001
0000
1000
0000
0010
0100
0010
0000
,
1000
0000
0001
0000
0010
0000
0001
1000
,
0001
0000
1000
0000
0001
0010
0001
0000
,
1000
0000
0000
0001
0000
0000
1000
0000
0001
0000
0000
0000
0010
0000
0100
0000
,
1000
0000
0010
0000
0100
0010
0100
0000
,
0001
0000
1000
0000
0001
0000
0010
0001
,
0010
0000
0100
0000
1000
0001
1000
0000
,
0010
0100
0010
0000
1000
0000
0001
0000
,
1001
0000
1000
0000
0001
0000
0100
0010
,
0100
0001
1000
0100
,
0010
0001
0010
0000
0100
0000
1000
0001
,
1000
0000
0001
0000
1000
0000
0000
0010
0000
0000
1000
0000
0001
0000
0000
0000
,
2001
0000
0000
0000
,
3010
0100
0001
0010
,
0002
0000
0000
0000
,
0013
0100
1000
0010
,
0200
0000
0000
0000
,
0310
1000
0001
0010
,
0200
0000
0000
0000
,
1300
0001
0010
0001
,
1000
0000
0000
1000
0000
0000
0000
0000
0001
0000
0000
0001
0000
0000
0000
0000
,
1000
0000
0000
1000
0000
0000
0000
0000
0001
0000
0000
0000
0010
0000
0000
0000
,
0100
0000
0000
0100
0000
0000
0000
0000
0010
0000
0000
0010
0000
0000
0000
0000
,
0100
0000
0000
0100
0000
0000
0000
0000
1000
0000
0000
1000
0000
0000
0000
0000
,
0001
0000
0000
0100
0000
0000
0000
0000
1000
0000
0000
0100
0000
0000
0000
0000
,
0001
0000
0000
0100
0000
0000
0000
0000
0001
0000
0000
0000
1000
0000
0000
0000
,
0010
0010
1000
1000
,
0001
0000
0001
0000
1000
0100
0010
0001
,
1000
0000
0001
0000
0010
0000
0100
0100
,
0100
0000
1000
0000
0010
0000
1000
0001
,
1000
0000
0000
1000
0000
0000
0000
0000
0010
0000
0000
0010
0000
0000
0000
0000
,
0100
0000
0000
0100
0000
0000
0000
0000
0001
0000
0000
0000
0011
0000
0000
0000
,
1100
0000
1000
0000
0001
0000
0100
0100
,
0100
0000
0010
0000
0100
0000
0001
1000
,
0001
0000
0000
0001
0000
0000
0000
0000
0100
0000
0000
0100
0000
0000
0000
0000
,
0010
0000
0000
0010
0000
0000
0000
0000
1000
0000
0000
0000
1100
0000
0000
0000
,
0011
0000
0020
0000
0230
0000
1300
0001
,
1000
0010
1000
0001
1000
0010
1000
0000
,
0100
0000
0000
0100
0000
0000
0000
0000
1000
0000
0000
1000
0000
0000
0000
0000
,
0001
0000
0000
0001
0000
0000
0000
0000
0100
0000
0000
0000
0110
0000
0000
0000
,
1001
0000
0002
0000
2003
0000
3001
0010
,
0001
1000
0001
0010
0001
1000
0001
0000
,
0010
0000
0000
0010
0000
0000
0000
0000
0001
0000
0000
0001
0000
0000
0000
0000
,
1000
0000
0000
0001
0000
0000
1000
0000
0001
0000
0000
0000
1000
0000
0000
0000
,
1001
0000
0001
0000
0010
0100
1000
0000
,
0001
0000
1000
0000
0010
0000
1000
0001
,
0100
0000
0010
0000
1000
0010
0100
0000
,
0001
0000
1000
0000
0100
0010
0001
0000
,
1000
0000
0001
0000
0010
0100
1000
0000
,
0001
0000
1000
0000
0010
0000
0100
0001
,
1000
0000
0010
0000
1000
0001
1000
0000
,
0100
0000
0010
0000
0001
0000
0000
1000
0000
0000
0001
0000
0010
0000
0100
0000
,
1000
0000
0000
0000
;

//---------------dance-single - ----------------
#NOTEDATA:;
#CHARTNAME:;
#STEPSTYPE:dance-single;
#DESCRIPTION:;
#CHARTSTYLE:;
#DIFFICULTY:Beginner;
#METER:6;
#RADARVALUES:0.209514,0.262185,0.065546,0.000000,0.000000,179.000000,171.000000,8.000000,0.000000,0.000000,0.000000,0.000000,0.000000,0.000000,0.209514,0.262185,0.065546,0.000000,0.000000,179.000000,171.000000,8.000000,0.000000,0.000000,0.000000,0.000000,0.000000,0.000000;
#CREDIT:Daniel Van Eden;
#NOTES:
0000
0000
0000
0000
,
0000
0000
0000
0000
,
0000
0000
0000
0000
,
0000
0000
0000
0000
,
0000
0000
0000
0000
,
0000
0000
0000
0000
,
0000
0000
0000
0000
,
0000
0000
0000
0000
,
1000
0010
1000
1000
,
0001
1000
0001
0001
,
0010
0100
0010
0010
,
0001
0000
1000
0000
,
0001
0100
0001
0001
,
1000
0001
1000
1000
,
0100
1000
0100
0100
,
0110
0000
0000
0000
,
1001
0000
0001
1000
,
0001
0000
0100
0100
,
0100
0000
0010
1000
,
0010
0000
1000
1000
,
1000
0000
0001
0010
,
0001
0000
1000
1000
,
1000
0000
0100
0010
,
0100
0000
0000
0110
,
1001
0000
0000
0000
,
0001
0000
0010
0000
,
0001
0000
0000
0000
,
1000
0000
0100
0000
,
1000
0000
0000
0000
,
0001
0001
1000
1000
,
0001
0000
0000
0000
,
0100
0000
0010
0000
,
1000
0000
0001
0000
,
1000
0000
0001
0010
,
0100
0000
0010
0000
,
0100
0000
1000
0000
,
0001
0000
1000
0000
,
0001
0000
1000
0100
,
0010
0000
0001
0000
,
1000
0000
0001
1000
,
1001
0000
0001
0001
,
0001
0000
1000
1000
,
1000
0010
0001
0010
,
1000
0010
0001
0010
,
1000
0000
1000
1000
,
1000
0000
0001
0001
,
0001
0100
1000
0100
,
0001
0100
1000
0100
,
0001
0010
0010
0010
,
0100
0100
0100
0100
,
1000
0100
0001
0100
,
1000
0100
0001
0100
,
1000
0010
0010
0010
,
0100
0100
0100
0100
,
0001
0010
1000
0010
,
0001
0000
1001
0000
,
1001
0000
1000
0010
,
1000
1000
0001
1000
,
0001
0001
0010
0001
,
1000
1000
0001
0001
,
1000
0001
1000
1000
,
0001
0100
0001
0001
,
1000
0010
1000
1000
,
0001
0000
0000
0010
,
1001
0000
0000
0000
;
