#VERSION:0.83;
#TITLE:I Found You;
#SUBTITLE:;
#ARTIST:Darwin ft. Sarah;
#TITLETRANSLIT:;
#SUBTITLETRANSLIT:;
#ARTISTTRANSLIT:;
#GENRE:Happy Hardcore;
#ORIGIN:United Kingdom;
#CREDIT:;
#BANNER:I Found You.png;
#BACKGROUND:I Found You-bg.png;
#PREVIEWVID:;
#JACKET:I Found You-jacket.png;
#CDIMAGE:;
#DISCIMAGE:;
#LYRICSPATH:I Found You.lrc;
#CDTITLE:cdtitle.png;
#MUSIC:I Found You.ogg;
#OFFSET:-0.000000;
#SAMPLESTART:74.823013;
#SAMPLELENGTH:15.000000;
#SELECTABLE:YES;
#BPMS:0.000=170.000,
208.000=85.000,
210.000=170.000;
#STOPS:;
#DELAYS:;
#WARPS:;
#TIMESIGNATURES:0.000=4=4;
#TICKCOUNTS:0.000=4;
#COMBOS:0.000=1;
#SPEEDS:0.000=1.000=0.000=0;
#SCROLLS:0.000=1.000;
#FAKES:;
#LABELS:0.000=Song Start;
#BGCHANGES:;
#KEYSOUNDS:;
#ATTACKS:
;

//---------------dance-single - RaverAce----------------
#NOTEDATA:;
#CHARTNAME:;
#STEPSTYPE:dance-single;
#DESCRIPTION:RaverAce;
#CHARTSTYLE:;
#DIFFICULTY:Beginner;
#METER:5;
#RADARVALUES:0.159902,0.234137,0.148659,0.000000,0.000000,128.000000,111.000000,17.000000,0.000000,0.000000,0.000000,0.000000,0.000000,0.000000,0.159902,0.234137,0.148659,0.000000,0.000000,128.000000,111.000000,17.000000,0.000000,0.000000,0.000000,0.000000,0.000000,0.000000;
#CREDIT:RaverAce;
#NOTES:
0000
0000
0000
0000
,
0000
0000
0000
0000
,
0000
0000
0000
0000
,
0000
0000
0000
0000
,
0000
0000
0000
0000
,
1001
0000
0000
0000
,
0001
0000
0000
0000
,
1000
0000
0000
0000
,
0001
0000
1000
0000
,
0110
0000
0000
0000
,
0100
0000
0000
0000
,
0010
0000
0000
0000
,
1001
0000
0000
0000
,
1001
0000
0001
0000
,
1000
0000
0001
0000
,
0010
0000
0100
0000
,
1000
0000
0001
0000
,
1001
0000
1000
0000
,
0010
0000
0100
0000
,
0001
0000
0010
0000
,
0100
0000
0010
0000
,
1001
0000
0001
0000
,
0001
0000
0001
0000
,
1000
0000
1000
0000
,
0010
0000
0010
0000
,
0110
0000
0100
0000
,
0001
0000
1000
0000
,
0100
0000
0010
0000
,
0001
0000
1000
0000
,
1001
0000
0000
0000
,
0000
0000
0000
0000
,
0010
0000
0000
0000
,
0100
0000
0000
0000
,
0001
0000
0000
0000
,
0000
0000
0000
0000
,
0010
0000
0000
0000
,
0100
0000
0000
0000
,
1001
0000
0000
0000
,
0000
0000
0000
0000
,
0010
0000
0000
0000
,
0100
0000
0000
0000
,
0010
0000
0000
0000
,
1000
0000
0000
0000
,
0001
0000
0000
0000
,
1000
0000
0000
0000
,
1001
0000
0000
0000
,
0001
0000
0000
0000
,
1000
0000
0000
0000
,
0001
0000
0000
0000
,
0010
0000
0100
0000
,
0010
0000
0100
0000
,
1000
0000
0001
0000
,
1001
0000
1001
0000
,
1000
0000
0010
0000
,
0000
0000
0100
0000
,
0001
0000
0010
0000
,
0100
0000
1001
0000
,
0001
0000
0010
0000
,
0100
0000
1000
0000
,
0100
0000
0010
0000
,
0001
0000
1001
0000
,
1000
0000
0010
0000
,
0000
0000
0100
0000
,
0001
0000
0010
0000
,
0100
0000
0010
0000
,
0001
0000
1000
0000
,
0010
0000
0100
0000
,
0001
0000
1001
0000
,
0000
0000
1001
0000
,
0001
0000
1000
0000
,
0100
0000
0010
0000
,
0001
0000
0100
0000
,
0010
0000
1000
0000
,
0001
0000
0010
0000
,
0100
0000
1000
0000
,
0001
0000
0100
0000
,
0010
0000
1001
0000
;

//---------------dance-single - RaverAce----------------
#NOTEDATA:;
#CHARTNAME:;
#STEPSTYPE:dance-single;
#DESCRIPTION:RaverAce;
#CHARTSTYLE:;
#DIFFICULTY:Easy;
#METER:8;
#RADARVALUES:0.383514,0.542167,0.568400,0.725804,0.000000,307.000000,242.000000,65.000000,83.000000,0.000000,0.000000,0.000000,0.000000,0.000000,0.383514,0.542167,0.568400,0.725804,0.000000,307.000000,242.000000,65.000000,83.000000,0.000000,0.000000,0.000000,0.000000,0.000000;
#CREDIT:RaverAce;
#NOTES:
0000
0000
0000
0000
,
0000
0000
0000
0000
,
0000
0000
0000
0000
,
0000
0000
0000
0000
,
0000
0000
0000
0000
,
1002
0100
1000
0103
,
2001
0100
0001
3100
,
2001
0010
0001
3010
,
1002
0013
2001
3010
,
0012
0100
0100
0203
,
0010
0010
0010
0320
,
2030
3200
0302
0103
,
0120
0000
0032
1003
,
1001
0001
0100
1000
,
0100
0010
1000
0100
,
0001
0100
0010
0001
,
0100
0020
0200
0330
,
1001
1000
0100
0001
,
0100
0010
0001
0100
,
1000
0100
0010
1000
,
0100
0001
0010
0100
,
1000
1020
0100
0100
,
1000
0100
1000
0130
,
0201
0001
0010
0301
,
0021
0100
0001
0130
,
1001
0011
0010
0100
,
1001
1010
0010
0100
,
0101
0001
0011
0010
,
0210
2300
3020
0230
,
0302
2000
0000
0000
,
0000
0000
3003
0000
,
2000
0000
0000
0000
,
3200
0000
0000
0000
,
0320
0000
0000
0000
,
0000
0000
0000
0000
,
0032
0000
0000
0000
,
2000
0000
0000
3003
,
1001
0002
2003
3200
,
0320
0000
0000
0032
,
0203
0320
2030
0002
,
0000
0000
0000
3003
,
1001
2000
3002
0203
,
0320
0000
2030
0200
,
0000
3300
0002
0103
,
0220
0000
0000
0330
,
2001
0001
0001
3002
,
0010
0010
0010
0023
,
0100
0100
0100
0230
,
1000
1000
1000
1300
,
1001
0100
1001
0010
,
1001
0100
1001
0010
,
1001
1010
1001
0011
,
0220
0000
0000
0330
1001
0000
0011
0000
,
1001
1010
0120
1000
,
0100
2030
3100
1100
,
0110
0012
0203
0320
,
2030
3001
1001
1010
,
1001
0011
0120
0001
,
0130
2100
3010
0100
,
0102
0023
0230
2300
,
3002
1003
1010
0110
,
1010
0110
2010
0100
,
0100
3100
0110
1100
,
0110
2100
3200
0302
,
0203
0310
0011
0110
,
0011
0110
0012
0103
,
0200
0320
2030
3002
,
0023
0130
0220
0000
,
0000
0330
1001
0001
,
0100
1000
0100
0010
,
1000
0100
0001
0100
,
0010
0001
1000
0010
,
0100
0001
1000
1000
,
0100
0100
0010
0010
,
0001
0001
0100
0010
,
1000
0001
2002
0000
,
3000
0013
0220
0000
,
0000
0000
0330
0000
;

//---------------dance-single - RaverAce----------------
#NOTEDATA:;
#CHARTNAME:;
#STEPSTYPE:dance-single;
#DESCRIPTION:RaverAce;
#CHARTSTYLE:;
#DIFFICULTY:Medium;
#METER:12;
#RADARVALUES:0.530923,0.643823,0.603379,0.708314,0.030606,425.000000,356.000000,69.000000,81.000000,0.000000,0.000000,0.000000,0.000000,0.000000,0.530923,0.643823,0.603379,0.708314,0.030606,425.000000,356.000000,69.000000,81.000000,0.000000,0.000000,0.000000,0.000000,0.000000;
#CREDIT:RaverAce;
#NOTES:
0000
0000
0000
0000
,
0000
0000
0000
0000
,
0000
0000
0000
0000
,
0000
0000
0000
0000
,
0000
0000
0000
0000
,
1000
0100
1100
0000
1000
0001
0100
0000
,
0010
0100
0101
0000
0001
1000
0100
0000
,
0010
0001
1001
0000
1000
0010
0100
0001
,
0011
0000
0001
1000
1010
0000
1000
0001
,
0011
0010
0100
1000
0001
0010
0100
1000
,
0010
0100
0001
1000
0010
0100
0001
1000
,
0100
0100
0010
0010
0001
0001
1000
0001
,
2002
0000
3000
0000
0013
0100
1000
0001
,
1002
0103
0102
0013
,
0210
0000
2300
0000
3010
0000
0100
0001
,
2000
0000
3100
1000
0010
0000
0100
0001
,
0010
0000
0000
0000
0100
0000
0010
0001
0000
0200
0000
0000
0000
0000
0301
0000
,
2001
3100
2100
3010
,
0210
0000
0302
0000
0013
0000
0100
1000
,
0002
0000
0103
0001
0010
0000
0100
1000
,
0010
0000
2000
0000
0000
0000
3010
0000
0200
0000
0000
0302
0000
0000
0013
0000
,
0110
0000
1001
0001
0100
0001
0010
0000
,
0001
0100
0010
1000
0100
1000
0010
0000
,
1000
0100
0001
0100
2000
0000
3001
0000
,
0101
0100
0010
0010
1000
0100
0010
0001
,
1001
0000
1100
0000
1000
0010
0100
0001
,
1001
0000
0101
0000
0001
0010
0100
1000
,
1001
1010
0110
0101
,
2001
0000
3200
0000
0302
0000
0103
1000
,
2001
3020
0000
0000
,
0000
0000
0000
0000
,
0230
0000
0302
0000
,
0203
0000
0320
2030
,
3200
0320
0000
0000
,
0230
0000
0000
0000
,
2300
0000
0000
0000
,
0002
0000
0000
3003
,
1002
0023
0230
2300
,
3020
0000
0000
0000
0000
0000
0130
0010
,
0200
0302
0023
0200
,
0000
0000
0000
0330
,
2001
3020
0230
0302
,
0023
0000
0130
2000
,
0000
0000
3002
0103
,
0220
0330
0200
0301
,
1002
1000
1000
2003
,
0100
0100
3100
0200
,
0010
0010
0310
0020
,
0001
0001
0001
0031
,
1001
0000
1000
0010
0210
0000
0301
0010
,
0210
0000
1300
0010
0210
0000
0301
0010
,
0110
0000
0000
0100
1000
0000
0000
1000
0001
0000
0000
0001
0100
0000
0010
0000
,
0220
0000
0000
0330
1001
0000
1100
0000
,
0110
0011
2001
3200
,
0310
0001
1000
0010
1010
0000
1100
0000
,
1010
0102
0013
0110
,
1100
0000
1000
0001
1001
0000
0101
0000
,
0110
0000
1010
0000
1002
0000
0103
0001
,
0011
0000
1100
0000
2000
0000
3100
1000
,
1010
0101
0002
0013
,
0100
0010
0001
1000
1001
0000
1010
0000
,
1001
0011
0210
1000
,
0010
0000
1300
0001
1001
0000
0101
0000
,
1010
0210
0001
0320
,
2030
0000
3001
0000
1000
0010
1000
0010
,
0100
0001
0100
0001
0010
0001
0010
0001
,
2000
3020
0230
0302
,
0023
0130
0220
0000
,
0330
0100
0010
0000
1001
1000
0001
0100
,
0001
0010
0100
1000
0100
0010
0001
0100
,
0010
0100
0001
1000
1000
0001
1000
0100
,
1000
0010
0100
0001
0100
0010
1000
0100
,
0010
0100
1000
0001
1000
0010
1000
0010
,
0100
0001
0100
0001
0010
0001
0010
0001
,
1000
0100
1000
0100
1000
0010
0001
0010
,
1000
0100
0001
0100
0120
0000
0032
0000
,
1003
0000
0000
0001
0100
0000
0001
0000
2002
0000
0000
0000
0000
0000
0000
0000
,
0000
0000
3003
0000
;

//---------------dance-single - RaverAce----------------
#NOTEDATA:;
#CHARTNAME:;
#STEPSTYPE:dance-single;
#DESCRIPTION:RaverAce;
#CHARTSTYLE:;
#DIFFICULTY:Hard;
#METER:15;
#RADARVALUES:0.715810,0.847135,0.402253,0.454720,0.480954,573.000000,527.000000,46.000000,52.000000,0.000000,0.000000,0.000000,0.000000,0.000000,0.715810,0.847135,0.402253,0.454720,0.480954,573.000000,527.000000,46.000000,52.000000,0.000000,0.000000,0.000000,0.000000,0.000000;
#CREDIT:RaverAce;
#NOTES:
// measure 0
0000
0000
0000
0000
,  // measure 1
0000
0000
0000
0000
,  // measure 2
0000
0000
0000
0000
,  // measure 3
0000
0000
0000
0000
,  // measure 4
0000
0000
0000
0000
,  // measure 5
1001
0000
0001
1000
0100
0000
0010
0000
0001
0000
0100
0001
0100
0000
0001
0000
,  // measure 6
0011
0000
0010
0100
1000
0000
0010
0000
0100
0000
0001
1000
0000
0100
1000
0000
,  // measure 7
1010
0000
0010
0100
0001
0000
1000
0000
0100
0000
0010
0001
0010
0000
0100
0000
,  // measure 8
1100
0000
1000
0010
0100
0000
0001
0000
0011
0000
0010
0100
0000
0100
1000
0000
,  // measure 9
1001
0001
0100
1000
0100
0001
0100
0010
,  // measure 10
1000
0100
0001
0100
1000
0100
0001
0100
,  // measure 11
1000
0100
1000
0100
0010
0001
0010
0001
0100
0010
1000
0010
0100
0001
0010
0100
,  // measure 12
2000
0000
0000
0000
0000
0000
0000
0000
3010
1000
0010
1000
0001
0000
0010
0000
,  // measure 13
0120
0000
0000
0000
0032
0000
0000
0000
0103
0001
0100
0000
0001
0000
0010
0000
,  // measure 14
0100
0000
0100
0000
1000
0000
0000
0000
0010
1000
0010
0000
0100
0000
0001
0000
,  // measure 15
0010
0100
0010
0000
0100
0000
1000
0000
0010
0100
0010
0000
0100
0000
0001
0000
,  // measure 16
0010
0100
0010
0000
0001
0000
0100
0010
0000
1020
0000
0000
0000
0000
0130
0000
,  // measure 17
0120
0000
0000
0000
2030
0000
0000
0000
3100
1000
0100
0000
1000
0000
0010
0000
,  // measure 18
0100
0000
0100
0000
0001
0000
0000
0000
0010
0001
0010
0000
0100
0000
1000
0000
,  // measure 19
0010
0100
0010
0000
0100
0000
0001
0000
0010
0100
0010
0000
0100
0000
1000
0000
,  // measure 20
0010
0100
0010
0000
0100
0000
0001
0000
1001
0000
0000
1100
0000
0000
0100
0000
,  // measure 21
0010
0000
0000
0000
1001
0000
0001
0000
1000
0010
1000
0000
0100
0000
0010
0000
,  // measure 22
0001
0000
0100
0000
1000
0000
0100
0000
0001
0010
0001
0000
0100
0000
0001
0000
,  // measure 23
1000
0100
1000
0000
0010
0000
0100
0000
0001
0100
0001
0000
0010
0000
0100
0000
,  // measure 24
0010
0001
0010
0000
0100
0000
1000
0000
0010
1000
0010
0000
0100
0000
0001
0000
,  // measure 25
0011
0000
0000
0000
1100
0000
0000
0000
1000
0100
0010
0000
0001
0000
1000
0000
,  // measure 26
1010
0000
0000
0000
0101
0000
0000
0000
0001
0100
0010
0000
1000
0000
0001
0000
,  // measure 27
0011
0000
0000
0010
0100
0000
1000
0000
1010
0000
0000
0010
0100
0000
0001
0000
,  // measure 28
0010
0100
0000
0010
0001
0000
1000
0000
0010
0100
0000
0010
1000
0000
0001
0000
,  // measure 29
1002
0023
0000
0000
,  // measure 30
0000
0000
0000
0000
,  // measure 31
0230
0000
2300
0000
,  // measure 32
3200
0000
0320
0032
,  // measure 33
0203
0320
0000
0000
,  // measure 34
0230
0000
0000
0000
,  // measure 35
0302
0000
0000
0000
,  // measure 36
2000
0000
0000
3003
,  // measure 37
2001
3020
0230
0302
,  // measure 38
0023
0000
0000
0000
0000
0000
0130
0010
,  // measure 39
0200
0320
0032
0200
,  // measure 40
0000
0000
0000
0303
,  // measure 41
1002
0023
0230
2300
,  // measure 42
3020
0000
1030
0202
,  // measure 43
0000
0303
0001
1200
,  // measure 44
1300
0100
0000
0100
1000
0000
0100
0000
0010
0001
0000
0001
0100
0000
0010
0000
,  // measure 45
0210
0010
0010
0320
,  // measure 46
1000
0000
1000
0000
1000
0000
1030
0010
,  // measure 47
2000
0100
0100
3200
,  // measure 48
0010
0000
0010
0000
0010
0000
0310
0001
,  // measure 49
0011
0000
0000
0010
0001
0000
0100
0000
0110
0000
0000
0100
0001
0000
1000
0000
,  // measure 50
1010
0000
0000
0010
1000
0000
0100
0000
0110
0000
0000
0100
1000
0000
0001
0000
,  // measure 51
1001
0000
0000
1000
0010
0000
0000
0010
0100
0000
0000
0100
0010
0000
1000
0002
,  // measure 52
2000
0000
0000
0000
0000
0000
0000
0000
3003
0000
0000
0001
0010
0000
0100
0000
1000
0000
0010
0000
0100
0000
0000
0000
0001
0000
1000
0000
0100
0000
0000
0000
,  // measure 53
1000
0001
0010
0000
0001
1000
0010
0000
0110
0000
0100
0000
0001
0100
0001
0000
,  // measure 54
0010
0001
0010
0000
0100
0000
1000
0000
0010
1000
0001
0000
0010
0001
1000
0000
,  // measure 55
0100
1000
0001
0000
0100
0001
1000
0000
0100
0000
0010
0000
0001
0100
0010
0000
,  // measure 56
1000
0001
0100
0000
1000
0000
0100
0000
0001
0010
0100
0000
1000
0001
0100
0000
,  // measure 57
0001
1000
0010
0000
1000
0001
0010
0000
0110
0000
0100
0000
1000
0100
1000
0000
,  // measure 58
1020
0000
0000
0000
0130
0001
0010
0000
1000
0000
0010
0000
0100
0000
0010
0000
,  // measure 59
0021
0000
0000
0000
0130
1000
0010
0000
0001
0000
0010
0000
0100
0010
0100
0000
,  // measure 60
0010
1000
0010
0000
1000
0000
0001
0000
1001
0000
0000
0000
1100
0000
0000
0000
,  // measure 61
0110
0000
0011
0010
0110
0000
1100
0000
,  // measure 62
1001
0000
1010
0010
0110
0100
0001
0010
,  // measure 63
1000
0010
0120
0000
0031
0000
0201
0000
,  // measure 64
0320
0000
2030
0000
3100
0100
1000
1000
,  // measure 65
0100
0100
0010
0010
0001
0001
0100
0100
,  // measure 66
0001
0000
0001
0000
0010
0000
0010
0000
0100
1000
0100
1000
0001
0100
0001
0100
,  // measure 67
0010
1000
0100
1000
0010
0100
0001
1000
0200
0000
0000
0000
0010
0000
0000
0000
,  // measure 68
1300
0000
0100
0010
0001
0000
0000
0000
1100
0000
1000
0010
0100
0000
0001
0000
,  // measure 69
0100
0010
1000
0000
0100
0000
0001
0100
0010
0000
0001
1000
0010
0000
0100
0000
,  // measure 70
0001
0010
0100
0000
0010
0000
0001
0000
0100
0000
0001
0010
0100
0000
1000
0000
,  // measure 71
0100
0010
0001
0000
0100
0000
1000
0100
0010
0000
1000
0001
0010
0000
0100
0000
,  // measure 72
1000
0010
0100
0000
0010
0000
1000
0000
0001
0000
0010
0000
1000
0000
0001
0000
,  // measure 73
0100
1000
0001
0001
1000
0010
0001
1000
,  // measure 74
0100
0000
0001
0000
1000
0000
1000
0000
0001
0100
0001
0100
0010
1000
0010
1000
,  // measure 75
0100
0010
0001
0100
0010
1000
0001
0010
0200
0000
0000
0000
0320
0000
0000
0000
,  // measure 76
0031
0000
0100
0010
1000
0000
0001
0000
2002
0000
0000
0000
0000
0000
0000
0000
,  // measure 77
0000
0000
3003
0000
;

//---------------dance-double - RaverAce----------------
#NOTEDATA:;
#CHARTNAME:;
#STEPSTYPE:dance-double;
#DESCRIPTION:RaverAce;
#CHARTSTYLE:;
#DIFFICULTY:Easy;
#METER:6;
#RADARVALUES:0.264837,0.338854,0.288573,0.410997,0.000000,212.000000,179.000000,33.000000,47.000000,0.000000,0.000000,0.000000,0.000000,0.000000,0.264837,0.338854,0.288573,0.410997,0.000000,212.000000,179.000000,33.000000,47.000000,0.000000,0.000000,0.000000,0.000000,0.000000;
#CREDIT:RaverAce;
#NOTES:
00000000
00000000
00000000
00000000
,
00000000
00000000
00000000
00000000
,
00000000
00000000
00000000
00000000
,
00000000
00000000
00000000
00000000
,
00000000
00000000
00000000
00000000
,
00001001
00000000
00001000
00000000
,
00001100
00000000
00000100
00000000
,
00010100
00000000
00010000
00000000
,
00011000
00000000
00101000
00000000
,
10010000
00000000
00010000
00000000
,
01010000
00000000
01000000
00000000
,
01001000
00000000
00001000
00000000
,
00022000
00000000
00000000
00033000
,
00110000
00000000
00100000
00000000
,
01000000
00000000
00100000
00000000
,
00001000
00000000
00010000
00000000
,
00000100
00000000
00001000
00000000
,
00001010
00000000
00000010
00000000
,
00000100
00000000
00000010
00000000
,
00010000
00000000
00001000
00000000
,
01000000
00000000
01010000
00000000
,
00011000
00010000
00000100
00000000
,
00001000
00000100
00000010
00000000
,
00000001
00000100
00000010
00000000
,
00010000
00000100
00001000
00000100
,
00010100
00010000
00001000
00000000
,
01001000
01000000
00001000
00000000
,
00011000
00001000
00100000
01000000
,
10000000
00010000
01000000
00001000
,
00020000
00002000
00000000
00000000
,
00030000
00000000
00000000
00000000
,
00203000
00000000
00000000
00000000
,
02300000
00000000
00000000
00000000
,
23000000
00000000
00000000
00000000
,
00000000
00000000
00000000
00000000
,
30020000
00000000
00000000
00000000
,
02030000
00000000
00000000
03000000
,
01002000
00023000
00030200
00000320
,
00000032
00000000
00000000
00000000
,
00000203
00000320
00002030
00000200
,
00000000
00000000
00000000
00003000
,
00020300
00032000
02003000
03200000
,
20300000
00000000
32000000
03200000
,
00000000
00000000
00302000
00013000
,
00022000
00000000
00000000
00033000
,
00022000
00000000
00000000
00000000
,
00000000
00000000
00000000
00000000
,
00000000
00000000
00000000
00000000
,
00000000
00000000
00000000
00033000
,
00001100
00000000
00000011
00000000
,
00001001
00000000
00010100
00000000
,
00011000
00000000
00101000
00000000
,
00022000
00033000
00001100
00001000
,
00000010
00000100
00000002
00000000
,
00000000
00001003
00000100
00010000
,
00001000
00020000
00000000
00031000
,
00100000
01000000
10000000
00100000
,
01000000
00010000
00210000
00000000
,
01300000
20000000
00000000
30010000
,
01000000
00200000
00000000
10300000
,
00010000
00100000
01100000
01000000
,
00100000
00001000
00010000
00000200
,
00001000
00001000
00002300
00003010
,
00000100
00000001
00000010
00000100
,
00010000
00001000
00011000
00010000
,
00000100
00001000
00000020
00000000
,
00001030
00000100
00010000
00001000
,
00100000
01000000
22000000
00000000
,
00000000
33000000
10010000
10000000
,
01000000
00100000
00001000
00010000
,
00000100
00000010
00000001
00000100
,
00000010
00010000
00001000
00100000
,
01000000
10000000
00010000
00010000
,
01000000
01000000
00001000
00001000
,
00010000
00010000
00000100
00000100
,
00001000
00001000
00000200
00020300
,
00032000
00103000
02200000
00000000
,
00000000
00000000
03300000
00000000
;

//---------------dance-double - RaverAce----------------
#NOTEDATA:;
#CHARTNAME:;
#STEPSTYPE:dance-double;
#DESCRIPTION:RaverAce;
#CHARTSTYLE:;
#DIFFICULTY:Medium;
#METER:11;
#RADARVALUES:0.468462,0.609937,0.533422,0.655847,0.013117,375.000000,314.000000,61.000000,75.000000,0.000000,0.000000,0.000000,0.000000,0.000000,0.468462,0.609937,0.533422,0.655847,0.013117,375.000000,314.000000,61.000000,75.000000,0.000000,0.000000,0.000000,0.000000,0.000000;
#CREDIT:RaverAce;
#NOTES:
00000000
00000000
00000000
00000000
,
00000000
00000000
00000000
00000000
,
00000000
00000000
00000000
00000000
,
00000000
00000000
00000000
00000000
,
00000000
00000000
00000000
00000000
,
00001001
00001000
00000100
00001000
,
00001100
00000100
00010000
00001000
,
00011000
00010000
00001000
00100000
,
01100000
01000000
11000000
10000000
,
00100000
10000000
00100000
10000000
01000000
10000000
01000000
10000000
,
00010000
01000000
00010000
01000000
00001000
00010000
00001000
00010000
,
00000100
00001000
00000100
00001000
00000010
00000100
00000001
00000010
,
00000220
00000000
00000000
00000000
00000330
00000000
00000100
00000010
,
00000021
00000031
00000201
00000301
,
00000010
00000100
00010000
00001000
,
00100000
01000000
10000000
00010000
,
01000000
00000000
00000000
00000000
00001000
00000000
00100000
00010000
00000000
02000000
00000000
00000000
00000000
00000000
03100000
00000000
,
10200000
10300000
12000000
13000000
,
00100000
01000000
00001000
00010000
,
00000010
00000100
00000001
00001000
,
00000100
00000000
00001000
00000000
00000010
00000000
00000000
00000000
00000210
00000000
00000000
00000302
00000000
00000000
00001003
00000000
,
00000100
00000000
00001100
00000000
00001000
00000001
00000100
00000000
,
00000010
00010000
00001000
00000000
00100000
01000000
10000000
00000000
,
00100000
01000000
00010000
00000000
10000000
01000000
00100000
00000000
,
00102000
00023000
00030200
00001300
,
00001100
00001010
00000020
00010030
,
00011000
00101000
00200000
01300000
,
11000000
10000000
10100000
00100000
,
02100000
03002000
00023000
00030200
,
00002300
00003020
00000000
00000000
,
00000000
00000000
00000000
00000000
,
00000230
00000000
00000302
00000000
,
00000023
00000000
00000230
00020300
,
00032000
00020000
00000000
00000000
,
00000000
00000000
00000000
00003000
,
00032000
00000000
00000000
00000000
,
00200000
00000000
00000000
00303000
,
00110000
00100000
01000000
10000000
,
00200000
00000000
00000000
00000000
00000000
00000000
01300000
00001000
,
00020000
00030200
00002300
00003020
,
00000000
00000000
00000000
00001030
,
00002010
00003020
00000230
00000302
,
00000023
00000000
00000230
00002300
,
00000000
00000000
00003100
00010000
,
00022000
00000000
00000000
00033000
,
00010200
00010000
00010000
00020300
,
00001000
00001000
00001000
00032000
,
00100000
00100000
00100000
00203000
,
01000000
01000000
01000000
01300000
,
11000000
10000000
10100000
00100000
,
01100000
01000000
01001000
00001000
,
00011000
00010100
00011000
01001000
,
00022000
00033000
01010000
00110000
,
01100000
11000000
10200000
01000000
,
10300000
00000000
00100000
10000000
01000000
00000000
00100000
00000000
,
00110000
00102000
00023000
00030200
,
00000320
00000130
00001100
00001010
,
00000110
00000101
00000021
00000100
,
00000031
00002001
00003100
00010000
,
00011000
00201000
02300000
23000000
,
30020000
00000000
01030000
00001000
00011000
00000000
00001010
00000000
,
00000110
00000101
00000021
00000100
,
00000130
00000000
00000100
00000010
00000011
00000000
00001001
00000000
,
00010100
00201000
02300000
23000000
,
30020000
00000000
02030000
00000000
03001000
00010000
00001000
00010000
,
00000100
00001000
00000100
00001000
00000010
00000100
00000010
00000100
,
00000001
00000010
00000001
00000010
00000100
00001000
00000010
00000100
,
00000001
00001000
00000100
00010000
00020200
00000000
00000000
00000000
,
00000000
00000000
00030300
00000000
00001010
00001000
00000100
00000010
,
00000001
00001000
00000010
00010000
00001000
00100000
01000000
10000000
,
00200000
00000000
01300000
00010000
10000000
01000000
00100000
00001000
,
00010000
00000100
00001000
00000010
00000100
00000001
00000010
00000100
,
00002000
00000000
00003001
00000100
00000010
00000010
00001000
00001000
,
00000100
00000100
00010000
00010000
00001000
00001000
00100000
00100000
,
01000000
01000000
10000000
10000000
00100000
01000000
00001000
00010000
,
00000010
00000100
00000001
00000010
00000210
00000000
00002300
00000000
,
00003200
00000000
00010300
00001000
00022000
00000000
00000000
00000000
,
00000000
00000000
00033000
00000000
;

//---------------dance-double - RaverAce----------------
#NOTEDATA:;
#CHARTNAME:;
#STEPSTYPE:dance-double;
#DESCRIPTION:RaverAce;
#CHARTSTYLE:;
#DIFFICULTY:Hard;
#METER:15;
#RADARVALUES:0.689576,0.847135,0.393508,0.472210,0.428486,552.000000,507.000000,45.000000,54.000000,0.000000,0.000000,0.000000,0.000000,0.000000,0.689576,0.847135,0.393508,0.472210,0.428486,552.000000,507.000000,45.000000,54.000000,0.000000,0.000000,0.000000,0.000000,0.000000;
#CREDIT:RaverAce;
#NOTES:
00000000
00000000
00000000
00000000
,
00000000
00000000
00000000
00000000
,
00000000
00000000
00000000
00000000
,
00000000
00000000
00000000
00000000
,
00000000
00000000
00000000
00000000
,
10010000
00000000
10000000
00100000
01000000
00000000
00001000
00000000
00010000
00000000
00000100
00000000
00000110
00000000
00000000
00000000
,
00000011
00000000
00000001
00000010
00000100
00000000
00001000
00000000
00000100
00000000
00010000
00000000
00011000
00000000
00000000
00000000
,
00001100
00000000
00001000
00000001
00000010
00000000
00000100
00000000
00010000
00000000
00001000
00000000
00101000
00000000
00000000
00000000
,
01100000
00000000
00100000
00010000
00011000
00000000
00001000
00010000
,
00010100
00000100
00001000
00001000
00000001
00000001
00000100
00000100
,
00000010
00000010
00001000
00001000
00000100
00000100
00010000
00010000
,
00001000
00010000
00001000
00010000
00001000
00100000
00001000
00100000
01000000
00100000
01000000
00100000
00010000
01000000
00100000
10000000
,
00020000
00000000
00000000
00000000
00000000
00000000
00000000
00000000
01030000
00010000
01000000
00010000
00100000
00000000
00001000
00000000
,
00012000
00000000
00000000
00000000
00013000
00000000
00000000
00000000
00001000
00010000
00001000
00000000
00010000
00000000
00000100
00000000
,
00001000
00000000
00000010
00000000
00000100
00000000
00000001
00000000
00000010
00000100
00000010
00000000
00000001
00000000
00001000
00000000
,
00000010
00001000
00000010
00000000
00001000
00000000
00000100
00000000
00010000
00001000
00010000
00000000
00100000
00000000
01000000
00000000
,
10000000
00100000
10000000
00000000
00010000
00000000
01000000
00100000
00000000
02100000
00000000
00000000
00000000
00000000
03001000
00000000
,
00021000
00000000
00000000
00000000
00031000
00000000
00000000
00000000
00010000
00001000
00010000
00000000
00001000
00000000
01000000
00000000
,
00010000
00000000
00100000
00000000
01000000
00000000
10000000
00000000
00100000
01000000
00100000
00000000
10000000
00000000
00010000
00000000
,
00100000
00010000
00100000
00000000
00010000
00000000
01000000
00000000
00001000
00010000
00001000
00000000
00000010
00000000
00000100
00000000
,
00000001
00000000
00000100
00000000
00000010
00000000
00001000
00000000
00001001
00000000
00000000
00020100
00000000
00000000
00031000
00000000
,
00100000
00000000
00000000
00000000
01100000
00000000
01000000
00000000
10000000
01000000
10000000
00000000
00100000
00000000
01000000
00000000
,
01002000
00000000
00013000
00010200
00000000
00000320
00000000
00000031
,
00000011
00000000
00000010
00000000
00000100
00000000
00010000
00000000
00001000
00010000
00001000
00000000
01000000
00000000
00100000
00000000
,
10000000
01000000
00010000
00001000
00000100
00000001
00001000
00000100
,
00001100
00000000
00000000
00000000
00010100
00000000
00000000
00000000
00010000
00001000
00010000
00000000
00001000
00000000
01000000
00000000
,
01010000
00000000
00000000
00000000
01001000
00000000
00000000
00000000
00001000
00010000
00001000
00000000
00010000
00000000
00000100
00000000
,
00000110
00000000
00000000
00000010
00000001
00000000
00000000
00000001
00000100
00000000
00000000
00000100
00000010
00000000
00000000
00000010
,
00010000
00001000
00000000
00100000
00010000
00000000
01000000
00000000
00100000
00001000
00000000
00010000
00001000
00000000
00000100
00000000
,
00020000
00032000
00000000
00000000
,
00000000
00000000
00000000
00000000
,
00203000
00000000
02300000
00000000
,
23000000
00000000
30020000
02030000
,
03002000
00023000
00000000
00000000
,
00030200
00000000
00000000
00000000
,
00000320
00000000
00000000
00000000
,
00000002
00000000
00000000
00000033
,
00002001
00003200
00020300
00032000
,
00203000
00000000
00000000
00000000
00000000
00000000
01300000
10000000
,
00200000
02300000
03002000
02003000
,
00000000
00000000
00000000
03100000
,
10020000
02030000
03002000
00023000
,
00030020
00000000
00000230
00000302
,
00000000
00000000
00001003
00000100
,
00001000
00000100
00000000
00010000
00001000
00000000
00100000
00000000
01000000
10000000
00000000
00100000
01000000
00000000
00001000
00000000
,
00012000
00010000
00010000
00023000
,
00000100
00000100
00000100
00030200
,
00001000
00001000
00001000
00002300
,
00000010
00000010
00000010
00003020
,
00000130
00000000
00000000
00000001
00001000
00000000
00000100
00000000
00010000
00000000
00000000
00001000
00100000
00000000
01000000
00000000
,
10000000
00000000
00000000
00100000
01000000
00000000
00010000
00000000
00100000
00000000
00000000
00001000
00010000
00000000
00000100
00000000
,
00001000
00000000
00000010
00000100
00000001
00000000
00000010
00000100
00001000
00000000
00010000
00001000
00100000
00000000
01000000
00000000
,
02200000
00000000
00000000
00000000
00000000
00000000
00000000
00000000
00000000
00000000
03300000
10000000
01000000
00000000
00100000
00000000
00010000
00000000
01000000
00000000
00100000
00000000
00000000
00000000
10000000
00000000
00010000
00000000
01000000
00000000
00000000
00000000
,
00001000
00010000
00000100
00000000
00001000
00000010
00000100
00000000
00000110
00000000
00000010
00000000
00001000
00000010
00001000
00000000
,
00000001
00000100
00000001
00000000
00000010
00000000
00000100
00000000
00010000
00001000
00100000
00000000
01000000
10000000
00010000
00000000
,
01000000
00001000
00010000
00000000
00011000
00000000
00001000
00000000
00010000
00000000
00000100
00000000
00001000
00000100
00001000
00000000
,
00000010
00000100
00000010
00000000
00001000
00000000
00000001
00000000
00001000
00000100
00000010
00000000
00000001
00001000
00000100
00000000
,
00010000
00001000
01000000
00000000
00010000
00100000
01000000
00000000
01100000
00000000
00100000
00000000
01000000
10000000
01000000
00000000
,
11000000
00000000
00000000
00000000
10000000
00100000
01000000
00000000
00001000
00000000
00010000
00000000
00000010
00000000
00000100
00000000
,
00000101
00000000
00000000
00000000
00000001
00000010
00000100
00000000
00010000
00000000
00001000
00000000
00100000
01000000
00100000
00000000
,
10000000
01000000
10000000
00000000
00010000
00000000
01000000
00000000
01001000
00000000
00000000
00000000
00011000
00000000
00000000
00000000
,
00001100
00000000
00011000
00001000
00011000
00000000
00010010
00000000
,
00000110
00000000
00000100
00000001
00000011
00000000
00001100
00000000
,
00010100
00012000
00203000
02300000
,
23000000
00000000
30200000
00000000
01300000
01000000
00010000
00010000
,
00100000
00100000
00001000
00001000
00010000
00010000
00000100
00000100
,
00000010
00000000
00000010
00000000
00000001
00000000
00000001
00000000
00000100
00000001
00000100
00000001
00001000
00000010
00001000
00000010
,
00010000
00001000
00010000
00001000
00100000
01000000
10000000
00100000
02000000
00000000
00000000
00000000
03020000
00000000
00000000
00000000
,
00130000
00000000
00001000
00010000
00001000
00000000
00000000
00000000
00010010
00000000
00010000
00000100
00010000
00000000
00000100
00000000
,
00000010
00000001
00000010
00000000
00000001
00000000
00000100
00000001
00000100
00000000
00000001
00001000
00000001
00000000
00000010
00000000
,
00000100
00010000
00000100
00000000
00010000
00000000
00001000
00000000
00100000
00000000
00001000
01000000
00001000
00000000
01000000
00000000
,
00100000
10000000
00100000
00000000
10000000
00000000
01000000
10000000
01000000
00000000
10000000
00010000
10000000
00000000
00100000
00000000
,
01000000
00001000
01000000
00000000
00001000
00000000
00010000
00000000
00000010
00000000
00000010
00000000
00000100
00000000
00000100
00000000
,
00000001
00000001
00001000
00001000
00000100
00000100
00010000
00010000
,
00001000
00000000
00001000
00000000
01000000
00000000
01000000
00000000
00100000
10000000
00100000
10000000
00010000
01000000
00010000
01000000
,
00001000
00010000
00001000
00010000
00000100
00000010
00000001
00000100
00000020
00000000
00000000
00000000
00002030
00000000
00000000
00000000
,
00003001
00000000
00000000
00000001
00001000
00000000
00000100
00000000
00020200
00000000
00000000
00000000
00000000
00000000
00000000
00000000
,
00000000
00000000
00030300
00000000
;
