#TITLE:I Forgive You;
#SUBTITLE:;
#ARTIST:Kelly Clarkson;
#TITLETRANSLIT:;
#SUBTITLETRANSLIT:;
#ARTISTTRANSLIT:;
#GENRE:;
#CREDIT:Nezemarth;
#BANNER:I Forgive You.png;
#BACKGROUND:I Forgive You-bg.png;
#LYRICSPATH:;
#CDTITLE:;
#MUSIC:I Forgive You.ogg;
#OFFSET:-0.178000;
#SAMPLESTART:33.929001;
#SAMPLELENGTH:12.000000;
#SELECTABLE:YES;
#BPMS:0.000000=128.009995
,165.000000=64.004997
,178.750000=128.009995
;
#STOPS:68.000000=1.406000,
178.750000=1.055000
;
#BGCHANGES:;
#KEYSOUNDS:;
#ATTACKS:;

//---------------dance-single - ----------------
#NOTES:
     dance-single:
     :
     Hard:
     12:
     0.555873,0.837112,0.498448,0.225106,0.140691,484.000000,422.000000,62.000000,28.000000,0.000000,0.000000,0.555873,0.837112,0.498448,0.225106,0.140691,484.000000,422.000000,62.000000,28.000000,0.000000,0.000000:
// measure 0
0000
0000
0000
0000
,  // measure 1
0000
0000
0000
0000
,  // measure 2
1001
0000
1000
0100
0001
0100
0020
0000
,  // measure 3
0031
0100
1000
0100
0020
0000
0030
1000
,  // measure 4
0001
0010
0001
1000
1000
0010
0100
0001
,  // measure 5
2000
0000
3100
0010
0001
0100
0010
0001
,  // measure 6
0011
0000
0001
0010
1000
0100
0020
0000
,  // measure 7
1030
0010
0001
0100
0020
0000
0030
0001
,  // measure 8
0010
1000
1000
0001
0010
0100
0010
0001
,  // measure 9
2000
0000
3000
0000
0010
0100
0101
0000
,  // measure 10
1000
0100
0001
0100
1000
0100
0010
0001
,  // measure 11
0100
1000
0100
0000
0001
1000
1100
0000
,  // measure 12
1000
0100
0001
0100
1000
0100
0010
0001
,  // measure 13
0100
1000
0100
0020
0000
1030
0100
0020
,  // measure 14
0000
1030
0010
0001
0000
1000
0100
0020
,  // measure 15
0000
0031
0100
0000
1000
0100
0010
0000
,  // measure 16
1000
0100
0010
0001
0100
0010
0001
0020
,  // measure 17
0030
0000
1001
0000
1000
0100
0001
0100
,  // measure 18
0120
0000
0031
0001
1000
1000
0010
0100
,  // measure 19
1000
0100
0101
0000
1000
0100
0010
1000
,  // measure 20
0010
0001
1000
0010
1010
0000
0010
0010
,  // measure 21
0100
0001
1000
0100
1100
0000
0100
0010
,  // measure 22
0011
0000
1001
0000
1010
0010
0110
0000
,  // measure 23
0101
0001
1000
0100
0010
1001
0000
0000
,  // measure 24
0101
0000
0000
0000
0000
0000
0100
0000
0010
0000
1000
0000
0100
0000
0010
0001
,  // measure 25
1000
0000
0010
0100
1000
0000
0000
0000
0100
0000
0010
0000
0001
0000
0010
0000
,  // measure 26
0210
0000
0301
0001
1000
1000
0100
0010
,  // measure 27
1000
0010
0011
0000
1001
1000
0010
0100
,  // measure 28
0001
0011
0000
0010
0100
0000
1000
1000
,  // measure 29
0001
0000
1000
0010
1000
0000
0100
0000
0110
0000
0000
0000
0001
0000
1000
0000
,  // measure 30
1010
0000
0110
0000
0101
0001
1001
0000
,  // measure 31
1100
1000
0001
0010
0100
1001
0000
0000
,  // measure 32
0101
0000
1001
0100
0010
1001
0100
0010
,  // measure 33
1000
0100
1000
0100
0010
0000
0000
0000
0001
0000
0100
0000
1000
0000
0100
0000
,  // measure 34
0020
0000
0030
1000
0001
0001
0010
0001
,  // measure 35
1000
2010
0000
0100
3001
0001
0010
0001
,  // measure 36
0100
1000
0100
0010
1000
0100
0000
0011
,  // measure 37
1000
0000
0100
0010
0002
0000
0000
0000
0100
0000
0000
0000
1000
0000
0000
0000
,  // measure 38
0100
0000
0013
0100
0001
0100
1000
0010
,  // measure 39
0002
0000
0010
0010
2003
0000
0100
0100
,  // measure 40
3001
0000
0011
0010
1000
1000
0100
0100
,  // measure 41
0001
0000
0001
0000
0000
0000
0001
0100
2000
0000
3020
0000
0130
0100
1000
1000
,  // measure 42
0001
0010
0100
0002
0000
0003
1000
1000
0100
0100
0010
2000
0000
3010
0100
0000
,  // measure 43
1000
0000
0001
0000
0100
0000
0010
1000
0001
0000
0010
0000
0100
0000
1000
0000
0010
0000
0100
0000
0101
0000
0000
0000
0010
0000
0100
0000
1000
0000
0001
0000
,  // measure 44
0100
0010
1010
0000
0001
0010
0100
1000
0010
0100
0101
1001
0000
0000
0000
0000
,  // measure 45
0001
1000
0001
1000
0100
0000
0000
0000
0010
0000
0001
0000
1000
0000
0010
0000
,  // measure 46
2010
0000
3001
0001
1000
1000
0010
0100
,  // measure 47
0001
0000
0000
0022
0000
0000
0000
0000
0033
0000
0000
0000
1001
0000
0000
1000
0000
0000
0100
0000
0000
0100
0000
0000
,  // measure 48
0010
0001
1000
0010
1010
0000
0010
0010
,  // measure 49
0100
0001
1000
0100
0110
0000
0010
0001
,  // measure 50
0101
0000
1010
0000
1001
1000
1100
0000
,  // measure 51
1100
1000
1001
0001
0100
0010
1000
0100
,  // measure 52
1001
0000
0000
0000
0000
0000
0001
0000
0010
0000
1000
0000
0010
0000
0100
1000
,  // measure 53
0001
0100
0001
1000
0001
0000
0000
0000
0100
0000
0010
0000
0001
0000
1000
0000
,  // measure 54
2100
0000
3001
0001
0010
0010
1000
0100
,  // measure 55
0010
1000
2010
0000
3001
0100
1000
0010
,  // measure 56
0100
0110
0000
0100
0101
0000
0001
0001
,  // measure 57
1000
0010
1000
0100
0010
0000
0001
0000
0011
0000
0000
0000
1000
0000
0010
0000
,  // measure 58
1010
0000
0110
0000
0101
0001
1001
0000
,  // measure 59
1100
0001
0011
1000
0010
0100
0001
1000
,  // measure 60
1001
1001
0000
0001
1000
0100
0002
0000
,  // measure 61
0023
0030
0000
0000
;

//---------------dance-single - ----------------
#NOTES:
     dance-single:
     :
     Medium:
     10:
     0.467439,0.689386,0.241185,0.265303,0.072355,407.000000,377.000000,30.000000,33.000000,0.000000,0.000000,0.467439,0.689386,0.241185,0.265303,0.072355,407.000000,377.000000,30.000000,33.000000,0.000000,0.000000:
// measure 0
0000
0000
0000
0000
,  // measure 1
0000
0000
0000
0000
,  // measure 2
0000
0000
1000
0100
0002
0000
0103
0000
,  // measure 3
1000
0010
0002
0000
0023
0000
0030
0010
,  // measure 4
1000
0001
0010
0001
1000
0100
0010
0100
,  // measure 5
1000
0000
0000
0001
1000
0001
0100
0010
,  // measure 6
0001
0000
1000
0100
0002
0000
0013
0000
,  // measure 7
1000
0010
0002
0000
0203
0000
0300
0100
,  // measure 8
0001
1000
0001
0010
0100
1000
0001
1000
,  // measure 9
0100
0000
0010
0001
,  // measure 10
1000
0010
1000
0010
0001
0010
0001
0010
,  // measure 11
1000
0000
0100
0010
,  // measure 12
0001
0100
0001
0100
1000
0100
1000
0100
,  // measure 13
0010
0000
0010
1000
0001
0000
0010
0100
,  // measure 14
2000
0000
3001
0100
1000
0000
0100
0010
,  // measure 15
2000
3200
0302
0023
,  // measure 16
2030
0100
0001
0010
,  // measure 17
3000
0000
1001
0000
1000
0100
0102
0000
,  // measure 18
1000
0000
0103
0100
1000
1000
0010
0010
,  // measure 19
0100
1000
2100
0000
3001
0001
0010
1000
,  // measure 20
0001
0020
0000
1030
0010
0000
0001
0001
,  // measure 21
0100
0010
1000
0010
1010
0000
0000
0000
,  // measure 22
1000
0000
2001
0000
3001
0010
0100
0000
,  // measure 23
1000
1000
0010
0100
0001
1000
0000
0100
,  // measure 24
0010
0000
0010
0001
1000
0020
1000
0000
,  // measure 25
0001
0000
0130
0000
0001
0100
2100
0000
,  // measure 26
0001
0000
3100
0100
0001
0001
1000
0100
,  // measure 27
0010
0100
2100
0000
3001
0001
1000
0100
,  // measure 28
0010
1000
0000
0010
0100
0000
1000
0010
,  // measure 29
0100
0001
1000
0100
0110
0000
0000
0000
,  // measure 30
0010
0000
0012
0000
1003
0001
0100
0000
,  // measure 31
0010
0010
1000
0001
0010
0100
0000
1000
,  // measure 32
0100
0000
0010
0001
1000
0020
0100
0000
,  // measure 33
0001
0000
1030
0000
1000
0100
0020
0000
,  // measure 34
1000
0000
0031
1000
0010
0010
0100
0001
,  // measure 35
1000
0200
0000
0301
0100
1000
0001
0001
,  // measure 36
0100
1000
0100
0100
0010
1000
0000
1010
,  // measure 37
1000
0002
0000
0000
0010
0000
1000
0000
,  // measure 38
0103
0000
0001
0010
1000
0010
0100
1000
,  // measure 39
0002
0000
1000
1000
0010
0000
0100
0100
,  // measure 40
1003
0000
1001
0100
1000
0001
0100
0010
,  // measure 41
1000
0000
1000
0000
0000
0000
0001
0010
0002
0000
0100
0000
1003
0010
1000
0001
,  // measure 42
1000
0100
0010
0001
1000
0000
0010
0100
0001
1000
0001
1000
0000
1000
0100
0000
,  // measure 43
0010
0001
1000
0001
0010
0000
0000
0110
0000
0000
1100
0000
1001
0000
0001
0100
,  // measure 44
1000
0000
1000
0100
0001
1000
0100
0010
0000
0001
1000
1000
0000
0000
0000
0000
,  // measure 45
0100
0100
1001
0000
1000
0010
0012
0000
,  // measure 46
1000
0000
0013
0010
1000
1000
0001
0010
,  // measure 47
0100
0001
0102
0000
1003
1000
0010
0001
,  // measure 48
0100
0020
0000
0031
0010
0000
1000
1000
,  // measure 49
0001
1000
0100
0010
0001
0000
0100
0010
,  // measure 50
0110
0000
1010
0000
1001
1000
1100
0000
,  // measure 51
0001
0001
1000
0010
0100
0001
0010
0100
,  // measure 52
1000
0000
1000
0010
1000
0100
0010
0001
,  // measure 53
1000
1000
1010
0000
0001
0010
2010
0000
,  // measure 54
0001
0000
3010
0010
0001
0001
1000
0010
,  // measure 55
0001
1000
1200
0000
0001
0301
0010
1000
,  // measure 56
0010
0100
0000
1000
0100
0000
0010
0001
,  // measure 57
1000
1000
0010
0100
0001
0000
0010
0100
,  // measure 58
0110
0000
1100
0000
1001
0001
0101
0000
,  // measure 59
0100
0100
0010
1000
0001
0010
0100
1000
,  // measure 60
1001
1001
0000
1000
0001
0100
2000
0000
,  // measure 61
3020
0030
0000
0000
;

//---------------dance-single - ----------------
#NOTES:
     dance-single:
     :
     Easy:
     7:
     0.273343,0.369314,0.112553,0.184908,0.012059,238.000000,224.000000,14.000000,23.000000,0.000000,0.000000,0.273343,0.369314,0.112553,0.184908,0.012059,238.000000,224.000000,14.000000,23.000000,0.000000,0.000000:
// measure 0
0000
0000
0000
0000
,  // measure 1
0000
0000
0000
0000
,  // measure 2
0000
1000
0200
0001
,  // measure 3
1300
0200
0310
0000
,  // measure 4
0001
0001
1000
0010
,  // measure 5
1000
0000
0000
0000
,  // measure 6
0000
0001
0200
1000
,  // measure 7
0301
0200
0310
0000
,  // measure 8
1000
1000
0001
0010
,  // measure 9
0001
0000
0010
0010
,  // measure 10
0200
0000
1000
0010
,  // measure 11
1300
0000
1000
0010
,  // measure 12
0200
0000
0001
0010
,  // measure 13
0301
0000
0001
1000
,  // measure 14
0200
0300
0000
0010
,  // measure 15
0002
0203
2300
3020
,  // measure 16
0032
0100
0000
1000
,  // measure 17
0003
1001
1000
0200
,  // measure 18
0010
1300
0001
0100
,  // measure 19
0010
0100
0001
1000
,  // measure 20
0100
0001
0100
1000
,  // measure 21
1000
0001
0101
0000
,  // measure 22
1000
1010
0001
0011
,  // measure 23
1000
0010
0100
0001
,  // measure 24
1000
0000
1000
0100
,  // measure 25
0010
1001
0001
0200
,  // measure 26
0010
0301
0100
0010
,  // measure 27
1000
0100
0010
1000
,  // measure 28
0010
0001
0001
1000
,  // measure 29
0010
0100
0001
0000
,  // measure 30
0010
0011
1000
1010
,  // measure 31
0010
0100
0001
1000
,  // measure 32
0100
0000
0010
0001
,  // measure 33
0100
0010
1000
0002
,  // measure 34
0023
0030
0100
0100
,  // measure 35
1000
0010
0100
0001
,  // measure 36
1000
0000
0100
0000
0010
0000
0000
0001
,  // measure 37
0001
0100
0000
0000
0110
0000
0000
0000
,  // measure 38
1001
0000
1000
0100
,  // measure 39
0020
1000
0100
0031
,  // measure 40
0010
1001
1000
0010
,  // measure 41
0100
0100
0000
0001
0010
0100
0010
0100
,  // measure 42
1000
0001
0100
0000
0100
0001
1000
0100
,  // measure 43
0010
0000
0001
0000
1000
0000
0000
1000
0000
0000
1000
0000
0010
0000
0100
0000
,  // measure 44
0001
0000
1000
0000
0100
0000
0000
0100
0000
0000
0100
0010
0000
0000
0000
0000
,  // measure 45
0001
0001
0100
0000
0001
0000
0020
0000
,  // measure 46
1000
0031
0100
0010
,  // measure 47
0001
2000
3100
0010
,  // measure 48
1000
0100
0001
0100
,  // measure 49
0010
0001
0100
0000
,  // measure 50
0010
1010
0001
0011
,  // measure 51
1000
0010
0100
0001
,  // measure 52
1000
0000
0100
0010
,  // measure 53
0001
1000
0010
0200
,  // measure 54
1000
0301
0010
0100
,  // measure 55
0001
0200
1000
0310
,  // measure 56
0001
1000
0010
0001
,  // measure 57
0010
0100
1000
0000
,  // measure 58
1000
1100
0001
0011
,  // measure 59
1000
0010
0100
0001
,  // measure 60
1000
1000
0000
0000
0001
0100
2000
0000
,  // measure 61
3020
0030
0000
0000
;

//---------------dance-single - ----------------
#NOTES:
     dance-single:
     :
     Beginner:
     3:
     0.120592,0.169181,0.016079,0.040197,0.000000,105.000000,103.000000,2.000000,5.000000,0.000000,0.000000,0.120592,0.169181,0.016079,0.040197,0.000000,105.000000,103.000000,2.000000,5.000000,0.000000,0.000000:
// measure 0
0000
0000
0000
0000
,  // measure 1
0000
0000
0000
0000
,  // measure 2
0000
0000
1000
0000
,  // measure 3
0000
0000
1000
0000
,  // measure 4
0001
0000
0001
0000
,  // measure 5
0100
0000
0000
0000
,  // measure 6
0000
0000
0001
0000
,  // measure 7
0000
0000
0001
0000
,  // measure 8
1000
0000
1000
0000
,  // measure 9
0100
0000
0010
0010
,  // measure 10
0020
0000
0000
0000
,  // measure 11
0030
0000
0100
0100
,  // measure 12
0200
0000
0000
0000
,  // measure 13
0300
0000
1000
0000
,  // measure 14
0001
0000
0000
0000
,  // measure 15
1000
0000
0100
0000
,  // measure 16
0020
0000
0000
0000
,  // measure 17
0030
0000
0001
0000
,  // measure 18
0001
0000
1000
0000
,  // measure 19
0010
0000
1000
0000
,  // measure 20
1000
0000
0001
0000
,  // measure 21
0010
0000
0000
0000
,  // measure 22
0000
0100
0000
0100
,  // measure 23
0000
1000
0000
1000
,  // measure 24
0000
0000
0000
0001
,  // measure 25
0001
0000
1000
0000
,  // measure 26
1000
0000
0001
0000
,  // measure 27
0010
0000
0001
0000
,  // measure 28
0100
0000
0010
0000
,  // measure 29
1000
0000
0100
0000
,  // measure 30
0000
0010
0000
0001
,  // measure 31
0000
1000
0000
1000
,  // measure 32
0000
0000
0000
0001
,  // measure 33
0001
0000
0000
1000
,  // measure 34
1000
0000
0100
0000
,  // measure 35
0001
0000
0100
0000
,  // measure 36
1000
0000
0100
0000
,  // measure 37
0000
0000
0001
0000
,  // measure 38
0001
0000
1000
0000
,  // measure 39
0010
0000
0100
0000
,  // measure 40
0001
1001
0000
0000
,  // measure 41
0000
0000
1000
0000
,  // measure 42
0000
1000
0000
0000
,  // measure 43
0000
0001
0000
0001
,  // measure 44
0001
0100
0010
0000
,  // measure 45
1000
1000
1000
0000
,  // measure 46
0100
0000
0001
0000
,  // measure 47
0100
0000
0010
0000
,  // measure 48
0001
0000
1000
0000
,  // measure 49
0010
0000
0100
0000
,  // measure 50
0000
0001
0000
0010
,  // measure 51
0000
0100
0000
0100
,  // measure 52
0000
0000
0010
0010
,  // measure 53
0010
0000
0001
0000
,  // measure 54
0100
0000
1000
0000
,  // measure 55
0100
0000
0001
0000
,  // measure 56
1000
0000
0100
0000
,  // measure 57
0010
0000
1000
0000
,  // measure 58
0000
0010
0000
0001
,  // measure 59
0000
0100
0000
1000
,  // measure 60
2002
3003
0000
0000
0000
0000
0000
0000
;

//---------------dance-double - ----------------
#NOTES:
     dance-double:
     :
     Hard:
     12:
     0.557022,0.858216,0.450211,0.040197,0.132652,485.000000,429.000000,56.000000,5.000000,0.000000,0.000000,0.557022,0.858216,0.450211,0.040197,0.132652,485.000000,429.000000,56.000000,5.000000,0.000000,0.000000:
00000000
00000000
00000000
00000000
,
00000000
00000000
00000000
00000000
,
00011000
00000000
00010000
01000000
10000000
01000000
00200000
00000000
,
00301000
00000010
00000001
00000100
00000020
00000000
00000030
00000001
,
00000010
00001000
00000100
00000010
00001000
00010000
01000000
10000000
,
00010000
00000000
01000000
00100000
00010000
00001000
00000100
00000010
,
00000001
00000000
00000010
00001000
00000100
00000001
00000200
00000000
,
00010300
01000000
10000000
00100000
00020000
00000000
00000000
00130000
,
00010000
00001000
00000010
00001000
00010000
01000000
10000000
00100000
,
00010000
00000000
00000000
00000000
00100000
10000000
11000000
00000000
,
10000000
01000000
00010000
01000000
10000000
01000000
00010000
00001000
,
00000100
00000001
00000010
00000000
00001000
00000010
00000011
00000000
,
00000001
00000010
00001000
00000010
00000001
00000010
00001000
00010000
,
00100000
10000000
00010000
00100000
01000000
00000000
01000000
10000000
,
00010000
01000000
01010000
00000000
01000000
00100000
00010000
00001000
,
00000010
00000001
00001001
00000000
00000001
00000100
00001000
00000000
,
00010000
00100000
10000000
01000000
00010000
00001000
00000100
00000001
,
00000000
00000000
00000101
00000000
00000001
00000100
00001000
00010000
,
00011000
00000000
00001000
00100000
01000000
01000000
00010000
00001000
,
00000010
00001000
00010000
00000000
01000000
00100000
01000000
10000000
,
00100000
01000000
00001000
00000100
00000010
00000000
00001000
00001000
,
00000010
00000100
00000001
00000010
00001000
00000000
00010000
01000000
,
01100000
00000000
10010000
00000000
00011000
00000010
00000110
00000000
,
00000101
00001000
00001001
00001000
00000100
00001100
00000000
00000000
,
00011000
00000000
00000000
00000000
00100000
00000000
00010000
00000000
10000000
00000000
01000000
00000000
00010000
00000000
00001000
00000010
,
00000100
00000000
00001000
00000001
00000100
00000000
00000000
00000000
00001000
00000000
00010000
00000000
00100000
00000000
10000000
00000000
,
10010000
00000000
00010000
00100000
01000000
00001000
00000100
00000010
,
00001000
00010000
00100000
00000000
10000000
00100000
00010000
00001000
,
00000010
00001000
00000000
00001000
00010000
00000000
00100000
10000000
,
00010000
00000000
00100000
01000000
00010000
00000000
00001000
00000000
00000010
00000000
00000000
00000000
00000010
00000000
00000001
00000000
,
00001001
00000000
00000110
00000000
00011000
00100000
00110000
00000000
,
10010000
10000000
10100000
00100000
01000000
01010000
00000000
00011000
,
00000000
00000000
00001010
00000010
00000100
00000101
00000001
00001000
,
00000100
00010000
00000100
00010000
00001000
00000000
00000000
00000000
00100000
00000000
00010000
00000000
10000000
00000000
00100000
00000000
,
00010000
00000000
00001000
00000010
00000001
00001000
00000010
00000001
,
00000010
00001000
00000000
00001000
00100000
10000000
00010000
00100000
,
10000000
00100000
00001000
00000010
00000001
00000100
00000000
00000110
,
00010000
00011000
00000000
00010000
01000000
10000000
00000000
00001000
,
00000100
00000001
00000000
00000010
00000100
00010000
00001000
01000000
,
00100000
00000000
00010000
00001000
00000110
00000000
00001000
00010000
,
01100000
00000000
10010000
00010000
00100000
00100000
01000000
01000000
,
00010000
00000000
00010000
00000000
00000000
00000000
00001000
00000010
00000001
00000000
00000100
00000000
00001000
00010000
00100000
00010000
,
00001000
00010000
01000000
10000000
00100000
00000000
10000000
00010000
00100000
00010000
01000000
00100000
00010000
00001000
00000010
00000000
,
00000001
00000000
00000100
00000000
00001000
00000000
00000100
00000010
00001000
00000000
00000100
00000000
00000010
00000000
00000001
00000000
00000100
00000000
00001000
00000000
00011000
00000000
00000000
00000000
00010000
00000000
01000000
00000000
10000000
00000000
00010000
00000000
,
01000000
00100000
00110000
00000000
00010000
00001000
00000010
00000001
00000100
00001000
00011000
00011000
00000000
00000000
00000000
00000000
,
00001000
00010000
00001000
00010000
01000000
00000000
00000000
00000000
01000000
00000000
10000000
00000000
00100000
00000000
00010000
00000000
,
00011000
00000000
00001000
00000010
00001000
00010000
00100000
10000000
,
00010000
01000000
11000000
00000000
01100000
00100000
10000000
01000000
,
00010000
00001000
00000010
00000001
00000010
00000000
00001000
00010000
,
10000000
00100000
00010000
10000000
10100000
00000000
00100000
00010000
,
00011000
00000000
00001010
00000000
00000011
00000001
00000101
00000000
,
00001100
00001000
00011000
00100000
00010000
10000000
00100000
00010000
,
00001000
00000000
00000000
00000000
00001000
00000000
00010000
00000000
00100000
00000000
10000000
00000000
00010000
00000000
00100000
01000000
,
10000000
00000000
00100000
01000000
00010000
00000000
00000000
00000000
10000000
00000000
01000000
00000000
00010000
00000000
00001000
00000000
,
00001010
00000000
00000011
00000001
00000100
00000100
00001000
00010000
,
00100000
10000000
10010000
00000000
10000000
00100000
00010000
00001000
,
00000100
00000010
00000000
00000010
00001000
00000000
00000001
00000010
,
00000100
00010000
00001000
01000000
00010000
00000000
10000000
00000000
01000000
00000000
00000000
00000000
00100000
00000000
00010000
00000000
,
01010000
00000000
01100000
00000000
00110000
00010000
00011000
00000000
,
00001010
00000010
00000011
00001000
00000010
00000100
00001000
00010000
,
00110000
01100000
00000000
00100000
10000000
01000000
00020000
00000000
,
00031000
00000000
00000000
00000000
;

//---------------dance-double - ----------------
#NOTES:
     dance-double:
     :
     Medium:
     11:
     0.492706,0.784654,0.217066,0.080395,0.096474,429.000000,402.000000,27.000000,10.000000,0.000000,0.000000,0.492706,0.784654,0.217066,0.080395,0.096474,429.000000,402.000000,27.000000,10.000000,0.000000,0.000000:
00000000
00000000
00000000
00000000
,
00000000
00000000
00000000
00000000
,
00011000
00000000
00010000
01000000
20000000
00000000
30100000
00000000
,
10000000
01000000
00020000
00000000
00031000
00000000
00000000
00001000
,
00000010
00000001
00001000
00000001
00000010
00000001
00000100
00001000
,
00010000
00000000
00000000
00000000
01000000
00000000
10000000
00100000
,
00010000
00000000
00001000
00000010
00000002
00000000
00001003
00000000
,
00000001
00000010
00002000
00000000
00013000
00000000
00000000
00010000
,
00100000
10000000
00010000
10000000
00100000
10000000
01000000
00010000
,
00001000
00000000
00000010
00000001
,
00001000
00000010
00010000
00001000
00100000
00010000
10000000
00100000
,
00010000
00001000
00000010
00000000
00001000
00000000
00010000
00000000
,
01000000
10000000
00010000
01000000
00001000
00010000
00000010
00001000
,
00000001
00000100
00001000
00010000
01000000
00000000
10000000
01000000
,
00100000
00000000
00011000
00000000
00000010
00000100
00000001
00001000
,
00000100
00000000
00000010
00000000
00001000
00010000
01000000
00000000
,
10000000
00010000
01000000
00100000
00010000
00001000
00000100
00000010
,
00000000
00000000
00001001
00000000
00000001
00000010
00002000
00000000
,
00013000
00000000
00100000
00100000
10000000
10000000
00010000
00100000
,
00001000
00010000
00000010
00000000
00000010
00000100
00000001
00000001
,
00001000
00000100
00000000
00000100
00010000
00000000
00001000
00100000
,
00010000
10000000
00100000
01000000
10010000
00000000
10000000
01000000
,
00100000
00000000
10100000
00000000
00100000
01000000
00010000
00000000
,
00010000
00001000
00000010
00000100
00001000
00000001
00000000
00000100
,
00000010
00000000
00000001
00000010
00000100
00000001
00001000
00000100
,
00010000
00001000
00011000
00000000
00010000
01000000
20000000
00000000
,
30100000
00000000
00010000
00010000
00001000
00001000
00000010
00000100
,
00001000
00000001
00000200
00000000
00001300
00010000
00100000
00100000
,
01000000
00010000
00000000
00010000
10000000
00000000
01000000
00100000
,
00001000
00010000
00000010
00000100
00001001
00000000
00000001
00000100
,
00000010
00000000
00000011
00000000
00000010
00001000
00010000
00000000
,
00010000
00001000
00000010
00010000
00001000
00100000
00000000
00100000
,
10000000
00000000
10000000
00100000
00010000
01000000
00001000
00010000
,
00000010
00000000
00001001
00000000
00000001
00000100
00002000
00000000
,
00013000
00000000
00100000
10000000
00010000
00010000
00100000
00100000
,
01000000
00010000
00000000
00010000
00001000
00000010
00000001
00000001
,
00001000
00001000
00000010
00000100
00001000
00001000
00000000
00011000
,
00100000
01100000
00000000
10000000
01000000
00010000
00000000
00000001
,
00000100
00001000
00000000
00010000
00100000
00010000
00001000
00000010
,
00000002
00000000
00001000
00001000
00000203
00000000
00000010
00000010
,
00001300
00000000
00011000
00010000
01000000
01000000
10000000
10000000
,
00100000
00000000
00100000
00000000
00000000
00000000
00010000
00001000
00000010
00000000
00000001
00000000
00000100
00000010
00010000
00001000
,
00100000
00010000
10000000
01000000
00100000
00000000
00010000
10000000
00100000
01000000
00001000
00010000
00000000
00010000
00000010
00000000
,
00000100
00000001
00001000
00000010
00000100
00001000
00010000
00100000
01000000
00010000
10000000
00000000
01000000
00100000
00001000
00010000
,
00000010
00000100
00000001
00000001
00000010
00000100
00010000
00001000
00000100
00001000
00011000
00011000
00000000
00000000
00000000
00000000
,
00010000
00001000
00010000
00001000
00010000
00000000
00000000
00000000
00001000
00000000
00000100
00000000
00000101
00000000
00000000
00000000
,
00001001
00000000
00001000
00001000
00000010
00000010
00010000
00001000
,
00100000
00010000
10000000
00000000
00100000
01000000
00001000
00001000
,
00010000
00000100
00000010
00000001
00000100
00000000
00000010
00010000
,
00001000
00100000
00010000
01000000
10010000
00000000
00010000
00000000
,
10000000
01000000
01100000
00000000
00010000
00000010
00000110
00000000
,
00001000
00000100
00010000
00001000
00000010
00000001
00001000
00000010
,
00000100
00000000
00001000
00100000
00010000
10000000
00100000
00010000
,
00001000
00000000
00000110
00000000
00001001
00000001
00000011
00000000
,
00001100
00000000
00100000
00100000
00010000
00010000
10000000
00100000
,
00010000
00001000
00011000
00000000
00001000
00000010
00000001
00001000
,
00000010
00000100
00000000
00000100
00001000
00000000
00010000
00100000
,
10000000
00010000
00100000
01000000
10010000
00000000
00010000
00000000
,
01000000
00100000
00110000
00000000
00011000
00001000
00000100
00000000
,
00000010
00001000
00000001
00000010
00001000
00010000
01000000
10000000
,
00100000
00100000
00000000
00100000
10000000
01000000
00010000
00000000
,
00001000
00000000
00000000
00000000
;

//---------------dance-double - ----------------
#NOTES:
     dance-double:
     :
     Easy:
     8:
     0.288273,0.392327,0.168829,0.120592,0.008039,251.000000,230.000000,21.000000,15.000000,0.000000,0.000000,0.288273,0.392327,0.168829,0.120592,0.008039,251.000000,230.000000,21.000000,15.000000,0.000000,0.000000:
00000000
00000000
00000000
00000000
,
00000000
00000000
00000000
00000000
,
00000000
10000000
02000000
03010000
,
00001000
00000200
00000301
00000000
,
00000010
00000001
00001000
00000010
,
00000100
00000000
00000000
00000000
,
00000000
00000001
00000200
00001300
,
00010000
02000000
13000000
00000000
,
00100000
10000000
00010000
00100000
,
01000000
00000000
10000000
10000000
,
00200000
00310000
00000020
00001030
,
00010000
00000000
00000100
00000100
,
00000020
00001030
00200000
00310000
,
00001000
00000000
00001000
00000010
,
00000200
00000300
00000000
00010000
,
00001000
00100000
00010000
10000000
,
02000000
00010000
00100000
13000000
,
00000000
10010000
00002000
00000010
,
00000001
00003100
00001000
00010000
,
00100000
10000000
00010000
00100000
,
01000000
10000000
01000000
00010000
,
00001000
00000010
00001001
00000000
,
00000010
00000110
00010000
00011000
,
00100000
01000000
10000000
00100000
,
00010000
00011000
00001000
00000010
,
00000001
00001001
00020000
00100000
,
10000000
01030000
00010000
00001000
,
00000010
00000001
00001000
00000010
,
00000100
00001000
00010000
00100000
,
10000000
00010000
00110000
00000000
,
10000000
10010000
00001000
00011000
,
00000100
00000010
00000001
00001000
,
00000010
00000110
00010000
00001000
,
00100000
10010000
10000000
00100000
,
00010000
00000000
00001000
00000010
,
00000001
00000100
00001000
00010000
,
01000000
00000000
10000000
00000000
00100000
00010000
00000000
00010000
,
00100000
10000000
00000000
00000000
00000000
00000000
00000000
00000000
,
00000000
10000000
01000000
00010000
,
00002000
00000010
00000001
00000100
,
00013000
00021000
00100000
10000000
,
01000000
00000000
00030000
00001000
00000010
00001000
00100000
00010000
,
10000000
00100000
00010000
00001000
00000010
00000001
00001000
00000010
,
00000100
00000000
00001000
00000000
00010000
00000000
00000000
00100000
00000000
00000000
01000000
00000000
00001000
00000000
00000020
00000000
,
00000130
00000000
00010000
00000000
00100000
00000000
10000000
00000000
01000000
00000000
00010000
00001000
00000000
00000000
00000000
00000000
,
00000000
00000000
00011000
00000000
00001000
00000010
00001000
00000000
,
00010000
00100000
10000000
01000000
,
00010000
00011000
00010000
01000000
,
10000000
00100000
00010000
00001000
,
00000010
00000001
00000101
00000000
,
00010000
00011000
00100000
00110000
,
10000000
00100000
00010000
00001000
,
00000010
00000100
00001000
00000010
,
00010000
00000000
00011000
00000000
00010000
00100000
00010000
00000000
,
00001000
00000010
00000001
00000100
,
00001000
00010000
00100000
00010000
,
00001000
00000010
00001000
00010000
,
01000000
10010000
00000000
00000000
,
00100000
01100000
00001000
00011000
,
00000010
00000100
00000001
00000010
,
00001000
00000000
00000000
00001000
00010000
01000000
10000000
00000000
,
00100000
00000000
00000000
00000000
;
