#TITLE:Heavenly;
#SUBTITLE:;
#ARTIST:Makou;
#TITLETRANSLIT:;
#SUBTITLETRANSLIT:;
#ARTISTTRANSLIT:;
#GENRE:;
#CREDIT:;
#MUSIC:Heavenly.ogg;
#BANNER:Heavenly.png;
#BACKGROUND:Heavenly-bg.png;
#CDTITLE:;
#SAMPLESTART:46.576;
#SAMPLELENGTH:15.360;
#SELECTABLE:YES;
#OFFSET:-0.496;
#BPMS:0.000=125.000;
#STOPS:;
#BGCHANGES:-4.000=Heavenly.avi=1.000=0=0=0=StretchNoLoop====,
99999.000=-nosongbg-=1.000=0=0=0=StretchNoLoop====
;
#FGCHANGES:;

//--------------- dance-single - eataninja ----------------
#NOTES:
     dance-single:
     eataninja:
     Beginner:
     2:
     0,0,0,0,0:
0000
0000
0000
0000
,
0000
0000
0000
0000
,
0000
0000
0000
0000
,
0000
0000
0000
0000
,
1000
0000
0100
0000
,
0010
0000
0100
0000
,
1000
0000
1000
0000
,
0010
0000
0000
0000
,
0010
0000
0100
0000
,
0001
0002
0000
0003
,
1001
0000
0000
0000
,
0001
0000
0000
0000
,
0010
0000
0100
0000
,
1000
2000
0000
3000
,
1001
0000
0000
0000
,
1000
0000
0010
0000
,
0200
0000
0300
0100
,
0000
0000
0010
0000
,
1001
0000
0000
0000
,
0001
0000
0100
0000
,
0010
0000
0100
0000
,
0001
0002
0000
0003
,
1001
0000
0000
0000
,
0010
0000
0000
0000
,
1000
0000
0001
0000
,
0010
0000
0001
0000
,
0100
0000
0100
0000
,
0010
0000
1000
0000
,
0001
0000
1000
0000
,
0100
0000
1000
0000
,
0010
0000
0010
0000
,
0100
0000
0001
0000
,
1001
0000
0000
0000
,
1001
0000
0000
0000
,
0001
0000
0010
0000
,
0100
0000
1000
0000
,
1001
0000
0000
0000
,
1001
0000
0000
0000
,
1000
0000
0010
0000
,
0100
0000
0100
0000
,
0001
0001
0001
0000
,
1000
1000
1000
0000
,
0100
0000
0010
0000
,
0001
0002
0000
0003
,
1001
0000
0000
0000
,
1000
1000
1000
0000
,
0010
0000
0100
0000
,
0001
0002
0000
0003
,
1001
0000
0000
0000
,
0100
0000
0000
0000
,
0020
0000
0030
0010
,
0000
0000
0100
0000
,
1001
0000
0000
0000
,
0010
0000
0000
0000
,
0100
0000
0010
0000
,
1000
2000
0000
3000
,
1001
0000
0000
0000
,
0001
0000
0010
0000
,
1001
0000
0000
0000
;

//--------------- dance-single - eataninja ----------------
#NOTES:
     dance-single:
     eataninja:
     Easy:
     5:
     0,0,0,0,0:
0000
0000
0000
0000
,
0000
0000
0000
0000
,
0000
0000
0000
0000
,
0000
0000
0000
0000
,
1000
0100
0100
0000
,
1000
1000
0001
0000
,
0100
0100
0100
0000
,
0010
0000
1000
1001
,
0001
0010
0100
1000
,
1000
0020
0000
0030
,
0110
0000
0100
0000
,
0001
1000
0001
0000
,
1000
0100
0010
0001
,
0001
0200
0000
0300
,
1001
0000
0001
0000
,
0010
1000
0010
0000
,
0200
0000
0310
0110
,
1000
0001
0100
0010
,
0010
0000
1000
0000
,
0100
0001
0100
0000
,
1000
0100
0010
0001
,
0001
0200
0000
0300
,
1001
0000
0010
0000
,
0100
0100
0001
0000
,
1000
0100
0010
0010
,
0001
0001
0100
0010
,
1001
1001
0010
0010
,
0100
1000
0010
0100
,
0001
0100
0010
0010
,
1000
1000
0100
0010
,
1001
1001
0100
0100
,
0001
0100
1000
1000
,
0001
0101
0000
0000
,
1000
1100
0000
0000
,
0002
2003
3020
0030
,
0100
0100
0010
1000
,
0001
0011
0000
0000
,
1000
1010
0000
0000
,
0001
0001
1000
1000
,
0010
0100
0001
1000
,
0100
0100
0010
0010
,
0001
1000
0001
0000
0100
0000
0000
0000
,
0010
1000
0100
0001
,
0100
0020
0000
0030
,
0011
0000
1000
1000
,
0001
0100
0010
0000
,
0100
0001
0010
1000
,
0010
0200
0000
0300
,
0110
0000
1000
0000
,
0010
0010
0010
0000
,
0120
0000
0130
1000
,
0100
0001
0010
0100
,
0100
0000
1000
0000
,
0010
0010
0010
0000
,
0100
0001
0010
1000
,
0010
0200
0000
0300
,
0110
0000
0010
0000
,
0001
0100
1000
0010
,
0001
0000
0000
0000
;

//--------------- dance-single - eataninja ----------------
#NOTES:
     dance-single:
     eataninja:
     Medium:
     9:
     0,0,0,0,0:
0000
0000
0000
0000
,
0000
0000
0000
0000
,
0000
0000
0000
0000
,
0000
0000
0000
0000
,
1000
0100
0010
0000
0001
0000
0001
0000
,
0100
0100
0002
0000
0013
0000
0000
0000
,
0110
0000
0110
0000
1000
0001
1000
0000
,
0001
0100
0010
1001
,
1000
0100
0001
0100
0010
0000
0001
0000
,
0100
0102
1000
0013
,
1100
0000
0001
1001
,
0010
0000
0100
0000
0001
1000
1000
0000
,
0001
0010
1000
0010
0100
0000
1000
0000
,
0010
2010
0001
3100
,
1100
0000
0000
0000
0001
1000
0010
0000
,
0001
0010
1000
0000
0001
1000
0100
0000
,
1002
0010
0103
1010
,
0001
0100
1000
0000
0010
0000
0001
0100
,
0010
0000
0000
0000
1000
0001
0010
0000
,
1000
0010
0001
0000
1000
0001
0100
0000
,
0001
0010
1000
0010
0100
0000
1000
0000
,
0010
2010
0001
3100
,
1100
0000
0000
0000
0001
1000
0010
0000
,
0100
0000
1001
0000
0001
0010
0100
0000
,
1000
0001
0100
1000
0100
0010
0010
0000
,
1000
1000
0001
0010
0100
0000
1000
0001
,
0200
0310
0200
0310
1000
0001
0001
0000
,
0010
1000
0010
0100
1000
0001
0001
0000
,
0001
0100
1000
0100
0010
0100
0100
0000
,
0001
0001
1000
0100
0010
0000
0001
1000
,
0020
0130
0020
0130
0001
1000
1000
0000
,
0001
0010
1000
0001
0100
1000
0010
0010
,
1000
0000
1001
0000
0100
0010
0001
0000
,
1000
0000
1001
0000
0001
0100
1000
0000
,
0200
0320
2030
3001
,
0010
1000
0010
0100
1000
0001
0100
0100
,
0001
0000
1001
0000
0100
0010
1000
0000
,
0001
0000
1001
0000
1000
0100
0001
0000
,
0110
0110
1001
1001
,
1000
0010
0001
0010
0100
0001
1000
0000
,
0001
0001
0100
0100
0010
0010
1000
1000
,
0001
0010
0100
1000
0000
0000
0000
0000
,
0001
0100
1000
0001
0010
0000
0110
0000
,
0001
2001
0100
3001
,
1010
0000
0000
0000
0001
0010
1000
0000
,
0010
0000
0110
0000
1000
0001
0100
0000
,
0001
0010
1000
0001
0100
0000
0110
0000
,
0001
2001
0010
3001
,
0101
0000
0000
0000
1000
0001
0010
0000
,
0110
0000
0110
0000
0001
0001
0001
0000
,
2001
0010
3100
0011
,
0001
0010
1000
0000
0100
0000
0001
0010
,
0100
1100
0001
0000
,
0101
0000
0101
0000
1000
1000
1000
0000
,
1000
0010
0001
1000
0100
0000
0110
0000
,
1000
1002
0010
1003
,
1010
0001
0011
1000
,
0001
0010
0100
0010
1000
0010
0100
1000
,
0010
0000
0000
0000
;

//--------------- dance-single - eataninja ----------------
#NOTES:
     dance-single:
     eataninja:
     Hard:
     13:
     0,0,0,0,0:
0000
0000
0000
0000
,
0000
0000
0000
0000
,
0000
0000
0000
0000
,
0000
0000
0000
0000
,
1000
0000
0000
0001
0000
0000
0100
0000
0000
1000
0000
0000
0100
0000
0010
0000
0000
0020
0000
0000
0000
1030
0000
0000
,
0001
0000
0001
1000
0000
0000
0100
0000
0002
0000
0000
0000
0103
0000
0000
0000
0000
0000
0010
0000
0000
0001
0000
0000
,
2001
0000
0000
3010
0000
0000
2001
0000
0000
3010
0000
0000
1000
0000
0100
0000
0000
0200
0000
0000
0000
0300
0000
0000
,
1000
0000
0001
1000
0000
0000
0001
0000
0100
0001
0000
0000
0100
0000
0010
0100
0000
0000
1001
0000
0000
0000
0000
0000
,
0001
0100
1000
0001
0010
0100
0101
0000
,
1000
0000
0000
0000
0000
0000
2100
0000
0000
0001
0000
0000
0000
0000
0001
0000
0000
0000
3001
0000
0000
0000
0000
0000
,
0010
0000
0000
0000
0000
0110
0000
0000
0000
0100
0000
0000
0000
0000
1001
0000
0000
0000
1000
0000
0000
0000
0000
0000
,
0001
0000
0000
0100
0000
0000
1000
0000
0000
0100
0000
0000
0010
0000
0100
0000
0000
0100
0001
0000
0000
1000
0000
0000
,
0001
0010
1000
0001
0100
0010
0011
0000
,
1000
0000
0000
0000
0000
0000
2010
0000
0000
0001
0000
0000
0000
0000
0001
0000
0000
0000
3001
0000
0000
0000
0000
0000
,
0100
0000
0000
0000
0000
0010
0000
0000
0000
1000
0000
0000
0001
0000
0010
0100
0000
1000
0001
0000
0000
0100
0000
2000
,
0000
0000
0000
3100
0000
0000
0110
0000
0000
0000
0000
0010
1000
0000
0001
0000
0000
0010
0100
0000
0000
1000
0000
0000
,
0001
0100
1000
0001
0010
0001
1000
0100
,
0001
0010
1000
0010
0100
0010
0001
1000
,
1001
0000
0000
0000
0000
0000
1010
0000
0000
0000
0000
0000
0010
0000
0100
0010
0000
0000
1000
0000
0000
0100
0000
0002
,
0000
0000
0000
0103
0000
0000
0110
0000
0000
0000
0000
0010
0001
0000
1000
0000
0000
0010
0100
0000
0000
0001
0000
0000
,
1000
0100
0001
1000
0010
0100
1100
0000
,
0001
0000
0000
0000
0000
0000
0102
0000
0000
1000
0000
0000
0000
0000
1000
0000
0000
0000
1003
0000
0000
0000
0000
0000
,
0010
0000
0000
0000
0000
0110
0000
0000
0000
0100
0000
0000
0000
0000
1001
0000
0000
0000
0001
0000
0000
0000
0000
0000
,
1000
0000
0000
0100
0000
0000
0001
0000
0000
0100
0000
0000
0010
0000
0000
0001
0000
1000
0000
0000
0010
0100
0000
0000
,
0001
0000
0000
0100
0000
0000
1000
0000
0000
0100
0000
0000
0010
0000
0100
0000
0000
0120
0000
0000
0000
1030
0000
0000
,
0001
0000
0001
1000
0000
0000
0100
0000
0002
0000
0000
0000
0103
0000
0000
0000
0000
0000
0100
0000
0000
0010
0000
0000
,
0012
0000
0000
1003
0000
0000
2010
0000
0000
3001
0000
0000
0100
0000
0010
0000
0000
0020
0000
0000
0000
0030
0000
0000
,
1000
0000
0200
0000
0000
0000
0310
0000
0000
0001
0000
0000
0100
0000
0010
0000
0000
0020
0000
0000
0000
0030
0000
0000
,
1000
0000
0000
0010
0000
0000
0001
0000
0000
0010
0000
0000
0100
0000
0010
0000
0000
0210
0000
0000
0000
0301
0000
0000
,
1000
0000
1000
0001
0000
0000
0010
0000
2000
0000
0000
0000
3010
0000
0000
0000
0000
0000
0010
0000
0000
0100
0000
0000
,
2100
0000
0000
3001
0000
0000
0102
0000
0000
1003
0000
0000
0010
0000
0100
0000
0000
0200
0000
0000
0000
0300
0000
0000
,
0001
0000
1000
0001
0000
1000
0010
0000
0000
0010
0000
0100
0001
0000
1000
0100
0000
0000
0010
0000
0000
0010
0000
0000
,
2001
0000
0000
0000
3100
0000
0010
0001
1000
0000
1000
0000
0010
0000
0100
0000
,
1002
0000
0000
0000
0000
0000
0000
0000
0000
0010
0000
0000
0000
0000
0000
0013
0000
0000
0100
0000
0000
0000
0000
0000
1000
0000
0000
0000
0000
0000
0001
0000
0100
0000
0001
0000
0100
0000
0000
0000
0000
0000
0000
0000
0000
0000
0000
0000
,
2010
0000
3010
0001
1000
0100
0020
0000
,
1030
0000
0001
1000
0000
0000
0100
0000
0010
0001
0000
0000
1000
0000
0000
0010
0000
0000
0100
0000
0000
1000
0000
0000
,
0120
0000
0000
0000
1030
0000
0001
0010
0100
0000
1000
0000
0001
0000
0001
0000
,
0210
0000
0000
0000
0000
0000
0000
0000
0000
0001
0000
0000
0000
0000
0000
0301
0000
0000
1000
0000
0000
0000
0000
0000
0100
0000
0000
0000
0000
0000
1000
0000
0010
0000
1000
0000
0010
0000
0000
0000
0000
0000
0000
0000
0000
0000
0000
0000
,
0100
0001
0010
1000
0010
0001
0100
0010
,
1000
0000
0001
1000
0000
0000
0001
0000
0010
0100
0000
0000
1000
0000
0000
0001
0000
0000
0100
0000
0000
0010
0000
0000
,
1000
1000
0001
0001
0010
0010
0100
0100
,
1000
0000
0001
1000
0000
0001
0100
0000
0001
0100
0000
0001
0010
0000
0100
1000
0000
0001
0000
0000
0001
0000
0000
0000
,
1000
0010
0001
0010
0110
0100
1001
0001
,
0010
1000
0001
0100
1000
0001
0100
0010
,
1002
0000
0000
0000
0000
0000
0103
0000
0000
0010
0000
1000
0000
0000
0001
0000
0000
0010
0000
0000
0000
0110
0000
0000
,
0100
0000
0010
0001
0000
0000
1000
0000
0000
0010
0000
0002
0000
0000
0000
0013
0000
0100
0000
0000
0000
0001
0000
0000
,
1000
0100
0001
0100
0110
0010
1001
0001
,
0100
1000
0001
0010
1000
0001
0010
0100
,
1002
0000
0000
0000
0000
0010
0000
0000
0000
0013
0000
0000
2001
0000
0000
0000
0000
0010
0000
0000
0000
3010
0000
0000
,
1010
0000
0000
0000
0000
0000
1010
0000
0000
0000
0000
0010
0000
0000
1000
0001
0000
0000
0010
0000
0000
0010
0000
0000
,
2100
0000
3001
0100
1000
0001
0010
0001
,
1000
0100
0001
0010
0100
0001
0100
0010
,
2001
0000
0000
0000
0000
0100
0000
0000
0000
3100
0000
0000
1002
0000
0000
0000
0000
0100
0000
0000
0000
0103
0000
0000
,
0101
0000
0000
0000
0000
0000
0101
0000
0000
0000
0000
0100
0000
0000
0100
0001
0000
0000
1000
0000
0000
1000
0000
0000
,
0001
0100
1000
0100
0110
0010
1001
1000
,
0100
0001
1000
0010
0001
1000
0010
0100
,
1002
0103
2001
3100
,
0010
0000
0001
1000
0000
0000
0010
0000
0100
0001
0000
0000
0010
0000
0100
1000
0000
0000
0010
0000
1000
0001
0000
0000
,
0101
0000
0000
0000
;
