#TITLE:華陽炎-Hana Kagerou-;
#SUBTITLE:;
#ARTIST:源屋 feat.Kuroa*;
#TITLETRANSLIT:Hana Kagerou;
#SUBTITLETRANSLIT:;
#ARTISTTRANSLIT:Minamotoya feat. Kuroa*;
#GENRE:;
#CREDIT:;
#MUSIC:Hana Kagerou.ogg;
#BANNER:Hana Kagerou.png;
#BACKGROUND:Hana Kagerou-bg.png;
#CDTITLE:;
#SAMPLESTART:48.352;
#SAMPLELENGTH:15.000;
#SELECTABLE:YES;
#OFFSET:0.573;
#BPMS:0.000=170.000
,22.000=145.000
,26.000=125.000
,30.000=110.000
,32.000=85.000
,34.000=90.000
,36.000=176.000
,328.000=155.000
,332.000=145.000
,336.000=140.000
,340.000=110.000
;
#STOPS:;
#BGCHANGES:;
#FGCHANGES:;

//--------------- dance-single - ----------------
#NOTES:
     dance-single:
     :
     Beginner:
     4:
     0,0,0,0,0:
0000
0000
0000
0000
,
0000
0000
0000
0000
,
0000
0000
0000
0000
,
0000
0000
0000
0000
,
0000
0000
0000
0000
,
0000
0000
2000
0000
,
3000
0000
0002
0000
,
0003
0000
0010
0000
,
0010
0000
0020
0000
,
0030
0000
0000
0000
,
0001
0000
0100
0000
,
1000
0000
0100
0000
,
0001
0000
0010
0000
,
0010
0000
0100
0000
,
1000
0000
0001
0000
,
0001
0000
1000
0000
,
0010
0000
0100
0000
,
0010
0010
0100
0000
,
0001
0000
1001
0000
,
1000
1000
1000
0000
,
0100
0000
0010
0000
,
0001
0001
0001
0000
,
1000
0000
0010
0000
,
0100
0100
0100
0000
,
0001
0000
0010
0000
,
0220
0000
0330
0000
,
0001
0000
0100
0000
,
1000
1000
1000
0000
,
0100
0000
0001
0000
,
0001
0001
0001
0000
,
0010
0000
0100
0000
,
0010
0000
0100
0000
,
1000
0000
0001
0000
,
2002
0000
3003
0000
,
0001
0001
0100
0000
,
0010
0000
0010
0000
,
1000
0000
0100
0000
,
1000
1000
0100
0000
,
0010
0010
0010
0000
,
0100
0100
0100
0000
,
1000
0000
0001
0000
,
1000
1000
1001
0000
,
0010
0010
0100
0000
,
0010
0000
1000
0000
,
0001
0000
0010
0000
,
0100
0100
0100
0000
,
0010
0000
0001
0000
,
1000
0000
0100
0000
,
0010
0000
0001
0000
,
0001
0001
1001
0000
,
0200
0000
0300
0000
,
0020
0000
0030
0000
,
2000
0000
3000
0000
,
0002
0000
0003
0000
,
0001
0001
0001
0000
,
1000
1000
1000
0000
,
0010
0000
0100
0000
,
0010
0010
0010
0000
,
2000
0000
3000
0000
,
0200
0000
0300
0000
,
0020
0000
0030
0000
,
0002
0000
0003
0000
,
1000
0000
0010
0000
,
0001
0000
0010
0000
,
1000
0000
1000
0000
,
0001
0001
0001
0000
,
1000
1000
0100
0000
,
0010
0000
0010
0000
,
0001
0000
0100
0000
,
0001
0001
0100
0000
,
0010
0010
0010
0000
,
0100
0100
0100
0000
,
0001
0000
1000
0000
,
0001
0001
1001
0000
,
1000
0000
0100
0000
,
0001
0000
0100
0000
,
1000
0000
0010
0000
,
0010
0010
0100
0000
,
0001
0000
1000
0000
,
1000
0000
0001
0000
,
0010
0000
0100
0000
,
0010
0010
0100
0000
,
2000
0000
3000
0000
,
0002
0000
0003
0000
,
0200
0000
0300
0000
,
0020
0000
0030
0000
;

//--------------- dance-single - ----------------
#NOTES:
     dance-single:
     :
     Easy:
     8:
     0,0,0,0,0:
0000
0000
0000
0000
,
0000
0000
0000
0000
,
0000
0000
0000
0000
,
0000
0000
0000
0000
,
0000
0000
0000
0000
,
0000
0000
0001
0010
,
0001
0000
1000
0010
,
1000
0000
0001
0100
,
0010
1000
0001
0001
,
2002
0000
3003
0000
,
0001
0010
0001
0010
,
0001
1000
0100
1000
,
0001
0100
0010
0010
,
1000
0100
0010
0110
,
0001
0100
1000
0100
,
0001
0010
1000
0010
,
0001
0001
0000
1000
1000
0000
0001
0000
,
0100
0010
2002
3003
,
1000
0100
1100
0000
,
0100
0001
0101
0000
,
0001
0010
0011
0000
,
0010
1000
1010
0000
,
1000
0001
1000
0001
,
0100
0000
0010
0010
0010
0000
1000
0000
,
0100
0000
0001
0000
0100
0000
1000
0001
,
0000
0001
0000
0001
1000
0000
1001
0000
,
0002
0000
0000
0100
0103
0000
0010
0000
,
2000
0000
0000
0100
3100
0000
0010
0000
,
0002
0100
2003
0100
,
3010
0000
0010
0010
0020
0000
0030
0000
,
0100
0010
0100
0010
,
1000
0001
1000
0001
,
0010
0010
0000
0100
0100
0000
0010
0010
,
0000
0100
0100
0000
0010
0000
0110
0000
,
0001
0000
0100
0001
0100
0000
0010
0000
,
1000
0010
1000
0100
,
0001
0100
1000
0100
,
1000
0000
1000
1000
1000
0000
0010
0000
,
0100
0000
0001
0100
0001
0000
0010
0000
,
0100
0000
1000
0100
1000
0000
0010
0000
,
0100
0100
0010
0010
,
0110
1001
0220
0330
,
1000
0000
0001
0100
0001
0000
1000
0000
,
0100
0100
0010
0010
,
0001
0100
1000
0100
,
0001
0000
0001
0001
0001
0000
0010
0000
,
0100
0000
1000
0100
1000
0000
0100
0000
,
0010
0000
0001
0010
0001
0000
0100
0000
,
0010
0010
0100
0100
,
0001
1000
2002
3003
,
0020
0000
1030
1000
,
0100
0000
0010
0100
0010
0000
0001
0000
,
0100
0000
1000
0000
0100
0000
0001
0010
,
0000
0010
0000
0010
0100
0000
0100
0000
,
1000
0001
0100
0010
,
1000
0010
0100
0010
,
1000
0001
0001
1000
,
0100
0010
0100
0000
0110
0000
0000
0000
,
0020
0000
0032
0000
,
2003
0000
3020
0000
,
0230
0000
0302
0000
,
2003
0000
3200
0000
,
0310
0001
0022
0033
,
1000
0010
2020
3030
,
0100
0100
0010
0010
,
1000
0001
2002
3003
,
1000
0000
0100
1000
0100
0000
0010
0000
,
0001
0010
0001
0100
,
1000
0100
0001
0100
,
0001
0000
0001
0001
0001
0000
0010
0000
,
0100
0000
1000
0100
1000
0000
0010
0000
,
0100
0000
0001
0100
0001
0000
0010
0000
,
0100
0100
0010
0010
,
0110
1001
0220
0330
,
1000
0010
1000
0010
,
1000
0001
0100
0001
,
1000
0000
0100
0000
0010
0000
0010
0001
,
0000
0001
0000
0100
0010
0000
0110
0000
,
1000
0100
0001
0100
,
1000
0010
0001
0010
,
1000
1000
0000
0001
0001
0000
1000
0000
,
0100
0010
2002
3003
,
0002
0000
0203
0000
,
2300
0000
3200
0000
,
0302
0023
2030
3020
,
0032
0000
2003
0000
,
3000
0000
0000
0000
;

//--------------- dance-single - ----------------
#NOTES:
     dance-single:
     :
     Medium:
     11:
     0,0,0,0,0:
0000
0000
0000
0000
,
0000
0000
0000
0000
,
0000
0000
0000
0000
,
0000
0000
0000
0000
,
0000
0000
0000
0000
,
0000
0000
0000
0000
0001
0010
0001
0010
,
0100
0000
0100
0000
1000
0010
1000
0010
,
0100
0000
0100
0000
0001
0000
0010
0100
,
0010
0100
1000
0001
0100
0100
0010
0010
,
2002
0000
0000
3003
,
1000
0010
0100
0000
0001
0010
0100
0000
,
1000
0001
0010
0000
0001
1000
0100
0000
,
0010
0001
0100
0000
0010
1000
0100
0000
,
1100
0101
1100
0101
,
0001
0010
0100
0000
1000
0010
0100
0000
,
0001
1000
0010
0000
1000
0001
0100
0000
,
0010
1000
0100
0010
0001
0100
0010
1000
,
0000
0100
0010
0100
0010
0000
0110
0000
,
0001
0000
0010
0000
0011
0000
0000
1000
,
0100
0000
0100
0000
1100
0000
0000
1000
,
0010
0000
0010
0000
1010
0000
0000
0001
,
0100
0000
0000
0100
0000
0000
0100
0000
0020
0000
0000
0000
0230
0000
0000
0000
,
0301
0000
0001
0010
0100
0000
1000
0010
,
0001
0010
0000
1000
1000
0000
0001
0100
,
0001
0000
1000
0100
0000
0110
0000
0011
,
0000
1010
0000
1000
0100
0010
0100
0010
,
0001
0000
0001
0010
0100
0000
1000
0010
,
0100
0010
0100
0001
1000
0000
1001
0000
,
1000
0100
0001
0100
,
1000
0100
1000
0100
0020
0000
0030
0000
,
0001
0100
0001
0100
,
0010
1000
0010
1000
,
0001
0010
0000
0010
0100
0000
0100
1000
,
0000
1000
0001
0000
1000
0000
1001
0000
,
1000
0010
1000
0100
1000
0010
0100
0000
,
0001
0010
0001
0100
0001
0010
0100
0000
,
2001
0010
0100
0010
,
3002
0010
0100
0013
,
1000
0001
0010
0001
0100
0010
1000
0000
,
0001
1000
0010
1000
0100
0010
0001
0000
,
0200
1000
0010
0301
,
0001
1000
0001
1000
0001
0000
0110
0000
,
0001
0010
0100
1000
0010
0100
0001
0000
,
0100
0010
1000
0001
0010
0100
1000
0000
,
0020
0001
0100
1030
,
1000
0100
0001
0100
1000
0000
1001
0000
,
0001
0100
0001
0100
1000
0000
0001
0000
,
0010
1000
0010
1000
0001
0000
0010
0100
,
0010
0000
0100
0000
1000
0010
0100
0001
,
0100
0010
1000
0001
2000
0000
3000
0000
,
0002
0000
0013
0010
,
0100
0000
0010
0001
0010
0001
0010
0001
,
1000
0010
1000
0000
0001
0010
0001
0100
,
0000
1010
0000
0011
0000
1010
0000
0001
,
0010
0100
1000
0000
0001
0100
0010
0000
,
1000
0001
0100
0000
0001
1000
0100
0000
,
0110
0000
0001
1000
0001
1000
0001
1000
,
0001
0010
0100
1000
0100
0000
1001
0000
,
2000
3020
0032
0023
,
2030
3200
0302
0203
,
2300
3020
2030
3200
,
0320
0000
0100
0100
0130
0000
1000
0000
,
0100
0010
0022
0033
,
0001
0100
2020
3030
,
1001
0000
0001
1000
0001
1000
0001
1000
,
0010
0100
0001
0100
0010
0000
1001
0000
,
0001
0010
0001
0100
0001
0010
0100
0000
,
1000
0010
1000
0100
1000
0010
0100
0000
,
1001
0000
0001
0010
0000
1000
0010
0001
,
0010
0001
0100
0010
1000
0010
1000
0000
,
0001
1000
0010
1000
0100
0010
0001
0000
,
1000
0001
0010
0001
0100
0010
1000
0000
,
0100
0100
0000
0010
0010
0000
0001
1000
,
0001
0100
0010
1000
0001
0000
1001
0000
,
0001
0010
0100
0000
1000
0010
0100
0000
,
0001
1000
0010
0000
1000
0001
0100
0000
,
0010
1000
0100
0000
0010
0001
0100
0000
,
0101
1100
0101
1100
,
1000
0010
0100
0000
0001
0010
0100
0000
,
1000
0001
0010
0000
0001
1000
0100
0000
,
0010
0001
0100
0010
1000
0100
0010
0001
,
0000
0100
0010
0100
0010
0000
0110
0000
,
2000
0000
0000
0000
3100
0010
0100
0010
,
0002
0000
0000
0000
0103
0010
0100
0010
,
2000
0000
3200
0000
0310
0001
0100
0001
,
0100
0010
1000
0001
2002
0000
0000
0000
,
3003
0000
0000
0000
;

//--------------- dance-single - ----------------
#NOTES:
     dance-single:
     :
     Hard:
     15:
     0,0,0,0,0:
0000
0000
0000
0000
,
0000
0000
0000
0000
,
0000
0000
0000
0000
,
0000
0000
0000
0000
,
0000
0000
0000
0000
,
0000
0000
0000
0000
1000
0100
0010
0001
,
1000
0000
0010
0100
0001
0001
1000
1000
,
0001
0000
0010
0100
0010
0000
0001
0100
,
0010
0100
0001
0100
0010
1000
0100
0010
,
2002
0000
0000
3003
,
0001
0000
0100
0010
0100
0000
0010
0000
1000
0000
0010
0000
0100
0000
0001
0000
,
1000
0000
0100
0010
0100
0000
0010
0000
0001
0000
0010
0100
0010
0000
0100
0000
,
1000
0000
0001
0100
0001
0000
1000
0000
0100
0000
0010
0000
0100
1000
0100
0000
,
0010
0000
0001
1000
0001
0000
0100
0000
0010
0000
0000
0010
0100
0000
0100
0000
,
0010
0000
1000
0001
0100
0000
0001
0000
0010
0000
0100
0000
0010
0000
0100
0000
,
1000
0000
0001
1000
0010
0000
0100
0000
0010
0000
0100
0000
0001
0000
1000
0000
,
0100
1100
0000
0001
0101
0000
0010
1000
,
0001
0000
0100
0001
0100
0000
0010
0000
0220
0000
0000
0000
0330
0000
0000
0000
,
1000
0000
0001
0000
0011
0000
1000
0100
,
1000
0020
0000
0130
0002
0000
0000
0013
,
0100
0000
0100
0010
0000
0110
0000
0001
,
1000
0000
0000
0001
0000
0000
1000
0000
1001
0000
0000
0000
0010
0100
0010
0100
,
0010
1000
0100
1000
0010
0100
0010
0100
,
0001
0000
0100
0010
1000
0000
0100
0010
0001
0000
0000
0000
0100
0000
0010
0000
,
0100
0000
0010
1000
0010
0100
0001
1001
,
0000
0000
1000
0000
0100
0000
0010
0000
0100
0000
1000
0000
0100
0010
0100
0010
,
0001
0000
0001
0100
1000
0000
1000
0100
,
0001
0000
0010
0100
0010
0000
0100
0000
1000
0000
0000
0000
0100
0000
0010
0000
,
0001
0000
0000
0000
0001
0000
0010
0000
0100
1000
0100
0000
0010
0000
1001
0000
,
0000
0011
0000
1010
0000
1000
0001
0000
,
0100
0001
0100
0001
0010
1000
0010
1000
,
0001
0100
0001
0100
1000
0010
1000
0010
,
0100
0001
0100
0000
0000
0000
0010
1000
0010
0000
0000
0000
1000
0001
1000
0000
,
0000
0001
0110
0000
1001
0000
1000
0100
,
0010
0000
0001
0100
0001
0000
0010
0000
0001
0000
0000
0000
0100
0000
0010
0000
,
1000
0100
1000
0010
1000
0000
0100
0010
,
0100
0000
0000
0000
0010
0000
0001
0000
0100
0000
0010
1000
0010
0000
0100
0000
,
1000
0100
0001
1000
1010
0000
0001
0010
,
0100
0000
1000
0010
1000
0000
0100
1000
0100
0000
0001
0000
1000
0000
0010
0000
,
0001
0000
0010
0001
0010
0000
0001
0100
0001
0000
0100
0000
1000
0000
0001
0000
,
0010
0000
0000
0000
1000
0000
0100
0000
1000
0000
0010
1000
0010
0000
1000
0000
,
0100
0000
0010
0000
0001
0000
0100
0000
0110
0000
0000
0000
1000
0001
1000
0001
,
1000
0000
0010
0100
0001
0000
1000
0000
0010
0000
0000
0000
0100
0000
0010
0000
,
1000
0001
1000
0100
0000
0010
0001
0010
,
0001
0000
0000
0000
0100
0001
0100
0000
0010
0000
1000
0000
0010
0000
1000
0000
,
1100
0000
0010
0000
0001
0000
0100
0000
0110
0000
0000
0000
1000
0001
1000
0001
,
1000
0010
0001
1000
0100
0001
0101
0000
,
1000
0000
0100
1000
0100
0000
0001
0000
1000
0000
0010
0000
0011
0000
0000
0000
,
1001
0000
0000
0000
1000
0000
0100
0000
0010
0000
0001
1000
0001
1000
0001
1000
,
0001
0100
1000
0100
0002
0000
0003
0000
,
2000
0000
3200
0320
,
0230
0000
0000
0000
1300
0000
0010
0000
1000
0000
0100
1000
0100
0000
0010
0000
,
0100
0000
0010
0001
0010
0000
0001
0000
0100
0000
1000
0000
0100
0010
0100
0000
,
0001
0000
0010
0000
1000
0000
0010
0000
0001
0000
0010
0000
0001
0100
0010
1000
,
0010
0000
0100
0001
1000
0000
0100
0000
0020
0000
0000
0000
0130
0000
1000
0000
,
0001
0000
0100
0010
1000
0000
0010
0000
0200
0000
0000
0000
0310
0000
1000
0001
,
1000
0000
0000
0000
0001
0000
0010
0100
0010
0100
0010
0100
0010
0100
0010
0100
,
0010
0000
0001
1000
0010
0000
0100
0000
0020
0000
0000
0000
0030
0000
0000
0000
,
1000
0000
0100
0010
0001
0000
1000
0000
0200
0000
0000
0000
0310
0000
0001
0000
,
0100
0010
1000
0020
0000
0130
0001
0100
,
0002
0000
0000
0000
1003
0000
0100
0000
0010
0000
0001
0010
0001
0000
0100
0000
,
1000
0100
0001
0100
0002
0000
0013
0100
,
0010
1000
0010
0001
0011
0000
0001
0100
,
0010
0001
0010
1000
1010
0000
1000
0001
,
1000
0000
0000
0000
0100
0010
0100
0010
0100
0010
0100
0010
0100
0010
0100
0010
,
0001
0100
0010
1000
1001
0000
0001
0100
,
0010
0000
1000
0100
1000
0000
0010
0000
1000
0000
0000
0000
0100
0000
0010
0000
,
0001
0100
0001
0010
0001
0000
0100
0010
,
0110
0000
0000
0000
0010
0000
1001
0000
0000
0000
1000
0001
1000
0000
0010
0000
,
0100
0000
0010
0000
0100
0000
0001
0000
1000
0100
0010
0001
0010
0000
0001
0000
,
0100
0000
0001
0010
0001
0000
0100
0001
0100
0000
1000
0000
0001
0000
0010
0000
,
1000
0000
0010
1000
0010
0000
1000
0100
1000
0000
0100
0000
0001
0000
0100
0000
,
1000
0100
1000
0000
0000
0000
0001
0100
0001
0000
0000
0000
0100
0000
0010
0000
,
1000
0100
0001
0100
2000
0000
3002
0000
,
1003
0000
0100
0010
0100
0000
0010
0000
0001
0000
0010
0000
0100
0000
1000
0000
,
0001
0000
0100
0010
0100
0000
0010
0000
1000
0000
0010
0100
0010
0000
0100
0000
,
0001
0000
1000
0100
1000
0000
0001
0000
0100
0000
0010
0000
0100
0001
0100
0000
,
0010
0000
1000
0001
1000
0000
0200
0000
0320
0000
0032
0000
2003
0000
3002
0000
,
0103
0000
0001
1000
0100
0000
1000
0000
0010
0000
0100
0000
0010
0000
0100
0000
,
0001
0000
1000
0001
0010
0000
0100
0000
0010
0000
0100
0000
1000
0000
0001
0000
,
0100
0101
0000
1000
1100
0000
0010
0001
,
1000
0000
0100
1000
0100
0000
0010
0000
0220
0000
0000
0000
0330
0000
0000
0000
,
0002
0000
0000
0000
1003
0010
1000
0100
,
2000
0000
0000
0000
3001
0100
0001
0010
,
0002
0000
0000
0000
0203
0000
0000
0000
0310
0000
1000
0001
1000
0000
0100
0000
,
0001
1000
0010
0001
2002
0000
0000
0000
,
3003
0000
0000
0000
;
