#VERSION:0.83;
#TITLE:ヒバナ;
#SUBTITLE:-Reloaded-;
#ARTIST:DECO*27;
#TITLETRANSLIT:HIBANA;
#SUBTITLETRANSLIT:;
#ARTISTTRANSLIT:;
#GENRE:;
#ORIGIN:;
#CREDIT:;
#BANNER:HIBANA -Reloaded-.png;
#BACKGROUND:HIBANA -Reloaded--bg.png;
#PREVIEWVID:;
#JACKET:HIBANA -Reloaded--jacket.png;
#CDIMAGE:;
#DISCIMAGE:;
#LYRICSPATH:;
#CDTITLE:;
#MUSIC:HIBANA -Reloaded-.ogg;
#OFFSET:0.000000;
#SAMPLESTART:45.440002;
#SAMPLELENGTH:19.500000;
#SELECTABLE:YES;
#BPMS:0.000=200.000;
#STOPS:244.000=0.600;
#DELAYS:;
#WARPS:;
#TIMESIGNATURES:0.000=4=4;
#TICKCOUNTS:0.000=4;
#COMBOS:0.000=1;
#SPEEDS:0.000=1.000=0.000=0,
278.000=2.000=4.000=0;
#SCROLLS:0.000=1.000,
244.000=0.500;
#FAKES:;
#LABELS:0.000=Song Start;
#BGCHANGES:;
#KEYSOUNDS:;
#ATTACKS:
;

//---------------dance-single - ----------------
#NOTEDATA:;
#CHARTNAME:;
#STEPSTYPE:dance-single;
#DESCRIPTION:;
#CHARTSTYLE:;
#DIFFICULTY:Hard;
#METER:16;
#RADARVALUES:0.784802,1.032357,0.545674,0.560422,0.210158,745.000000,671.000000,74.000000,76.000000,0.000000,0.000000,0.000000,0.000000,0.000000,0.784802,1.032357,0.545674,0.560422,0.210158,745.000000,671.000000,74.000000,76.000000,0.000000,0.000000,0.000000,0.000000,0.000000;
#CREDIT:Kekkle;
#NOTES:
0000
0000
0000
0000
,
0000
0000
0000
0000
,
0000
0000
0000
0000
,
0000
0000
0000
0000
,
0000
0000
0000
0000
,
0000
0000
0000
0000
,
1000
0010
0100
0001
1000
0100
0010
2000
,
0000
3010
0001
1000
0010
0100
0001
0001
,
1000
0100
0010
0001
1000
0010
0100
2000
,
0000
0000
3100
0000
0001
0000
1000
0000
0100
0000
0010
0000
0001
1000
0001
1000
,
0001
0100
0010
1000
0001
0010
0100
0002
,
0000
0103
1000
0001
0100
0010
0110
0000
,
0102
0000
1003
1200
0000
0310
0001
0001
,
1000
0000
0010
0100
0001
0000
0100
0000
1000
0000
0100
0000
0010
0000
1000
0000
,
0002
0000
0000
1003
0100
0000
0010
0200
,
0000
0001
0000
0310
0000
0001
1000
0010
,
0100
0000
0000
0010
0001
0010
1000
0020
,
0000
0000
0001
0000
0000
0000
0130
0000
0001
1000
0001
1000
0001
0000
0000
0000
,
0011
0010
0000
0100
0000
1000
0001
1000
,
1010
0010
0000
0100
0000
0001
1000
0000
,
1001
0001
0000
0010
0100
1000
0001
0100
,
0020
0001
0000
1000
0000
0130
0110
0000
,
2001
0000
3010
0100
0001
1000
0100
0001
,
0200
0010
0000
1300
0100
0010
0001
1000
,
1002
0000
0013
0100
1000
0001
0100
1000
,
0200
0010
0000
0301
0100
0010
0110
0000
,
1002
0000
0103
0010
1000
0001
0010
1000
,
0020
0100
0000
0031
0010
0100
0110
0000
,
1001
0002
0100
0103
0001
2000
0100
3100
,
0010
0000
0001
1000
0010
0000
0100
0000
0001
0000
1000
0000
0001
0000
0001
0000
,
2001
0000
0000
0000
3100
0000
0000
0010
0001
0000
1000
0000
0010
0000
0011
0000
,
0000
0000
0110
0000
0100
0000
0001
1000
0200
0000
0000
0000
0320
0000
0000
0000
,
0031
0000
1000
0000
0010
0000
0000
0100
0001
0000
1000
0000
0100
0000
0101
0000
,
0000
0000
0110
0000
0010
0000
0001
0000
1000
0000
0010
0000
0100
0000
0001
1000
,
0100
1100
0110
0011
,
1001
0101
0110
1010
,
1001
1000
0000
0011
0001
0000
1010
1000
,
0000
0000
0000
0000
0000
0000
0000
0000
0001
1000
0001
1000
0001
1000
0001
1000
,
0020
0000
0001
0000
1030
0001
1000
1200
,
0000
0310
0001
1000
0001
0001
0100
0000
,
0001
1000
0100
0001
1000
0001
0100
2000
,
0000
0000
3001
0000
0100
0010
0100
0010
1000
0000
0001
0000
1000
0100
1000
0100
,
0020
0000
1000
0000
0031
1000
0001
0201
,
0000
0310
1000
0001
1000
1000
0100
0000
,
1000
1100
0001
0100
0101
1000
0100
0120
,
0000
0000
0031
0000
1000
0001
1000
0001
0100
0000
0001
0000
1002
0000
0000
0000
,
0023
0000
0100
0000
1030
0010
0001
0000
,
1020
0000
0100
0000
0031
0010
1000
0001
,
0020
0000
1000
0000
0031
1000
0001
0201
,
0000
0310
1000
0001
1000
1000
0200
0000
,
0320
0000
0100
0000
1030
0010
0001
0000
,
1020
0000
0100
0000
0031
0010
1000
1002
,
0000
0000
1003
0000
0100
0000
0010
0000
0001
0000
1000
0001
0100
0000
0001
0100
,
0020
0000
0000
0130
,
1001
0000
0002
0000
1003
0100
0000
0100
,
0000
0000
0100
0000
0010
0001
0010
0000
0001
0000
1000
0000
0010
0000
0100
0000
,
0000
0020
0000
0100
0000
1000
0000
0130
,
0000
0002
0000
1000
0000
0010
0000
1003
,
0001
0000
0100
0010
0200
0000
0000
0000
0301
0000
1000
0000
0000
0000
1000
0000
,
0000
1000
0000
1000
0100
0010
0001
1000
,
0001
0100
0010
0000
1000
0001
0010
0000
0100
1000
0100
1000
0001
0100
0001
0100
,
0010
0000
1001
0001
,
0000
0001
0000
0100
0110
0000
0010
1000
,
0001
0010
0100
0001
0201
0000
1000
0000
,
0000
0310
0000
0000
1001
0000
0000
0001
,
0200
0000
0310
1000
,
0000
1000
0000
0000
1001
0000
0000
0001
,
0100
0010
0100
1000
1200
0000
0001
0000
,
0000
0310
0000
0000
0110
0000
0100
0000
,
0001
1000
0010
1000
0001
0000
1000
0000
0000
0000
0000
0000
0000
0000
0000
0000
,
0000
0000
1001
0001
,
0001
0010
0100
0101
0000
0110
0010
0001
,
1000
0000
0010
0001
0010
0000
1000
0000
,
1000
0000
0010
0000
0100
0000
0001
1000
0100
0000
1000
0100
0010
0000
1000
0000
,
0010
0001
1000
0001
1001
0000
1010
0000
,
0110
0000
0000
0000
0101
0000
0100
0010
1000
0000
0001
1000
0100
0000
0010
0001
,
1000
0010
1000
0010
0100
0001
0100
0001
2000
0000
0000
0000
3100
0000
0020
0000
,
0000
0031
2000
0000
3020
0000
0000
0000
,
0000
0000
0000
0130
1001
0000
0000
0110
,
0000
1001
0000
0000
,
0000
0000
0000
0001
0201
0000
1000
0000
,
0301
0000
1000
0100
0000
0010
0001
1000
,
0020
0000
0130
0000
0000
0020
0000
0031
,
0020
0000
1030
0020
0000
0130
0001
1000
,
0100
0000
0000
0010
0200
0000
0001
0000
,
1300
0000
0100
0010
0000
0001
1000
0010
,
0200
0000
0310
0000
0000
0200
0000
1300
,
0200
0000
0301
0200
0000
0310
1000
0001
,
0010
0001
0021
0100
,
0001
0000
0130
1000
0002
0000
0100
0000
,
1003
0000
0010
1000
0001
0000
1000
0000
0200
0000
0000
0000
0001
0000
0000
0000
,
1300
0000
0100
0100
0010
0001
1000
0010
,
0100
0000
0001
1000
0100
0000
1000
0000
0001
0000
0100
0000
0001
0000
0100
0000
,
0010
1000
0010
1000
0001
0010
0001
0010
,
0100
0000
1000
0000
0100
0000
1000
0000
0001
0000
0100
0010
1000
0000
0001
1000
,
0100
0000
0010
0001
1000
0000
0001
0100
0010
1000
0001
1000
0100
0010
0001
1000
,
0002
1003
2002
3003
,
0001
1000
0100
2100
0000
3001
0100
0010
,
0001
0001
0010
0000
1000
0001
0010
1000
,
0001
0000
1000
0000
0010
0000
0002
0000
0000
0000
1003
0000
0100
0010
0001
1000
,
0010
0000
1000
0000
0001
0100
0001
1000
0200
0000
0000
0000
0001
0000
0000
0000
,
1300
0001
0100
0102
0000
1003
0100
0010
,
1000
1000
0010
0000
0001
0011
1000
0010
,
1010
0000
0001
0000
0010
0000
0210
0000
0000
0000
1300
0000
0001
0100
0010
1000
,
0001
1000
1001
0000
0201
0000
0010
0000
,
1300
0100
0001
0000
1200
0000
0010
0000
,
0301
0100
1000
0001
0200
0000
1000
0000
,
0301
1000
0100
0120
0000
0031
1000
0001
,
0101
0100
0110
0000
1020
0000
0130
0000
,
1100
0100
0001
1000
1200
0000
0310
0000
,
1010
0010
0001
2000
0000
3001
0100
0010
,
0100
0000
0001
2000
0000
3001
0010
0100
,
0010
0000
0000
0000
;

//---------------dance-double - ----------------
#NOTEDATA:;
#CHARTNAME:;
#STEPSTYPE:dance-double;
#DESCRIPTION:;
#CHARTSTYLE:;
#DIFFICULTY:Hard;
#METER:17;
#RADARVALUES:0.780588,1.032357,0.523552,0.575170,0.206471,741.000000,670.000000,71.000000,78.000000,0.000000,0.000000,0.000000,0.000000,0.000000,0.780588,1.032357,0.523552,0.575170,0.206471,741.000000,670.000000,71.000000,78.000000,0.000000,0.000000,0.000000,0.000000,0.000000;
#CREDIT:Kekkle;
#NOTES:
00000000
00000000
00000000
00000000
,
00000000
00000000
00000000
00000000
,
00000000
00000000
00000000
00000000
,
00000000
00000000
00000000
00000000
,
00000000
00000000
00000000
00000000
,
00000000
00000000
00000000
00000000
,
10000000
01000000
00100000
00010000
01000000
00100000
01000000
20000000
,
00000000
31000000
00100000
00010000
00001000
00100000
00001000
00001000
,
00010000
00000100
00000010
00000001
00000100
00000010
00000100
00002000
,
00000000
00000000
00003100
00000000
00000010
00000000
00001000
00000000
00000010
00000000
00010000
00000000
00001000
00010000
00001000
00010000
,
00001000
00100000
01000000
10000000
00100000
01000000
00100000
00020000
,
00000000
00130000
10000000
00010000
00100000
00001000
00011000
00000000
,
00020010
00000000
00031000
00201000
00000000
00301000
00010000
00010000
,
00001000
00000000
00000100
00000010
00000100
00000000
00000001
00000000
00001000
00000000
00000100
00000000
00000010
00000000
00001000
00000000
,
00020000
00000000
00000000
00031000
01000000
00000000
00100000
02000000
,
00000000
10000000
00000000
03100000
00000000
10000000
00010000
00100000
,
00001000
00000000
00000000
00010000
00000100
00001000
00000001
00000200
,
00000000
00000000
00001000
00000000
00000000
00000000
00000310
00000000
00010000
00000010
00010000
00000010
00010000
00000000
00000000
00000000
,
00011000
00001000
00000000
01000000
00000000
00100000
10000000
00010000
,
00110000
00100000
00000000
00001000
00000000
00010000
00000010
00000000
,
00001001
00001000
00000000
00000001
00000100
00000010
00000100
00001000
,
00020000
00100000
00000000
00000010
00000000
00031000
00011000
00000000
,
02001000
00000000
03100000
10000000
00010000
00100000
01000000
00010000
,
00002000
00100000
00000000
00013000
00000010
00000100
00000001
00000001
,
00002000
00000000
00003001
00000010
00000100
00000010
00001000
00010000
,
00032000
01000000
00000000
00013000
00001000
01000000
01100000
00000000
,
10020000
00000000
01030000
00100000
10000000
00010000
00100000
01000000
,
00020000
00001000
00000000
00030010
00000100
00000001
00001001
00000000
,
00010100
00020000
00000100
00030100
00010000
00002000
01000000
01003000
,
00100000
00000000
10000000
00010000
00100000
00000000
00001000
00000000
00100000
00000000
00010000
00000000
10000000
00000000
10000000
00000000
,
10020000
00000000
30000000
00000000
00130000
00000000
00000000
01000000
10000000
00000000
00010000
00000000
01000000
00000000
11000000
00000000
,
00000000
00000000
01100000
00000000
00100000
00000000
10000000
00010000
00200000
00000000
00000000
00000000
00301000
00000000
00000000
00000000
,
00021000
00000000
00000000
00000000
00030010
00000000
00000000
00001000
00000001
00000000
00000010
00000000
00000100
00000000
00000101
00000000
,
00000000
00000110
00000010
00000001
00001000
00000010
00000200
00000000
,
00001300
00011000
01001000
01100000
,
01001000
00011000
00010100
00000110
,
00001001
00001000
00000000
00010010
00010000
00000000
00101000
00001000
,
00000000
00000000
00000000
00000000
00000000
00000000
00000000
00000000
00010000
00001000
00010000
00001000
00100000
00010000
00100000
01000000
,
00200000
30000000
10000000
00000000
00310000
10000000
00100000
02100000
,
00000000
03001000
00010000
01000000
00010000
00010000
00001000
00000000
,
00010000
00001000
00000100
00000001
00001000
00000001
00000010
00002000
,
00000000
00000000
00013000
00000000
00000010
00010000
00000010
00010000
00001000
00000000
00100000
00000000
00001000
00010000
00001000
00010000
,
00000200
00000000
00000001
00000000
00001330
00000001
00000100
00000120
,
00000000
00010330
00001000
00000100
00001000
00001000
00010000
00000000
,
00001000
00011000
00010000
00100000
10100000
10000000
00010000
00210000
,
00000000
00000000
01300000
00000000
10000000
00010000
10000000
00010000
01000000
00000000
00001000
00000000
00010000
00000000
00000000
00000000
,
00012000
00000000
00000100
00000000
00003001
00001000
00010000
00000000
,
00021000
00000000
01000000
00000000
10030000
00010000
00001000
00010000
,
00000200
00300000
00000001
00000000
00001300
00000001
00000100
00000120
,
00000000
00010030
00001000
00000100
00000010
00030010
00010000
00000000
,
00021000
00000000
00100000
00000000
10030000
00010000
00001000
00000000
,
00012000
00000000
00000010
00000000
00003001
00001000
00010000
00012000
,
00000000
01003000
00100000
01000000
10000000
01000000
00010000
20000000
,
00000000
31000000
00010000
00001000
00020000
00300000
00031000
00000000
,
00011000
00000000
00020000
00000000
00030100
00000010
00000000
00000010
,
00000000
00000000
00000010
00000000
00000001
00001000
00000001
00000000
00000100
00000000
00000010
00000000
00010000
00000000
00001000
00000000
,
00000000
00020000
00000000
01000000
00000000
00001000
00000000
00000100
,
00000000
00032000
00000000
00000100
00000000
00010000
00000000
01003000
,
00010000
00000000
10000000
00010000
20000000
00000000
00000000
00000000
31000000
00000000
00100000
00000000
00000000
00000000
00100000
00000000
,
00000000
00100000
00000000
00100000
00001000
00010000
00000010
00001000
,
00000001
00001000
00000001
00001000
00000100
00010000
00000100
00010000
00001000
00100000
00010000
10000000
00100000
01000000
00100000
10000000
,
00010000
00000000
10010000
10000000
,
30100000
01000000
00000000
00010000
00000000
00010000
00000000
10000000
,
01000000
00100000
01000000
00010000
00012000
00000000
00000010
00000000
,
00000000
00013000
00000000
00000000
00011000
00000000
00000000
00001000
,
00000200
00000000
00000000
00000030
00000301
00000300
00001000
00000000
,
00000000
00000100
00000000
00000100
00000000
00000100
00000000
00001000
,
00000010
00000100
00001000
00010000
00012000
00000000
00000100
00000000
,
00000000
00013000
00000000
00000000
00011000
00000000
00000000
00000000
,
00001000
01000000
00001000
01000000
00010000
00000000
10000000
00000000
00000000
00000000
00000000
00000000
00000000
00000000
00000000
00000000
,
00000000
00000000
10010000
20000000
,
30010000
00100000
01000000
01010000
00000000
00011000
00001000
00100000
,
00001000
00000000
00013000
00031000
00000100
00000000
00000002
00000030
,
00001003
00000000
00000100
00000000
00010000
00000000
00001000
00100000
00010000
00000000
00100000
00001000
00010000
00000000
00100000
00000000
,
01000000
00010000
10000000
00000000
10010000
00000000
01001000
00000000
,
00011000
00000000
00000000
00000000
00010100
00000000
00000100
00000010
00000001
00000000
00001000
00000001
00000100
00000000
00000010
00010000
,
00001000
00100000
00001000
00100000
00010000
10000000
00100000
01000000
00200000
00000000
00000000
00000000
01300000
00000000
00020000
00000000
,
00000000
10030000
02000000
00000000
03020000
00000000
00000000
00000000
,
00000000
00000000
00000000
00031000
00101000
00000000
00000000
00010010
,
00000000
00011000
00000000
00000000
,
00000000
00000000
00000000
00010000
00012000
00000000
00000100
00000000
,
00013000
00000000
00100000
00010000
00000000
00100000
10000000
00010000
,
00200000
00000000
00301000
00000000
00000000
00020000
00000000
01030000
,
00020000
00000000
00031000
00020000
00000000
00030100
00000010
00000001
,
00001000
00000000
00000000
00000010
00020000
00000000
00100000
00000000
,
00031000
00000000
00000100
00001000
00000000
00000100
00000001
00001000
,
00000200
00000000
00010300
00000000
00000000
00002000
00000000
00003100
,
00002000
00000000
00013000
00002000
00000000
01003000
00100000
10000000
,
30010000
10000000
12000000
00100000
,
03010000
00000000
00001000
00100000
00020000
00000000
10000000
00000000
,
01030000
00000000
00010000
01000000
00001000
00000000
00010000
00000000
00000020
00000000
00000000
00000000
00000001
00000000
00000000
00000000
,
00001030
00000000
00000001
00000001
00001000
00000100
00010000
00001000
,
00100000
00000000
00001000
00010000
00000010
00000000
00010000
00000000
00001000
00000000
00010000
00000000
00100000
00000000
00010000
00000000
,
00001000
00010000
01000000
00000000
00010000
00001000
00000010
00031000
,
00010000
00000000
00001000
00000000
00000100
00000000
00000000
00000000
00001000
00010000
00103000
00000000
01000000
00010000
10000000
00000000
,
00010000
00100000
00301000
00000000
00010000
00001000
00000100
00000000
00000001
00001000
00000100
00001000
00000001
00000100
00000010
00010000
,
00002000
00013000
00022000
00033000
,
00001000
00010000
00100000
02100000
00000000
03001000
00010000
00001000
,
00000010
00000010
00001000
00000000
00010000
00001000
00000010
00000001
,
00001000
00000000
00000001
00000000
00000100
00000000
00002000
00000000
00000000
00000000
00013000
00000000
00100000
01000000
00010000
10000000
,
00010000
00000000
00100000
00000000
00001000
00100000
00010000
10000000
00200000
00000000
00000000
00000000
00010000
00000000
00000000
00000000
,
10300000
00010000
00100000
02100000
00000000
03010000
00001000
00010000
,
01000000
01000000
00010000
00000000
00001000
00011000
00010000
00000010
,
00003101
00000000
00000001
00000000
00001000
00000000
00001200
00000000
00000000
00000000
00300310
00000000
00000001
00001000
00000010
00010000
,
00001000
00100000
00101000
00000000
00021000
00000000
01000000
00000000
,
10030000
00010000
00001000
00000000
00012000
00000000
00000100
00000000
,
00003001
00001000
00010000
00001000
02000000
00000000
10000000
00000000
,
03010000
10000000
01000000
01200000
00000000
00301000
00010000
00000010
,
00010010
00010000
00011000
00000000
02001000
00000000
13000000
00010000
,
00100000
01000000
00001000
00010000
00010200
00000000
00000301
00001000
,
00000010
00000001
00001000
00000020
00000000
00000130
00001000
00010000
,
00001000
00000000
00100000
02000000
00000000
13300000
00010000
01000000
,
00010000
00000000
00000000
00000000
;

//---------------dance-single - ----------------
#NOTEDATA:;
#CHARTNAME:;
#STEPSTYPE:dance-single;
#DESCRIPTION:;
#CHARTSTYLE:;
#DIFFICULTY:Medium;
#METER:14;
#RADARVALUES:0.643643,0.825886,0.361325,0.553048,0.040557,611.000000,562.000000,49.000000,75.000000,0.000000,0.000000,0.000000,0.000000,0.000000,0.643643,0.825886,0.361325,0.553048,0.040557,611.000000,562.000000,49.000000,75.000000,0.000000,0.000000,0.000000,0.000000,0.000000;
#CREDIT:Kekkle;
#NOTES:
0000
0000
0000
0000
,
0000
0000
0000
0000
,
0000
0000
0000
0000
,
0000
0000
0000
0000
,
0000
0000
0000
0000
,
0000
0000
0000
0000
,
0001
0010
0001
1000
0010
1000
0000
0020
,
0000
0130
0001
1000
0100
0010
0001
0000
,
1000
0010
1000
0001
0010
0001
0000
0020
,
0000
0031
1000
0010
0100
0001
2000
0000
,
3100
0010
0100
1000
0001
1000
0000
0020
,
0000
0130
0001
1000
0100
0000
0110
0000
,
1002
0000
0103
2000
0000
3100
0002
0000
,
1003
0100
0001
0100
1000
0001
0100
0000
,
2001
0000
0000
3001
3100
0000
0010
2000
,
0000
0001
0000
3100
3000
0010
0001
1000
,
0001
0000
0000
0010
0100
0010
0001
2000
,
0000
0001
0000
3013
0100
0010
0100
0000
,
0001
0002
0000
1003
0100
0010
0100
0000
,
1000
2000
0000
3001
0100
0010
0100
0000
,
0001
0100
0010
0100
1000
0100
0001
0000
,
0100
0110
0000
1001
0000
0001
0010
0000
,
0110
0000
0100
0010
0001
1000
0010
0200
,
0000
1000
0030
0301
0000
1000
0001
1000
,
0100
0000
0010
0100
0010
0001
0000
0020
,
0000
1000
0000
0031
0000
1000
0001
0000
,
1001
0000
1000
0001
0100
0010
1000
0020
,
0000
0001
0000
1030
0000
0001
1000
0100
,
0010
0001
1000
1000
0010
1000
0001
0001
,
1000
0100
0001
0100
1000
0001
0100
0000
,
1001
0000
0002
0000
0103
0010
0000
0001
,
0030
0001
0010
1000
0002
0000
0013
0000
,
1001
0000
2000
0000
3100
0010
0000
1000
,
0000
1000
0010
0001
1000
0010
0200
0000
,
0310
1000
0011
1001
,
1000
0001
1010
1001
,
1000
0100
0000
0001
0100
0000
0010
0001
,
0000
0000
0000
0000
0000
0000
0000
1000
,
0002
0000
0203
0000
2300
0000
3100
0010
,
0000
1000
0001
0010
0200
0000
0310
0000
,
0001
2000
0000
3010
0002
0000
0013
2000
,
0000
3001
0100
0100
0001
0000
1000
1000
,
0002
0000
0023
0000
2030
0000
3010
0001
,
0000
1000
0001
0100
0020
0000
0130
0000
,
0001
0100
0100
0010
1000
0000
0001
2001
,
0000
3100
0010
0001
1000
0000
1000
0000
,
0001
0100
1010
1100
,
1000
0100
0011
0101
,
0002
0000
0203
0000
2300
0000
3100
0010
,
0000
1000
0001
0010
0110
0000
1001
0000
,
1000
0010
0101
0011
,
0001
0000
0010
0000
1100
0000
1000
0020
,
0000
0130
0001
1000
0001
0000
0010
0200
,
0000
1300
0001
0100
0002
0000
1003
0000
,
1001
0000
0001
0000
0010
0100
0000
1000
,
0000
0100
0010
0001
1000
0000
0001
0200
,
0000
0010
0000
0010
0000
0010
0000
0310
,
2000
0001
0000
0001
0000
0001
0000
3001
,
0010
0100
2000
0000
3001
0100
0000
0010
,
0000
0100
0000
0001
1000
0100
0010
0001
,
1000
0000
0010
0000
0001
0000
1000
0000
0100
0000
0001
0000
1000
0001
1000
0000
,
0100
0000
1001
0001
,
0010
0100
0000
0010
0000
0100
0000
0010
,
0001
0000
1000
0001
0200
0000
0010
0000
,
0000
0310
0000
0000
0110
0000
0000
0000
,
2000
0000
3001
0020
,
0000
0130
0000
0010
0000
0100
0000
0010
,
0001
0000
1000
0020
0000
0000
0100
0000
,
0000
0130
0000
0000
0110
0000
0000
0000
,
1000
0010
0001
0010
0000
0000
0000
0000
,
0000
0000
1001
0002
,
0103
0010
0000
0001
0000
0001
0010
1000
,
0002
0000
0013
1030
0010
0000
0002
0000
,
1003
0000
0010
0000
0100
0000
0001
1000
0001
0000
0010
0000
0010
0000
1000
0000
,
0010
0001
1000
0000
1001
0000
0001
0000
,
1100
0000
1001
0000
0001
1000
0100
0010
,
0001
0010
0001
0000
1000
0001
1000
0000
0002
0000
0000
0000
0000
0000
0203
0000
,
0000
0310
2000
0000
,
0000
0000
0000
3001
1001
0000
0000
0110
,
0000
1001
0000
0000
,
0000
0000
0000
0001
0010
0000
0010
0000
,
0010
0000
0103
2000
0330
3001
0100
0001
,
0200
0000
0310
0000
0000
1000
0000
0100
,
0301
0000
0100
2300
0000
3001
3100
0010
,
0100
0000
0000
0001
1000
0000
1000
0000
,
1000
0000
0100
0020
0000
0031
1000
0010
,
0200
0000
0310
0000
0000
1000
0000
0010
,
0001
0000
0010
2000
0000
3001
0010
0100
,
0010
0001
1000
1000
,
1000
0000
0010
0100
0001
0000
0001
0000
,
0001
0000
1000
0001
1000
0000
0100
0000
0010
0000
0000
0000
0010
0000
0000
0000
,
0010
0000
0001
2000
0000
3001
0100
0010
,
1000
0000
0001
1000
0001
0000
0000
0000
1000
0000
0100
0000
0010
0000
0000
0000
,
0001
0100
0010
0000
1000
0010
0100
0000
,
0001
0010
0100
0010
0001
1000
0010
0001
,
1000
0000
0100
0000
0001
0000
1000
0000
0001
0010
0001
0000
1000
0001
1000
0001
,
2000
3001
2002
3003
,
1000
0000
0010
0200
0000
0310
1000
0010
,
0001
0010
0100
0000
0001
2000
0000
3100
,
0002
0000
0103
2000
0000
3001
0100
0010
,
1000
0000
0000
0000
0001
1000
0001
1000
0002
0000
0000
0000
0023
0000
0000
0000
,
2030
0000
3010
0032
0000
1303
0010
0100
,
1000
0100
0001
0000
1000
0001
0001
0010
,
0110
0000
1000
1002
0000
0103
0010
1000
,
0001
1000
0001
0010
,
1100
1010
1000
0010
,
0101
0011
0002
0023
,
2030
0000
3010
0002
0000
1003
0010
0100
,
0001
0100
0110
0000
1001
0000
0011
0000
,
0110
1100
1001
1010
,
0110
0000
0100
0302
0000
0103
0010
1000
,
0010
0000
1000
0002
0030
1033
0100
0010
,
0100
0000
0000
0000
;

//---------------dance-double - ----------------
#NOTEDATA:;
#CHARTNAME:;
#STEPSTYPE:dance-double;
#DESCRIPTION:;
#CHARTSTYLE:;
#DIFFICULTY:Medium;
#METER:14;
#RADARVALUES:0.623628,0.743297,0.199097,0.759520,0.029496,592.000000,565.000000,27.000000,103.000000,0.000000,0.000000,0.000000,0.000000,0.000000,0.623628,0.743297,0.199097,0.759520,0.029496,592.000000,565.000000,27.000000,103.000000,0.000000,0.000000,0.000000,0.000000,0.000000;
#CREDIT:Kekkle;
#NOTES:
// measure 0
00000000
00000000
00000000
00000000
,  // measure 1
00000000
00000000
00000000
00000000
,  // measure 2
00000000
00000000
00000000
00000000
,  // measure 3
00000000
00000000
00000000
00000000
,  // measure 4
00000000
00000000
00000000
00000000
,  // measure 5
00000000
00000000
00000000
00000000
,  // measure 6
10000000
00100000
10000000
00010000
01000000
00001000
00000000
00020000
,  // measure 7
00000000
00030100
00000010
00000001
00001000
00000010
00000100
00000000
,  // measure 8
00000001
00000100
00000001
00001000
00000100
00010000
00000000
00002000
,  // measure 9
00000000
01003000
00010000
10000000
01000000
00100000
00020000
00000000
,  // measure 10
10030000
01000000
10000000
00010000
01000000
00001000
00000000
00020000
,  // measure 11
00000000
00030010
00000100
00000001
00001000
00000000
00001001
00000000
,  // measure 12
00000002
00000000
00000103
00002000
00000000
00013000
00200000
00000000
,  // measure 13
01300000
00010000
10000000
01000000
00010000
01000000
10000000
00000000
,  // measure 14
10020000
00000000
00000000
01030000
00100000
00000000
10000000
00010000
,  // measure 15
00000000
00010000
00000000
00010000
00000000
00100000
00001000
00010000
,  // measure 16
00000020
00000000
00000000
00000130
00000001
00001000
00000100
00000010
,  // measure 17
00000000
00000010
00000000
00000010
00000001
00001000
00001001
00000000
,  // measure 18
00000001
00000002
00000000
00000103
00000010
00010000
00000010
00000000
,  // measure 19
00010000
00020000
00000000
00031000
00100000
00010000
00100000
00000000
,  // measure 20
00010000
00020000
00000000
10030000
00100000
01000000
00100000
00010000
,  // measure 21
00002000
00100000
00000000
00103000
00000000
00001000
00010000
00000000
,  // measure 22
00012000
00000000
00103000
00001000
00010000
00000100
00000010
00000200
,  // measure 23
00000000
00000001
00000000
00001300
00000000
00000001
00000100
00000010
,  // measure 24
00010000
00000000
00000010
00000100
00001000
00010000
00000000
00002000
,  // measure 25
00000000
00000100
00000000
00013000
00000000
00001000
00100000
00000000
,  // measure 26
00101000
00000000
00001000
00100000
00010000
10000000
00100000
02000000
,  // measure 27
00000000
10000000
00000000
03010000
00000000
00000000
10010000
00000000
,  // measure 28
10000000
01000000
00100000
00100000
00001000
00010000
00000010
00000010
,  // measure 29
00000100
00000001
00001000
00000100
00000001
00000100
00001000
00000000
,  // measure 30
00001001
00000000
00000002
00000000
00000103
00000010
00000000
00000001
,  // measure 31
00000000
00000001
00000010
00001000
00000002
00000000
00000013
00001000
,  // measure 32
00010000
00000000
00002000
00000000
00103000
01000000
00000000
00010000
,  // measure 33
00000000
00010000
01000000
10000000
00010000
01000000
00200000
00000000
,  // measure 34
10300000
00010000
00110000
00101000
,  // measure 35
00001000
00010000
00010010
00000110
,  // measure 36
00000100
00001000
00000000
00000100
00000001
00000000
00001000
00000100
,  // measure 37
00000000
00000000
00000000
00000000
00000000
00000000
00000000
00010000
,  // measure 38
00002000
00000000
02003000
00000000
23000000
00000000
31000000
00010000
,  // measure 39
00000000
10000000
01000000
00010000
00002000
00000000
00013000
00000000
,  // measure 40
00000000
00002000
00000000
00003010
00000002
00000000
00001003
00000020
,  // measure 41
00000000
00000130
00001000
00010000
00001000
00000000
00100000
00001000
,  // measure 42
00020000
00000000
00030020
00000000
00000032
00000000
00000013
00002000
,  // measure 43
00000000
00003001
00000010
00001000
00020000
00000000
00031000
00000000
,  // measure 44
00000000
00010000
00010000
00001000
00000100
00001000
00000000
00021000
,  // measure 45
00000000
00130000
01000000
00010000
10000000
00000000
00010000
00000000
,  // measure 46
20000000
32000000
03200000
00320000
,  // measure 47
00032000
00000000
00003200
00000000
00000320
00000000
00000031
00001000
,  // measure 48
00000020
00000000
00000230
00000000
00002300
00000000
00013000
00200000
,  // measure 49
00000000
01300000
00001000
00010000
00000100
00000000
00001001
00000000
,  // measure 50
00000002
00000203
00000320
00002030
,  // measure 51
00023000
00000000
02030000
00000000
03200000
00000000
10300000
00020000
,  // measure 52
00000000
10030000
01000000
00100000
10000000
00100000
00010000
20000000
,  // measure 53
00000000
30100000
00010000
00001000
00020000
00000000
00031000
00000000
,  // measure 54
00011000
00000000
00020000
00000000
00130000
10000000
00000000
00100000
,  // measure 55
00000000
10000000
00010000
00100000
00001000
00100000
00010000
20000000
,  // measure 56
00000000
30100000
00000000
00010000
00000000
00100000
00000000
00010000
,  // measure 57
00000000
00001000
00000000
00000010
00000000
00001000
00000000
00000010
,  // measure 58
00000001
00001000
00000020
00000000
00000130
00000001
00000000
00000100
,  // measure 59
00000000
00000001
00000000
00000100
00000010
00001000
00000010
00010000
,  // measure 60
00001000
00010000
01000000
10000000
00010000
01000000
10000000
01000000
,  // measure 61
00010000
00000000
10010000
10000000
,  // measure 62
01000000
00100000
00000000
01000000
00000000
00100000
00000000
00001000
,  // measure 63
00010000
00001000
00010000
00000010
00002000
00000000
00000001
00000000
,  // measure 64
00000000
00003100
00000000
00000000
00000110
00000000
00000000
00000000
,  // measure 65
00000002
00000000
00001003
00000010
,  // measure 66
00000000
00000100
00000000
00001000
00000000
00000100
00000000
00001000
,  // measure 67
00010000
00001000
00010000
00000000
00002000
00000000
01000000
00000000
,  // measure 68
00000000
00013000
00000000
00000000
00011000
00000000
00000000
00000000
,  // measure 69
00001000
00010000
01000000
10000000
00000000
00000000
00000000
00000000
,  // measure 70
00000000
00000000
10010000
20000000
,  // measure 71
30010000
01000000
00000000
10000000
00000000
10000000
01000000
00010000
,  // measure 72
20000000
00000000
31000000
00010000
01000000
00000000
00020000
00000000
,  // measure 73
00031000
00000000
00000010
00000000
00000001
00000000
00001000
00000001
00001000
00000000
00000001
00000000
00000001
00000000
00000100
00000000
,  // measure 74
00000010
00000100
00001000
00000000
00011000
00000000
00010000
00000000
,  // measure 75
01001000
00000000
01100000
00000000
00100000
10000000
00010000
00100000
,  // measure 76
00001000
00000000
00000010
00000000
00000001
00001000
00000001
00000000
00000200
00000000
00000000
00000000
00000000
00000000
00002300
00000000
,  // measure 77
00000000
00023000
00032000
00000000
,  // measure 78
00000000
00000000
00000000
00013000
00011000
00000000
00000000
00011000
,  // measure 79
00000000
00011000
00000000
00000000
,  // measure 80
00000000
00000000
00000000
00001000
00010000
00000000
00010000
00000000
,  // measure 81
00010000
00000000
00100000
20000000
00000000
30010000
00100000
01000000
,  // measure 82
00200000
00000000
00301000
00000000
00000000
00010000
00000000
00001000
,  // measure 83
00000100
00000000
00000001
00001000
00000000
00000100
00000010
00001000
,  // measure 84
00010000
00000000
00000000
00001000
00100000
00000000
00100000
00000000
,  // measure 85
00100000
00000000
00010000
20000000
00000000
30100000
01000000
00001000
,  // measure 86
00020000
00000000
00031000
00000000
00000000
00010000
00000000
01000000
,  // measure 87
00010000
00000000
00001000
00010000
00000000
00001000
00000100
00000010
,  // measure 88
00001000
00000001
00000010
00000010
,  // measure 89
00000010
00000000
00001000
00010000
00000010
00000000
00000010
00000000
,  // measure 90
00000010
00000000
00010000
00000010
00010000
00000000
00001000
00000000
00100000
00000000
00000000
00000000
00100000
00000000
00000000
00000000
,  // measure 91
00100000
00000000
00010000
10000000
00100000
00000000
00100000
00000000
,  // measure 92
00100000
00000000
10000000
00010000
10000000
00000000
01000000
00000000
00010000
00000000
00001000
00000000
00010000
00000000
00001000
00000000
,  // measure 93
00000010
00001000
00000010
00000000
00001000
00010000
00001000
00010000
,  // measure 94
00100000
00010000
00100000
00000000
10000000
00010000
10000000
01000000
,  // measure 95
00010000
00000000
00001000
00000000
00000010
00000000
00000001
00000000
00001000
00000000
00000010
00000000
00000100
00000010
00000100
00000010
,  // measure 96
00000200
00000310
00002002
00003003
,  // measure 97
00000001
00001000
00000010
00000200
00000000
00001300
00010000
00001000
,  // measure 98
00000100
00000010
00010000
00000000
00001000
00020000
00000000
01030000
,  // measure 99
20000000
00000000
30010000
02000000
00000000
03100000
10000000
00010000
,  // measure 100
00100000
00000000
00000000
00000000
00001000
00010000
00001000
00010000
00002000
00000000
00000000
00000000
00003020
00000000
00000000
00000000
,  // measure 101
00000032
00000000
00001003
00000020
00000000
00000130
00001000
00010000
,  // measure 102
00100000
00010000
00001000
00000000
00100000
00020000
00000000
00130000
,  // measure 103
20000000
00000000
30100000
00020000
00000000
10030000
00100000
01000000
,  // measure 104
00001000
00010000
00000100
00001000
00000002
00000000
00000203
00000000
,  // measure 105
00000320
00002030
00023000
02030000
,  // measure 106
03200000
00000000
10300000
00010000
00200000
00000000
02300000
00000000
,  // measure 107
03020000
00000000
00031000
00200000
00000000
00301000
00010000
00000100
,  // measure 108
00000110
00001001
00000002
00000203
,  // measure 109
00001300
00010000
00100000
00000000
20000000
00000000
32000000
00000000
,  // measure 110
03010000
00001000
00000010
00000002
00000000
00001003
00000010
00000100
,  // measure 111
00000010
00000000
00010000
00002000
00000000
00103000
00010000
10000000
,  // measure 112
00010000
00000000
00000000
00000000
;

//---------------dance-single - ----------------
#NOTEDATA:;
#CHARTNAME:;
#STEPSTYPE:dance-single;
#DESCRIPTION:;
#CHARTSTYLE:;
#DIFFICULTY:Easy;
#METER:11;
#RADARVALUES:0.427691,0.578120,0.140106,0.228593,0.000000,406.000000,387.000000,19.000000,31.000000,0.000000,0.000000,0.000000,0.000000,0.000000,0.427691,0.578120,0.140106,0.228593,0.000000,406.000000,387.000000,19.000000,31.000000,0.000000,0.000000,0.000000,0.000000,0.000000;
#CREDIT:Kekkle;
#NOTES:
0000
0000
0000
0000
,
0000
0000
0000
0000
,
0000
0000
0000
0000
,
0000
0000
0000
0000
,
0000
0000
0000
0000
,
0000
0000
0000
0000
,
0001
1000
0100
0010
,
1000
0000
0010
0000
0001
1000
3001
0000
,
1000
0001
0100
0010
,
0001
0000
0010
0000
1000
0001
1000
0000
,
3001
1000
0010
0100
,
1000
0000
0100
0000
0001
1000
0001
0000
,
2000
0000
0000
3200
0000
0000
0310
0000
,
0001
0000
1000
0000
0010
0100
0010
0000
,
0200
0000
0301
1000
,
0001
0001
0010
0100
,
2000
0000
0000
0000
3001
0003
1000
0000
,
0001
0001
0100
0010
,
1001
0000
3001
1000
,
0110
0000
0103
0010
,
1001
0000
0301
1000
,
0000
0100
0000
0100
0000
0000
0010
0000
,
1001
0000
0001
0000
0100
0000
0000
0010
,
0000
0010
0000
0010
0000
0000
1000
0001
,
1000
0000
0100
0000
0010
0000
0000
0100
,
0000
0100
0000
0100
0000
0000
1001
0000
,
1001
0000
0001
0000
0100
0000
0000
0010
,
0000
0010
0000
0010
0000
0000
0100
0000
,
0001
0001
1000
1000
,
0100
0001
0100
1000
,
0002
0000
0000
0000
0103
0000
0000
1000
,
0000
1000
0000
0000
0100
0000
0001
0000
,
1000
0000
0001
0000
0010
0000
0000
1000
,
0000
1000
0000
0000
0010
0000
0001
0000
,
1000
1000
0001
0001
,
0100
0300
0100
0000
0010
0000
0010
0000
,
0110
0000
0000
0110
0000
0000
1001
0000
,
0000
0000
0000
0000
,
0002
1000
1003
0001
,
0010
0100
0001
0200
,
0000
1300
0001
0100
,
0010
0000
1000
0001
1000
0000
0001
0000
,
2000
0001
3001
1000
,
0010
0100
1000
0200
,
0000
0301
0300
0000
1000
0000
0100
0000
,
0310
0000
0001
1000
0001
0000
1000
0000
,
0020
0100
0100
0130
,
0002
1000
1000
1003
,
0200
0010
0310
0001
,
1000
0010
0001
0010
,
2000
0001
0001
3001
,
0020
0000
0100
0300
0100
0000
0130
0000
,
1000
0001
0100
1000
,
0100
0000
0310
0100
0010
0000
0100
0000
,
1001
0000
0001
0000
,
1000
0100
0013
0010
,
0001
0001
0001
0001
,
1000
1000
1000
1000
,
0010
0000
0100
0000
0001
1000
0001
0000
,
0010
0000
0100
0000
1000
0001
1000
0000
,
0001
0000
0100
0000
0010
0100
0010
0100
,
0010
0000
0000
0000
0100
0000
0000
0003
,
0001
0000
1001
0000
,
1000
0100
0020
0000
,
0100
0000
0130
0000
,
1001
0003
0001
0000
,
0100
0000
0110
0000
,
0010
1000
0002
0000
,
1000
0000
1003
0000
,
0001
0001
0000
0000
,
0000
0000
1002
0000
,
0013
0000
0000
1000
0000
1000
0000
0000
,
0010
0001
1000
0001
,
0100
0000
0000
1000
0000
1000
0000
0000
,
0100
0001
1000
1000
,
0001
0001
0010
0010
,
0100
0010
0100
0010
0200
0000
0000
2300
,
0000
3002
0000
0000
,
0000
0000
0000
0000
1003
0000
0000
1001
,
0000
1001
0000
0000
,
0000
0000
0001
0001
,
0001
0100
0010
0100
,
1000
0100
0000
0001
,
1000
0001
0010
0100
,
0100
0000
1000
1000
,
1000
0001
0100
0010
,
0001
0010
0000
1000
,
0001
0000
0010
0030
0100
0000
0010
0000
,
0010
0000
0001
0001
,
0001
0001
1000
1000
,
1000
1000
0010
0010
,
0010
0010
0100
0100
,
0100
0000
0100
0000
0001
1000
0001
0000
,
1000
0001
1000
0000
0100
0010
0100
0000
,
0010
0100
0010
0000
0001
1000
0001
1000
,
0001
1000
0001
0000
2000
0000
0000
0000
,
0000
3001
2002
0000
,
0000
3003
0001
0100
,
1000
0200
0000
0301
,
1000
0000
0001
1000
0000
0001
1000
0000
,
0100
0010
0002
1000
,
1003
0001
0100
0010
,
0001
0000
0020
0000
0000
1030
0000
0000
,
0001
0000
0010
0000
0100
0000
1000
0001
,
1000
0001
0200
3310
,
0100
0010
0100
0000
0002
0000
1003
0000
,
0001
1000
0001
0000
0020
0000
0100
0000
,
0130
1000
0001
0100
,
0110
0110
0001
0001
,
0001
1000
0001
0000
1000
0000
1000
0000
,
1000
0001
1000
0002
0000
0000
0100
0000
,
0103
0000
0000
0020
0000
0000
0100
0000
,
0130
0000
0000
0000
;

//---------------dance-double - ----------------
#NOTEDATA:;
#CHARTNAME:;
#STEPSTYPE:dance-double;
#DESCRIPTION:;
#CHARTSTYLE:;
#DIFFICULTY:Easy;
#METER:11;
#RADARVALUES:0.426637,0.578120,0.088488,0.213845,0.000000,405.000000,393.000000,12.000000,29.000000,0.000000,0.000000,0.000000,0.000000,0.000000,0.426637,0.578120,0.088488,0.213845,0.000000,405.000000,393.000000,12.000000,29.000000,0.000000,0.000000,0.000000,0.000000,0.000000;
#CREDIT:Kekkle;
#NOTES:
00000000
00000000
00000000
00000000
,
00000000
00000000
00000000
00000000
,
00000000
00000000
00000000
00000000
,
00000000
00000000
00000000
00000000
,
00000000
00000000
00000000
00000000
,
00000000
00000000
00000000
00000000
,
10000000
00010000
01000000
00100000
,
00010000
00000000
00001000
00000000
00010000
00001000
00010000
00000000
,
00000100
00000000
00000010
00000000
00000001
00000003
00001000
00000000
,
00000010
00000000
00000100
00000000
00001000
00010000
00001000
00000000
,
01000000
00100000
10000000
00010000
,
00100000
00000000
01000000
00000000
00010000
00001000
00010000
00000000
,
00002000
00000000
00000000
00003020
00000000
00000000
00000031
00000000
,
00001000
00000000
00000010
00000000
00000100
00000010
00000100
00000000
,
00000020
00000000
00010030
00001000
,
00010000
00010000
00100000
10000000
,
00020000
00000000
00130000
00001000
,
00010000
00010000
00001000
00000010
,
00000001
00001000
00000000
00000000
00003010
00000000
00000100
00000000
,
00000010
00010000
00000000
00000000
00001000
00000000
00100000
00000000
,
00010000
00100000
00000000
00000000
00010000
00000000
10000000
00000000
,
00000000
00100000
00000000
00100000
00000000
00000000
01000000
00000000
,
10010000
00000000
10000000
00000000
01000000
00000000
00000000
00010000
,
00000000
00010000
00000000
00010000
00000000
00000000
00001000
00000000
,
00000010
00000000
00000001
00000000
00001000
00000000
00000000
00000010
,
00000000
00000010
00000000
00000010
00000000
00000000
00000100
00000000
,
00001001
00000000
00000001
00000000
00000100
00000000
00000000
00001000
,
00000000
00001000
00000000
00001000
00000000
00000000
00010000
00000000
,
00100000
00100000
01000000
01000000
,
00010000
00000000
10000000
00000000
00010000
10000000
00010000
00000000
,
10000000
00000000
01000000
00000000
00010000
00000000
00000000
00001000
,
00000000
00001000
00000000
00000000
00000010
00000000
00000001
00000000
,
00001000
00000000
00000001
00000000
00000100
00000000
00000000
00001000
,
00000000
00001000
00000000
00000000
00010000
00000000
00100000
00000000
,
01000000
01000000
00010000
00010000
,
10000000
00000000
10000000
00000000
01000000
03000000
01000000
00000000
,
00010000
00000000
00000000
00011000
00000000
00000000
00011000
00000000
,
00000000
00000000
00000000
00000000
,
00002000
00000000
00010000
00030000
00013000
00000000
00001000
00000000
,
00000100
00000010
00000001
00000020
,
00000000
00001030
00000001
00001000
,
00000100
00000000
00010000
00001000
00010000
00000000
00001000
00000000
,
00020000
00001000
00031000
00010000
,
01000000
00100000
10000000
00200000
,
00000000
00310000
00000000
00000000
10000000
00000000
00010000
00000000
,
01000000
00000000
00001000
00010000
00001000
00000000
00010000
00000000
,
02000000
00010000
03010000
00001000
,
00000200
00001000
00001300
00010000
,
00100000
00100000
00100000
10000000
,
00010000
00100000
00001000
00010000
,
00200000
00000000
00010000
00000300
00313000
00000000
00001000
00000000
,
00000020
00001000
00031030
00010000
,
00000010
00000100
00000001
00001000
,
00000100
00000000
00010000
00001000
00010000
00000000
00001000
00000000
,
00011000
00010000
00000000
00001000
,
00010000
00100000
01000000
01000000
,
00010000
00010000
00010000
00010000
,
10000000
10000000
10000000
10000000
,
01000000
00000000
00010000
00000000
00001000
00010000
00001000
00000000
,
00000100
00000000
00000001
00000000
00001000
00000001
00001000
00000000
,
00000001
00000000
00000010
00000000
00001000
00010000
00001000
00010000
,
00001000
00000000
00010000
00000000
,
00001000
00000000
00011000
00000000
,
00010000
00030000
00000000
00000000
00200000
00000000
00000000
00000000
,
01000000
00000000
01300000
00000000
,
10010000
00000000
10000000
00000000
,
01000000
00000000
01100000
00000000
,
00100000
00000000
00002000
00000000
,
00010000
00000000
00013000
00000000
,
00001000
00000100
00000000
00000000
,
00000000
00000000
00001002
00000000
,
00000013
00000003
00000000
00001000
00000000
00001000
00000000
00000000
,
00010000
01000000
10000000
00010000
,
10000000
00000000
00100000
00000000
01000000
00100000
01000000
00000000
,
00001000
00010000
00001000
00001000
,
00000100
00000000
00000100
00000000
00000001
00001000
00000001
00000000
,
00001000
00000001
00001000
00000001
00002000
00000000
00000000
00003200
,
00003000
00020300
00000000
00000000
,
00000000
00000000
00000000
00000000
00031000
00000000
00000000
00011000
,
00000000
00011000
00000000
00000000
,
00000000
00000000
00010000
00010000
,
00010000
00001000
00000100
00000310
,
00000001
00000010
00000000
00010000
,
00001000
00010000
01000000
00100000
,
00100000
00000000
00001000
00001000
,
00001000
00010000
01000000
00100000
,
10000000
00100000
00000000
00001000
,
00010000
00001000
00000100
00000010
,
00000010
00000000
00001000
00001000
,
00001000
00001000
00000001
00000001
,
00000001
00000001
00000010
00000010
,
00000010
00000010
00000100
00000100
,
00000100
00000000
00000100
00000000
00010000
00001000
00010000
00000000
,
00001000
00010000
00001000
00000000
01000000
00010000
01000000
00000000
,
00010000
01000000
00010000
00000000
01000000
00100000
01000000
00100000
,
01000000
00100000
01000000
00000000
00200000
00000000
00000000
00000000
,
00000000
01300000
20320000
00000000
,
00000000
30030000
10000000
01000000
,
00010000
02000000
00000000
03100000
,
00001000
00000000
00010000
00001000
00000000
00010000
00001000
00000000
,
00010000
00000100
00000020
00000100
,
00000130
00001000
00000001
00000100
,
00001000
00000000
00000200
00000000
00000000
00000310
00000000
00000000
,
00010000
00000000
00001000
00000000
01000000
00000000
00100000
01000000
,
00100000
10000000
00020000
10030000
,
00010000
10000000
00010000
00000000
00200000
00000000
01300000
00000000
,
00100000
01000000
00100000
00000000
00002000
00000000
00010000
00000000
,
00013000
00000010
00001000
00000001
,
00000010
00000010
00001000
00001000
,
00001000
00010000
00001000
00000000
00010000
00030000
00010000
00000000
,
00010000
00001000
00010000
00002000
00000000
00000000
01003000
00000000
,
01000000
00000000
00000000
00200000
00000000
00000000
01000000
00000000
,
01300000
00000000
00000000
00000000
;

//---------------dance-single - ----------------
#NOTEDATA:;
#CHARTNAME:;
#STEPSTYPE:dance-single;
#DESCRIPTION:;
#CHARTSTYLE:;
#DIFFICULTY:Beginner;
#METER:7;
#RADARVALUES:0.253876,0.330354,0.029496,0.110610,0.000000,241.000000,237.000000,4.000000,15.000000,0.000000,0.000000,0.000000,0.000000,0.000000,0.253876,0.330354,0.029496,0.110610,0.000000,241.000000,237.000000,4.000000,15.000000,0.000000,0.000000,0.000000,0.000000,0.000000;
#CREDIT:Kekkle;
#NOTES:
0000
0000
0000
0000
,
0000
0000
0000
0000
,
0000
0000
0000
0000
,
0000
0000
0000
0000
,
0000
0000
0000
0000
,
0000
0000
0000
0000
,
0001
0000
1000
0000
,
0010
0000
0100
0000
0010
0000
0010
0300
,
1000
0000
0001
0000
,
0010
0100
0010
0010
,
0001
0000
1000
0000
,
0010
0100
0010
0000
,
0100
0000
0100
0000
,
0001
0001
0001
0000
,
2000
0000
0000
0000
,
3002
0000
0000
0000
,
0023
0000
0000
0000
,
0130
0300
1000
0000
,
1001
0000
0000
0000
,
0110
0000
0000
0000
,
0001
0000
1000
0000
,
0001
0001
1000
0000
,
0001
0000
0100
0000
,
0010
0010
0100
0001
,
1000
0000
0001
0000
,
0010
0010
0100
1000
,
0001
0000
1000
0000
,
0010
0010
0100
0000
,
0001
0000
0100
0000
,
1000
0000
0100
0100
,
0020
0000
0130
0000
,
0010
0010
0100
0000
,
0002
0000
1003
0000
,
0001
0001
1000
0000
,
0001
0000
0010
0000
,
1000
0000
0100
0000
,
0002
0000
0000
1003
,
0000
0000
0000
0000
,
0001
0001
0001
0000
,
0100
0000
0010
0010
,
1000
0000
0010
0000
,
0001
0100
1000
0000
,
0001
0001
0001
0000
,
1000
0000
0100
0100
,
1000
0000
0100
0000
,
0001
0010
1000
0000
,
0001
0001
0001
0000
,
1000
1000
1000
0000
,
0020
0000
0130
0000
,
0010
0010
0100
0000
,
0001
0001
0001
0000
,
1000
1000
1000
0000
,
0200
0000
0310
0000
,
0100
0100
0010
0000
,
0002
0000
0000
0000
,
0000
0000
0000
0000
,
1003
1000
0001
0000
,
0001
0001
1000
0000
,
1000
0010
1000
0000
,
0001
0010
0001
0000
,
1000
0001
1000
0000
,
1001
0000
0001
0000
,
0000
0000
0100
0000
,
0010
0000
0100
0000
,
0000
0000
0010
0000
,
0010
0000
0100
0000
,
0000
0000
0001
0000
,
1000
0000
0001
0000
,
0000
0000
0010
0000
,
0010
0000
0000
0000
,
0000
0000
0002
0000
,
1003
0000
0001
0001
,
1000
0000
0020
0000
,
0130
0000
0010
0010
,
0100
0000
0001
0000
,
0010
0000
1000
0000
,
0100
0000
0002
0000
,
0000
1003
0000
0000
,
0000
0000
0020
0000
,
0000
0130
0000
0000
,
0000
0000
1001
0000
,
0000
0000
0001
0000
,
0001
0000
0000
0000
,
1000
0000
0100
0000
,
0010
0000
0001
0000
,
0000
0000
1000
0000
,
1000
0000
0000
0000
,
0001
0000
0100
0000
,
0010
0000
1000
1000
,
1000
0000
0001
0001
,
0001
0000
0010
0000
,
0100
0000
1000
0001
,
1000
0000
0001
0100
,
0001
0000
1000
0100
,
1000
0000
0001
1000
,
0001
0000
2000
0000
,
0000
3001
1000
0000
,
0000
0000
0001
0000
,
0100
0100
0001
0000
,
0100
0000
1000
0010
,
0001
0000
1000
1000
,
1000
0000
0001
0000
,
0010
0010
0001
0000
,
0010
0000
1000
0100
,
0001
0000
1000
1000
,
1000
0000
0001
0001
,
0001
0000
0100
0100
,
0100
0000
0010
1000
,
0001
0000
1000
1000
,
0001
0001
1000
1000
,
0001
0002
0000
0000
,
0000
0000
0000
0000
,
0003
0000
0000
0000
;
