#TITLE:Goodnight until someday;
#SUBTITLE:;
#ARTIST:dj VERTICAI;
#TITLETRANSLIT:;
#SUBTITLETRANSLIT:;
#ARTISTTRANSLIT:;
#GENRE:;
#CREDIT:;
#BANNER:Goodnight until someday.png;
#BACKGROUND:Goodnight until someday-bg.png;
#LYRICSPATH:;
#CDTITLE:;
#MUSIC:Goodnight until someday.ogg;
#OFFSET:-0.035094;
#SAMPLESTART:92.435120;
#SAMPLELENGTH:15.000000;
#SELECTABLE:YES;
#BPMS:0.000000=160.000000
;
#STOPS:
;
#BGCHANGES:;
#KEYSOUNDS:;
#ATTACKS:;

//---------------dance-single - ----------------
#NOTES:
     dance-single:
     :
     Hard:
     15:
     0.762839,0.874112,0.336305,0.459344,0.775143,651.000000,610.000000,41.000000,56.000000,0.000000,0.000000,0.762839,0.874112,0.336305,0.459344,0.775143,651.000000,610.000000,41.000000,56.000000,0.000000,0.000000:
// measure 0
0000
0000
0000
0000
,  // measure 1
0000
0000
0000
0000
,  // measure 2
0000
0000
0000
0000
,  // measure 3
0000
0000
0000
0000
,  // measure 4
2000
0000
0000
0100
0000
0000
0000
0000
3000
0000
0000
0000
0002
0000
0000
0103
,  // measure 5
0000
0000
0100
0010
0100
0000
0001
0000
1000
0000
0000
0100
0000
0000
0010
0000
,  // measure 6
0002
0000
0000
0010
0000
0000
0000
0000
0003
0000
1000
0000
2000
0000
0000
0010
,  // measure 7
0000
0000
0000
0000
3020
0000
0000
2030
0000
0000
3200
0000
0000
0301
0000
0000
,  // measure 8
0201
0000
0000
0010
0000
0000
1300
0000
1000
0000
0001
0000
0101
0000
0000
0110
,  // measure 9
0000
0000
1100
0000
1000
0000
0100
0010
0100
0000
0001
1000
0001
0000
0010
0000
,  // measure 10
1020
0000
0000
0100
0000
0000
0031
0000
0001
0000
1000
0000
1010
0000
0000
0110
,  // measure 11
0000
0000
0011
0000
0001
0000
0010
1000
0001
0000
0010
0001
1000
0001
1000
0000
,  // measure 12
2001
0000
0000
0100
0000
0000
3010
0000
0010
0000
1000
0000
1001
0000
0000
0101
,  // measure 13
0000
0000
1010
0000
0010
0000
0100
0000
0001
0000
0010
0000
0100
1000
0001
0000
,  // measure 14
1002
0000
0000
0100
0000
0000
0013
0000
0010
0000
0001
0000
1001
0000
0000
0110
,  // measure 15
0000
0000
0110
0000
1001
0000
0000
0001
0010
0000
0001
0000
1000
0010
0000
0010
,  // measure 16
0100
0000
0000
0100
0001
0000
0100
0000
0010
0000
0000
0010
0100
0000
0010
0000
,  // measure 17
1000
0000
0000
1000
0010
0000
0010
1000
0001
0000
0000
0001
0010
0000
0001
0000
,  // measure 18
1000
0000
1000
0000
0100
0000
0100
0000
0010
0000
0010
0000
0001
0010
0001
0010
,  // measure 19
0100
0010
0100
0000
1000
0001
1000
0000
0001
0100
0001
0100
0020
0000
0000
0000
,  // measure 20
1030
0000
0001
0000
0010
0000
0100
0000
0001
0000
0100
0010
0000
0010
0000
0010
,  // measure 21
0000
0100
1000
0001
1000
0000
0001
0000
0100
0010
0000
0010
0000
0010
0000
0010
,  // measure 22
0000
0100
0001
1000
0001
0000
0010
0000
0001
0000
0010
0100
0000
0100
0000
0100
,  // measure 23
0000
0010
0001
1000
0001
0000
0100
0000
0010
0000
0010
0100
0000
0100
0000
0100
,  // measure 24
0001
0000
1000
0000
0100
0000
0010
0000
1000
0000
0010
0100
0000
0100
0000
0100
,  // measure 25
0000
0010
0100
1000
0001
0000
1000
0000
0010
0100
0000
0100
0000
0100
0000
0100
,  // measure 26
0000
0010
1000
0001
0010
0000
0100
0000
1000
0000
0100
0010
0000
0010
0000
0010
,  // measure 27
0000
0100
1000
0001
1000
0000
0001
0100
0010
1000
0010
1000
0001
0000
0010
0001
,  // measure 28
0200
0000
0000
0000
0301
0000
0010
0000
1000
0000
0010
0000
0001
0010
0000
0010
,  // measure 29
0100
0000
1000
0000
0100
0000
0001
0000
0100
1000
0100
1000
0000
1000
0001
0010
,  // measure 30
0001
0000
0001
0000
1000
0000
0010
0000
0001
0000
0010
0000
1000
0010
0000
0010
,  // measure 31
0100
0000
0010
0000
1000
0000
0001
0000
1000
0000
0100
0000
0010
0001
1000
0001
,  // measure 32
0200
0000
0000
0000
0000
0000
0000
0000
0300
0000
0000
0100
0000
0100
0000
1001
,  // measure 33
0000
0000
0001
0000
0100
0000
1000
0000
0100
0001
0100
0001
0000
0001
1000
0010
,  // measure 34
1000
0000
0010
0000
0100
0000
0001
0000
0010
0000
0100
0000
1000
0100
1000
0001
,  // measure 35
0010
0000
0001
1000
0000
1000
0100
0000
0010
0001
0000
0001
0100
0000
0100
0010
,  // measure 36
0100
0000
0001
0100
0001
0000
1000
0010
1000
0000
0001
1000
0000
2000
3000
0000
,  // measure 37
0001
0000
0100
0001
0000
1000
0100
0000
0100
1000
0000
0001
0100
0000
0010
1000
,  // measure 38
0001
1000
0100
1000
0000
0001
0100
0000
0100
0010
0000
1000
0001
1000
0001
1000
,  // measure 39
0001
0010
0001
0000
0010
0100
0010
0000
0100
1000
0100
1000
0020
0000
0000
0000
,  // measure 40
1030
0000
0000
2000
0000
0000
0010
0000
3020
0000
0000
0000
1030
0000
0001
0000
,  // measure 41
0200
0000
0000
0000
0301
0000
0000
0002
0000
0000
0010
0000
0023
0000
0000
0000
,  // measure 42
0031
0000
0001
1000
0200
0000
0000
0000
1300
0000
0000
0200
0000
0000
0001
0000
,  // measure 43
0302
0000
0000
0000
0103
0000
1000
0000
0010
0000
0100
0000
0001
0000
0000
0200
,  // measure 44
0000
0000
1000
0000
2300
0000
0000
0000
3100
0000
0010
0000
0100
0000
0001
1000
,  // measure 45
0001
0000
0000
0002
0000
0000
0010
0000
0023
0000
0000
0000
0130
0000
1000
0000
,  // measure 46
0020
0000
0000
0000
1030
0000
0000
2000
0000
0000
0010
0000
3020
0000
0000
0000
,  // measure 47
0130
0000
0100
0001
0020
0000
0100
0000
0130
0000
0000
2000
0000
0000
0100
0000
,  // measure 48
3200
0000
0000
0000
0310
0000
0001
0000
1000
0000
0001
0000
0100
0000
0000
0002
,  // measure 49
0000
0000
0100
0000
0203
0000
0000
0000
0310
0000
0000
0101
0000
0000
1100
0000
,  // measure 50
0100
0000
0000
0100
1000
0000
0001
0000
0020
0000
0000
0000
0031
0000
0000
0001
,  // measure 51
1000
0000
0010
0000
0100
0000
0000
0100
0001
0000
1000
0000
0020
0000
0000
0000
,  // measure 52
1030
0000
0000
0001
0010
0000
0100
0000
0010
0000
0000
0010
0001
0000
1000
0000
,  // measure 53
0200
0000
0000
0000
1300
0000
1000
0000
0001
0000
0100
0000
0010
0000
0000
0010
,  // measure 54
1000
0001
0200
0000
0301
0010
0100
1000
,  // measure 55
0001
0000
0000
0001
0010
0000
0100
0000
0020
0000
0000
0000
0031
0000
0000
0001
,  // measure 56
1000
0100
1000
0010
2000
0000
3002
0000
,  // measure 57
0103
0000
0000
0100
0001
0000
0010
0000
0100
0000
0010
0000
2000
0000
0000
0000
,  // measure 58
3020
0000
0000
0000
0031
0000
1000
0000
0100
0000
1000
0000
0010
0000
0000
0010
,  // measure 59
0002
0000
0000
0000
0013
0000
0100
0010
1000
0000
1000
0001
0000
0001
0010
0000
,  // measure 60
0010
0000
0100
0000
1000
0100
1000
0000
0010
0000
0100
0000
0001
0100
0001
0000
,  // measure 61
1000
0010
1000
0000
0001
0010
0001
0000
1000
0001
1000
0001
0010
0100
0010
0100
,  // measure 62
2000
0000
0000
0001
0000
0000
3010
0000
0010
0000
1000
0000
1100
0000
0000
1001
,  // measure 63
0000
0000
1010
0000
0010
0000
0100
0000
0001
0000
1000
0000
0100
0010
0100
0010
,  // measure 64
0002
0000
0000
1000
0000
0000
0013
0000
0010
0000
0001
0000
0101
0000
0000
1001
,  // measure 65
0000
0000
0011
0000
0001
0000
1000
0100
0010
0000
0100
0010
0001
0000
0010
0001
,  // measure 66
2000
0000
0000
0010
0000
0000
3100
0000
0100
0000
1000
0000
1001
0000
0000
0101
,  // measure 67
0000
0000
1010
0000
1000
0010
0000
1000
0010
0100
0000
0010
0100
0001
0000
1000
,  // measure 68
0002
0000
0000
0010
0000
0000
0103
0000
0100
0000
0001
0000
1001
0000
0000
0110
,  // measure 69
0000
0000
0001
0000
0011
0000
0000
0101
0000
0000
1100
0000
0000
1010
0000
0000
,  // measure 70
1000
0000
0000
1000
0010
0000
0100
0000
0101
0000
0000
0001
0100
0000
0010
0000
,  // measure 71
1010
0000
0000
0001
0010
0000
0100
0000
0110
0000
0000
0000
0100
0000
1000
0000
,  // measure 72
0001
0000
0000
0001
0010
0000
0100
0000
1100
0000
0000
1000
0100
0000
0010
0000
,  // measure 73
0011
0000
0000
1000
0010
0000
0100
0000
0020
0000
0000
0000
1030
0000
0002
0000
,  // measure 74
0003
0001
1000
0010
0200
0000
0301
0010
,  // measure 75
0001
0000
0000
0001
0010
0000
0100
0000
0110
0000
0000
0000
0100
0000
1000
0000
,  // measure 76
0001
0000
0100
0001
0100
0000
0001
1000
0001
0000
0010
0001
0010
0000
0010
0001
,  // measure 77
1000
0000
0010
1000
0010
0000
1000
0001
1000
0000
0001
0100
0020
0000
0000
0000
,  // measure 78
2030
0000
0000
0100
0000
0000
0000
0000
3000
0000
0000
0000
0002
0000
0000
0103
;

//---------------dance-single - ----------------
#NOTES:
     dance-single:
     :
     Medium:
     11:
     0.493326,0.615116,0.082026,0.713624,0.217368,421.000000,411.000000,10.000000,87.000000,0.000000,0.000000,0.493326,0.615116,0.082026,0.713624,0.217368,421.000000,411.000000,10.000000,87.000000,0.000000,0.000000:
0000
0000
0000
0000
,
0000
0000
0000
0000
,
0000
0000
0000
0000
,
0000
0000
0000
0000
,
1000
0000
0000
2000
0000
0000
0000
0000
3000
0000
0000
0000
0001
0000
0000
0002
,
0000
0100
2000
3003
,
0001
0000
0000
0002
0000
0000
0000
0000
0003
0000
0000
0000
1000
0000
0000
2000
,
0000
0000
0000
0000
3100
0000
0000
0010
0000
0000
0001
0000
2000
0000
0000
0000
,
3010
0000
0000
0010
0000
0000
0020
0000
2030
0000
0000
0000
3100
0000
0000
0100
,
0000
0200
1300
0000
0100
1000
0001
0000
,
0010
0000
0000
0010
0000
0000
0020
0000
0032
0000
0000
0000
0103
0000
0000
0100
,
0000
0200
0301
0001
0010
1000
0010
0001
,
1000
0000
0000
1000
0000
0000
2000
0000
3010
0000
0100
0000
0001
0000
0000
0001
,
0000
0002
0013
0100
1000
0000
0010
0100
,
0001
0000
0000
0001
0000
0000
0002
0000
0103
0000
0010
0000
2000
0000
0000
3001
,
0000
0000
1000
0100
0000
0001
0100
0000
,
0010
0000
0000
1000
0000
0000
0010
0000
1000
0000
0000
0100
0000
0000
1000
0000
,
0001
0000
0000
0010
0000
0000
0001
0000
0100
0000
0000
0001
0000
0000
0100
0000
,
0010
1000
0001
1000
0100
1000
0001
0010
,
0001
1000
0001
1000
0001
0100
0020
0000
,
2030
0000
0000
0000
3100
0000
0000
0000
0010
0000
0000
0010
0000
0000
0000
0100
,
0000
2000
3100
0000
0010
0001
1000
0000
,
0002
0000
0000
0000
0103
0000
0000
0000
0010
0000
0000
0010
0000
0000
0000
0100
,
0000
0002
0103
0000
0100
0010
1000
0001
,
2000
0000
0000
0000
3010
0000
0000
0000
1000
0000
0000
0100
0000
0000
0000
0010
,
0000
0020
0031
0000
0001
0100
0010
0100
,
0002
0000
0000
0000
0013
0000
0000
0000
0001
0000
0000
0100
0000
0000
0000
0100
,
0000
0020
1030
0000
1000
0100
0010
0002
,
0003
0000
0001
0010
1000
0000
1000
0010
,
0001
0000
0001
0010
1000
0010
0100
1000
,
0100
0000
1000
0010
0001
0000
0001
0010
,
1000
0000
1000
0010
0100
0001
0100
0010
,
2000
0000
0000
0000
0000
0000
0000
0000
0000
0000
0000
0000
0000
0000
0000
3001
,
0000
0000
0001
0010
1000
0010
0001
0100
,
1000
0000
0100
0010
1000
0000
0100
0010
,
0001
0000
0000
0101
0000
0000
1001
0000
0000
1100
0000
0000
1000
0000
0001
0000
,
0010
0000
0100
0000
0010
0000
0001
0000
1000
0000
0010
0200
0000
0000
0300
0000
,
0010
0000
0000
0101
0000
0000
1010
0000
0000
1100
0000
0000
0011
0000
0000
0001
,
1000
0100
0010
0001
1000
0001
0100
0010
,
1000
1000
0001
0001
1000
0001
0020
0000
,
0230
1000
2300
3020
,
1000
0230
0001
0302
,
0023
0001
0230
0010
,
0320
0032
0023
0230
,
0010
0000
0010
0000
1300
0001
2000
0000
,
3020
0100
2030
3002
,
0013
0020
0100
0032
,
2003
3010
0020
1000
,
0230
0302
0100
0023
,
0001
0000
0000
0000
0230
0000
0000
0000
1300
0000
0000
1000
0000
0000
0002
0000
,
1003
0000
1000
0010
1000
0000
1000
0000
,
0010
0100
0002
0000
0010
0000
1003
0000
,
0001
0000
0000
0001
1000
0000
0010
0000
0100
0000
0000
0000
0100
0000
0010
0000
,
0100
0000
0100
0001
1000
0100
0020
0000
,
0030
0100
2000
0000
3000
0100
1000
0001
,
0001
0000
0000
0000
0001
0000
0100
0000
0001
0000
0000
0000
0001
0000
0000
0100
,
0010
0000
1000
0000
1000
0000
0000
0100
2000
0000
0000
0000
0100
0000
0000
0000
,
3001
0000
0000
0001
1000
0000
0100
0000
0010
0000
0100
0000
0020
0000
0000
0000
,
0100
0000
0000
0000
0031
0000
0000
0000
0001
0000
0100
0000
0010
0000
0000
0100
,
0010
0000
1000
0010
0000
0001
0010
0000
,
1000
0010
1000
0001
0010
0001
1000
0100
,
1000
0001
0100
0001
0010
0100
0010
0001
,
2000
0000
0000
3001
0000
0000
0002
0000
1003
0000
0000
0000
0002
0000
0000
1003
,
0000
2000
3001
0000
0001
0100
0010
1000
,
0020
0000
0000
0130
0000
0000
0200
0000
0310
0000
1000
0000
0200
0000
0000
0310
,
0000
0020
0130
0000
1000
0001
1001
0000
,
0002
0000
0000
0103
0000
0000
0200
0000
0310
0000
0000
0000
0020
0000
0000
1030
,
0000
2000
3001
0000
0001
0010
1000
0010
,
0200
0000
0000
1300
0000
0000
2000
0000
3010
0000
0000
0000
0010
0000
0000
0110
,
0000
0000
0000
0000
2000
0000
0000
3020
0000
0000
0230
0000
0000
0302
0000
0000
,
1003
0000
0100
0010
0001
0000
0001
0010
,
0100
0000
0100
1000
0002
0000
1003
0000
,
0001
0000
0100
0010
1000
0000
1000
0010
,
0100
0000
0100
0001
0010
0000
0010
0100
,
2000
0000
0000
0000
0000
0000
0000
0000
0000
3000
0000
0001
0000
0001
0000
1001
,
0000
0000
1000
0100
0001
0000
0100
1000
,
0002
0203
0320
2030
,
3200
0320
0032
2003
,
3001
0000
0000
0002
0000
0000
0000
0000
0003
0000
0000
0000
1000
0000
0000
1000
;

//---------------dance-single - ----------------
#NOTES:
     dance-single:
     :
     Easy:
     7:
     0.340993,0.485618,0.295293,0.524965,0.086127,291.000000,255.000000,36.000000,64.000000,0.000000,0.000000,0.340993,0.485618,0.295293,0.524965,0.086127,291.000000,255.000000,36.000000,64.000000,0.000000,0.000000:
0000
0000
0000
0000
,
0000
0000
0000
0000
,
0000
0000
0000
0000
,
0000
0000
0000
0000
,
2000
0000
0000
3000
0000
0000
0000
0000
0001
0000
0000
0000
2000
0000
0000
3000
,
0000
0000
0110
0000
,
0002
0000
0000
0003
0000
0000
0000
0000
1000
0000
0000
0000
0002
0000
0000
0003
,
0000
0000
0110
1000
,
0002
0000
0000
0000
0000
0000
0000
0000
0003
0000
0000
0000
0100
0000
0000
0020
,
0000
0030
0100
0001
,
2000
0000
0000
0000
0000
0000
0000
0000
3000
0000
0000
0000
0010
0000
0000
0200
,
0000
0300
0001
1000
,
0002
0000
0000
0000
0000
0000
0000
0000
0003
0000
0000
0000
0010
0000
0000
0200
,
0000
0300
0010
0001
,
2000
0000
0000
0000
0000
0000
0000
0000
3000
0000
0000
0000
0100
0000
0000
0020
,
0000
0000
0000
0031
0000
1000
0000
0000
,
0001
0001
0100
0100
,
0010
0010
1000
1000
,
0001
0100
1000
0100
,
0001
0001
0002
1003
,
0100
1000
0001
1000
,
0100
0010
0001
0001
,
0100
0001
1000
0001
,
0100
0010
1000
1000
,
0100
0010
0100
1000
,
0100
1000
0010
0010
,
0100
0010
0100
0001
,
0100
0010
1000
0002
,
0013
1100
0100
1100
,
1000
1100
0100
1000
,
0001
0101
0100
0101
,
0100
0100
0010
0110
,
2000
0000
0000
3001
,
0001
0011
1000
1010
,
0001
0101
1001
1100
,
0100
0110
0010
1001
,
0001
0000
1000
0000
0001
1000
0001
0000
,
1000
0000
0000
0100
0000
0000
1000
0000
0000
0001
0000
0000
0100
0000
0000
0001
,
0000
0000
1000
0000
0000
0010
0000
0000
1000
0000
0000
0001
0000
0000
0010
0000
,
0001
0001
0002
1003
,
2200
0000
0300
0002
,
3003
0202
0000
0003
,
0020
0330
2020
0000
,
3030
0022
0033
2200
,
0000
3300
0202
0303
,
0022
0000
0030
2000
,
3003
2020
0000
3000
,
0200
0330
0202
0000
,
0303
2200
3300
0022
,
0000
0033
2020
3030
,
1000
0100
0100
1000
,
0100
0010
0100
0100
,
0010
0100
0010
0001
,
0001
0010
0001
1000
,
0001
0001
0101
1100
,
1000
0010
0010
1000
,
0010
0100
0010
0010
,
0100
0010
0100
0001
,
0001
0100
0001
1000
,
0100
0000
0001
0000
0100
0010
0100
0000
,
1000
0010
0100
0001
,
0010
0100
2000
3001
,
1000
0000
0000
1000
0000
0000
2000
0000
3000
0000
0000
0000
0001
0000
0000
0001
,
0000
0002
0003
0000
0100
0000
0001
0000
,
0010
0000
0000
0010
0000
0000
0020
0000
0030
0000
0000
0000
0100
0000
0000
0100
,
0000
0200
0300
0000
0010
0000
0001
0000
,
0100
0000
0000
0100
0000
0000
0200
0000
0300
0000
0000
0000
0010
0000
0000
0010
,
0000
0020
0030
0000
0100
0000
0001
0000
,
1000
0000
0000
1000
0000
0000
2000
0000
3000
0000
0000
0000
0001
0000
0000
0001
,
0000
0000
0000
0000
0001
0000
0000
0010
0000
0000
0100
0000
0000
1000
0000
0000
,
0010
1000
0100
1000
,
1010
1010
2002
3003
,
0010
0001
0100
0001
,
0011
0011
0220
0330
,
2002
0000
0000
0000
0000
0000
0000
0000
0000
0000
0000
0000
0000
0000
0000
3003
,
0000
0001
0100
0010
,
2000
3100
0200
0310
,
0020
0031
0002
2003
,
3010
0000
0000
0020
0000
0000
0000
0000
0030
0000
0000
0000
0010
0000
0000
0010
;

//---------------dance-single - ----------------
#NOTES:
     dance-single:
     :
     Beginner:
     4:
     0.217954,0.322976,0.155849,0.246077,0.008203,186.000000,167.000000,19.000000,30.000000,0.000000,0.000000,0.217954,0.322976,0.155849,0.246077,0.008203,186.000000,167.000000,19.000000,30.000000,0.000000,0.000000:
0000
0000
0000
0000
,
0000
0000
0000
0000
,
0000
0000
0000
0000
,
0000
0000
0000
0000
,
1000
0000
0000
1000
,
0000
0000
0000
0000
,
0001
0000
0000
0001
,
0000
0000
0000
0000
,
1100
0000
0000
1001
,
0000
0000
1000
0001
,
0101
0000
0000
1001
,
0000
0000
0001
1000
,
1100
0000
0000
0110
,
0000
0000
1000
0001
,
0101
0000
0000
0110
,
0000
0000
0010
0100
,
0001
0000
0001
0000
,
0001
0000
0001
0000
,
0001
1000
0001
1000
,
0000
0000
0000
0000
,
1000
0000
0100
0000
,
0100
0000
1000
0000
,
0001
0000
0100
0000
,
0100
0000
0001
0000
,
1000
0000
0100
0000
,
0010
0000
0100
1000
,
0001
0000
0100
0000
,
0010
0000
0100
0002
,
0003
0000
1000
0000
,
0100
0000
1000
0000
,
0001
0000
0100
0000
,
0001
0000
0100
0000
,
0200
0000
0000
0300
,
0001
0000
1000
0000
,
1001
0000
1001
0000
,
1000
0000
0000
0001
0000
0000
0000
0000
,
1000
1000
2000
3000
,
0001
0000
0000
0100
0000
0000
0010
0000
,
0000
1000
0000
0000
0100
0000
0000
0010
,
0010
0010
0020
0030
,
0002
0000
0003
0200
,
0300
0020
0000
0030
,
0200
0300
2000
0000
,
3000
0200
0300
0002
,
0000
0003
2000
3000
,
0002
0000
0003
0020
,
0030
0200
0000
0300
,
0020
0030
2000
0000
,
3000
0020
0030
0002
,
0000
0003
2000
3000
,
0002
0000
0003
0100
,
0100
0002
0000
0003
,
1000
1000
0020
0000
,
0030
1000
1000
0200
,
0000
0300
1000
0001
,
2000
0000
3000
0100
,
0100
2000
0000
3000
,
0001
0001
0020
0000
,
0030
0100
0100
2000
,
0000
0000
3000
0001
0000
0000
1000
0000
,
0001
0100
1000
0100
,
0001
0001
0002
0003
,
0101
0000
0000
1001
,
0000
0000
0001
1000
,
1100
0000
0000
1001
,
0000
0000
1000
0001
,
0011
0000
0000
0110
,
0000
0000
0001
1000
,
1010
0000
0000
0110
,
0000
0000
0000
0000
0010
0000
0000
0100
0000
0000
0010
0000
0000
0100
0000
0000
,
0001
0001
1000
1000
,
0100
0010
0100
0010
,
0001
0001
1000
1000
,
0010
0100
0010
0100
,
0200
0000
0000
0000
0000
0000
0000
0000
0000
0000
0000
0000
0000
0000
0000
0300
,
0000
0001
1000
1000
,
0100
1000
0001
1000
,
0001
0010
0100
0110
,
0001
0000
0000
1000
;
