#VERSION:0.83;
#TITLE:Give Me ""THAT"";
#SUBTITLE:;
#ARTIST:good-cool feat. 貴様シスターズ;
#TITLETRANSLIT:;
#SUBTITLETRANSLIT:;
#ARTISTTRANSLIT:good-cool feat. Ki-Sa-Ma Sisters;
#GENRE:;
#ORIGIN:;
#CREDIT:;
#BANNER:Give Me THAT.png;
#BACKGROUND:Give Me THAT-bg.png;
#PREVIEWVID:;
#JACKET:Give Me THAT-jacket.png;
#CDIMAGE:;
#DISCIMAGE:;
#LYRICSPATH:;
#CDTITLE:cdtitle.png;
#MUSIC:Give Me THAT.ogg;
#OFFSET:0.000000;
#SAMPLESTART:78.720001;
#SAMPLELENGTH:14.880000;
#SELECTABLE:YES;
#BPMS:0.000=125.000;
#STOPS:;
#DELAYS:;
#WARPS:;
#TIMESIGNATURES:0.000=4=4;
#TICKCOUNTS:0.000=4;
#COMBOS:0.000=1;
#SPEEDS:0.000=1.000=0.000=0;
#SCROLLS:0.000=1.000;
#FAKES:;
#LABELS:0.000=Song Start;
#BGCHANGES:;
#KEYSOUNDS:;
#ATTACKS:
;

//---------------dance-single - MEGAtive----------------
#NOTEDATA:;
#CHARTNAME:;
#STEPSTYPE:dance-single;
#DESCRIPTION:MEGAtive;
#CHARTSTYLE:;
#DIFFICULTY:Beginner;
#METER:3;
#RADARVALUES:0.131827,0.193024,0.067728,0.186251,0.000000,109.000000,101.000000,8.000000,22.000000,0.000000,0.000000,0.000000,0.000000,0.000000,0.131827,0.193024,0.067728,0.186251,0.000000,109.000000,101.000000,8.000000,22.000000,0.000000,0.000000,0.000000,0.000000,0.000000;
#CREDIT:;
#NOTES:
0000
0000
0000
0000
,
0000
0000
0000
0000
,
0000
0000
0000
0000
,
0000
0000
0000
0000
,
0000
0000
0000
0000
,
2002
3003
0000
0000
,
0220
0330
0000
0000
,
2002
3003
0000
0000
,
2002
0000
0000
3003
,
1000
0000
0010
0010
,
0010
0000
1001
0000
,
0001
0000
0010
0010
,
0010
0000
1001
0000
,
1000
0000
0100
0100
,
0100
0000
1001
0000
,
0001
0000
0100
0100
,
0100
0000
1001
0000
,
1000
0000
0100
0000
,
0010
0000
0100
0000
,
1000
0000
0001
0000
,
1000
1000
1000
0000
,
0001
0000
0100
0000
,
0010
0000
0100
0000
,
0001
0000
1000
0000
,
0100
0100
0100
0000
,
1000
0000
0010
0000
,
0100
0000
0010
0000
,
1000
0000
0001
0000
,
1000
1000
1000
0000
,
0001
0000
0010
0000
,
0100
0000
0010
0000
,
0001
0000
1000
0000
,
0010
0010
0010
0000
,
2000
0000
3000
0000
,
0002
0000
0003
0000
,
0020
0000
0000
0000
,
0130
0000
0000
0000
,
2000
0000
3000
0000
,
0002
0000
0003
0000
,
0200
0000
0000
0000
,
0310
0000
0000
0000
,
1000
0000
0100
0100
,
0100
0000
0010
0010
,
0010
0000
0001
0001
,
0001
0000
1000
1000
,
0001
0000
0100
0100
,
0100
0000
0010
0010
,
0010
0000
1000
1000
,
1000
0000
0001
0001
,
2000
0000
3000
0000
,
0200
0000
0300
0000
,
0020
0000
0030
0000
,
0002
0000
0003
0000
,
2000
0000
3000
0000
,
0020
0000
0030
0000
,
0200
0000
0300
0000
,
0002
0000
0000
0000
,
1003
0000
0000
0000
;

//---------------dance-single - MEGAtive----------------
#NOTEDATA:;
#CHARTNAME:;
#STEPSTYPE:dance-single;
#DESCRIPTION:MEGAtive;
#CHARTSTYLE:;
#DIFFICULTY:Easy;
#METER:5;
#RADARVALUES:0.221325,0.265408,0.076194,0.025398,0.000000,183.000000,174.000000,9.000000,3.000000,0.000000,0.000000,0.000000,0.000000,0.000000,0.221325,0.265408,0.076194,0.025398,0.000000,183.000000,174.000000,9.000000,3.000000,0.000000,0.000000,0.000000,0.000000,0.000000;
#CREDIT:;
#NOTES:
0000
0000
0000
0000
,
0000
0000
0000
0000
,
0000
0000
0000
0000
,
0000
0000
0000
0000
,
0000
0000
0000
0000
,
0000
0000
0000
0000
,
0000
0000
0000
0000
,
0000
0000
0000
0000
,
0000
0000
0000
0000
,
1000
0010
0100
0010
,
1000
0100
0010
0000
,
0001
0010
0100
0010
,
0001
0100
0010
0000
,
1000
0010
0100
0010
,
1000
0100
0010
0000
,
0001
0010
0100
0010
,
0001
0100
0010
0000
,
1001
0000
0001
1000
0000
0000
0100
0010
,
0000
0000
0100
1000
0000
0000
0001
0000
,
1001
0000
1000
0001
0000
0000
0001
0100
,
0000
0000
0100
0010
0000
0000
1000
0000
,
1001
0000
0001
1000
0000
0000
0100
0010
,
0000
0000
0100
1000
0000
0000
0001
0000
,
1001
0000
1000
0001
0000
0000
0001
0100
,
0000
0000
0100
0010
0000
0000
1000
0000
,
1001
0000
0001
0010
0000
0000
0010
0100
,
0000
0000
0100
1000
0000
0000
0001
0000
,
1001
0000
1000
0010
0000
0000
0010
0100
,
0000
0000
0100
0001
0000
0000
0001
0000
,
1001
0000
1000
0100
0000
0000
0100
0010
,
0000
0000
0010
0001
0000
0000
1000
0000
,
1001
0000
0001
0100
0000
0000
0100
0010
,
0000
0000
0010
1000
0000
0000
0001
0000
,
1000
0100
0010
0100
,
1000
0010
0100
0010
,
2000
0000
0000
0000
,
3001
0010
0100
1000
,
0001
0010
0100
0010
,
0001
0100
0010
0100
,
0002
0000
0000
0000
,
2000
0000
3003
0000
,
1000
0100
0010
0001
,
1000
0010
0100
0100
,
0001
0010
0100
1000
,
0001
0100
0010
0010
,
1000
0010
0100
0001
,
1000
0100
0010
0010
,
0001
0100
0010
1000
,
0001
0010
0100
1000
,
1001
0000
0001
0100
,
0010
0000
1000
0100
,
0010
0000
0001
0100
,
0010
0100
0010
1000
,
0001
0000
1000
0100
,
0010
0000
0001
0100
,
0010
0000
1000
0100
,
0010
0100
0010
0001
,
1000
0000
0000
0000
;

//---------------dance-single - MEGAtive----------------
#NOTEDATA:;
#CHARTNAME:;
#STEPSTYPE:dance-single;
#DESCRIPTION:MEGAtive;
#CHARTSTYLE:;
#DIFFICULTY:Medium;
#METER:9;
#RADARVALUES:0.400319,0.399594,0.177785,0.253979,0.042330,331.000000,310.000000,21.000000,30.000000,0.000000,0.000000,0.000000,0.000000,0.000000,0.400319,0.399594,0.177785,0.253979,0.042330,331.000000,310.000000,21.000000,30.000000,0.000000,0.000000,0.000000,0.000000,0.000000;
#CREDIT:;
#NOTES:
0000
0000
0000
0000
,
0000
0000
0000
0000
,
0000
0000
0000
0000
,
0000
0000
0000
0000
,
0000
0000
0000
0000
,
1000
0100
0000
1100
0000
1100
0000
1000
,
0001
0100
0000
0101
0000
0101
0000
0001
,
0010
0100
0000
0110
0000
0110
0000
0100
,
2000
0000
3001
1001
,
1000
0000
0000
1000
0000
0000
0010
0000
0100
0000
0001
0000
0020
0000
0000
0000
,
0130
0000
0000
0100
0000
0000
0010
0000
0002
0000
0000
0000
1003
0000
0000
0000
,
0001
0000
0000
0001
0000
0000
0010
0000
0100
0000
1000
0000
0020
0000
0000
0000
,
0130
0000
0000
0100
0000
0000
0010
0000
2000
0000
0000
0000
3001
0000
0000
0000
,
1000
0000
0000
1000
0000
0000
0100
0000
0010
0000
0001
0000
0200
0000
0000
0000
,
0310
0000
0000
0010
0000
0000
0100
0000
0002
0000
0000
0000
1003
0000
0000
0000
,
0001
0000
0000
0001
0000
0000
0100
0000
0010
0000
1000
0000
0200
0000
0000
0000
,
0310
0000
0000
0010
0000
0000
0100
0000
2000
0000
0000
0000
3001
0000
0000
0000
,
1000
0010
1000
0000
0001
0010
0001
0000
,
1000
0010
0100
0001
1000
0000
1100
0000
,
0100
1000
0010
0000
0100
0001
0010
0000
,
0100
0010
0001
1000
0010
0000
1010
0000
,
1000
0100
1000
0000
0001
0100
0001
0000
,
1000
0100
0010
0001
1000
0000
1010
0000
,
0010
1000
0100
0000
0010
0001
0100
0000
,
0010
0100
0001
1000
0100
0000
1100
0000
,
1000
0010
1000
0000
0001
0010
0001
0000
,
1000
0010
0100
0001
1000
0000
1100
0000
,
0100
1000
0010
0000
0100
0001
0010
0000
,
0100
0010
0001
1000
0010
0000
0010
1000
,
0001
0010
0001
0000
1000
0010
1000
0000
,
0001
0010
0100
1000
0001
0000
0101
0000
,
0100
0001
0010
0000
0100
1000
0010
0000
,
0100
0010
1000
0001
0010
0000
0011
0000
,
1001
0000
1000
0010
0100
0001
0010
0000
,
0011
0000
0001
0010
0100
1000
0010
0000
,
1010
1000
0001
0010
,
0100
1000
0010
0000
0100
0001
0010
0100
,
1000
0000
0001
0010
0100
1000
0010
0000
,
1010
0000
1000
0010
0100
0001
0010
0000
,
0100
0000
0010
0000
0100
0000
0000
1000
0000
1000
0000
0000
0010
0000
0100
0000
,
0002
0000
0000
0000
0000
1000
1003
0001
,
1000
0100
1000
0100
0001
0100
2000
0000
,
3100
1000
0001
0100
0020
0000
2030
0000
,
3001
0100
0001
0100
1000
0100
0002
0000
,
0103
0001
1000
0100
0010
0100
2000
0000
,
3001
0010
0001
0010
1000
0010
0002
0000
,
0013
0001
1000
0010
0200
0000
0302
0000
,
1003
0010
1000
0010
0001
0010
2000
0000
,
3010
1000
0001
0010
0100
0010
0002
0000
,
1003
0100
0020
0000
0130
1000
0020
0000
,
0130
0001
0010
0100
1000
0000
1100
0000
,
1000
0010
0200
0000
0301
0010
0200
0000
,
0310
0001
0100
0010
1000
0001
0010
0000
,
0001
0100
0020
0000
0130
0001
0020
0000
,
0130
1000
0010
0100
0001
0000
0101
0000
,
0001
0010
0200
0000
1300
0010
0200
0000
,
0310
1000
0100
0010
0001
1000
0100
0000
,
2002
0000
0000
0000
,
0000
0000
0000
0000
,
3003
0000
0000
0000
;

//---------------dance-single - MEGAtive----------------
#NOTEDATA:;
#CHARTNAME:;
#STEPSTYPE:dance-single;
#DESCRIPTION:MEGAtive;
#CHARTSTYLE:;
#DIFFICULTY:Hard;
#METER:13;
#RADARVALUES:0.509167,0.574416,0.211649,0.414832,0.207416,421.000000,396.000000,25.000000,49.000000,0.000000,0.000000,0.000000,0.000000,0.000000,0.509167,0.574416,0.211649,0.414832,0.207416,421.000000,396.000000,25.000000,49.000000,0.000000,0.000000,0.000000,0.000000,0.000000;
#CREDIT:;
#NOTES:
// measure 0
0000
0000
0000
0000
,  // measure 1
0000
0000
0000
0000
,  // measure 2
0000
0000
0000
0000
,  // measure 3
0000
0000
0000
0000
,  // measure 4
0000
0000
0000
0000
,  // measure 5
1000
1000
0010
0110
0000
0100
0001
1000
,  // measure 6
0001
0000
0001
0000
0010
0000
0110
0000
0000
0000
0100
0000
1000
0001
1000
0000
,  // measure 7
0001
0001
0100
0110
0000
0010
1000
0001
,  // measure 8
2000
0000
0100
0000
0100
0000
0001
0000
3001
1000
0001
1000
0010
0000
1000
0000
,  // measure 9
1020
0000
0000
0001
0000
0000
1030
0000
0100
0000
0010
0000
0012
0000
0000
0000
,  // measure 10
0023
0000
0000
1000
0000
0000
0031
0000
0100
0000
0101
0000
0000
1000
0100
0000
,  // measure 11
1200
0000
0000
0001
0000
0000
1300
0000
0010
0000
0100
0000
0102
0000
0000
0000
,  // measure 12
0203
0000
0000
1000
0000
0000
0301
0000
0010
0100
0000
0000
0110
0000
0010
0001
,  // measure 13
0200
0000
0000
1000
0000
0000
0301
0000
1000
0000
0010
0000
2010
0000
0000
0000
,  // measure 14
3200
0000
0000
0001
0000
0000
1300
0000
0001
0000
0011
0000
0000
0010
0100
0000
,  // measure 15
0020
0000
0000
1000
0000
0000
0031
0000
1000
0000
0100
0000
2100
0000
0000
0000
,  // measure 16
3020
0000
0000
0001
0000
0000
1030
0000
0001
0000
0100
0000
0010
1000
0010
1000
,  // measure 17
0001
0010
0100
0010
0001
1000
0010
0100
,  // measure 18
0010
1000
0001
1000
0010
0100
0020
0000
,  // measure 19
1030
0100
0010
0100
1000
0001
0100
0010
,  // measure 20
0100
0001
1000
0001
0010
0100
0010
0010
,  // measure 21
0001
0100
0010
0100
0002
1000
2003
0100
,  // measure 22
3100
0010
0001
1000
0010
0100
0020
0000
,  // measure 23
1030
0010
0100
0010
1000
0100
0010
0002
,  // measure 24
1000
0000
2003
0000
0010
0000
3010
0000
0100
0010
0100
0000
0001
0000
0001
0000
,  // measure 25
1000
0010
0100
0010
1000
0001
0010
0100
,  // measure 26
0010
0001
1000
0001
0010
0200
0010
0000
,  // measure 27
1300
0010
0100
0010
1000
0001
0010
0200
,  // measure 28
0010
0000
1300
0020
0100
0000
1030
0001
,  // measure 29
1000
0100
0010
0100
2000
0001
3002
0100
,  // measure 30
0103
0010
1000
0001
0010
0200
0010
0000
,  // measure 31
1300
0010
0100
0010
1000
0100
0010
0002
,  // measure 32
1000
0000
2003
0000
0010
0000
3010
0100
0000
0001
1000
0000
0100
0000
0010
0000
,  // measure 33
0021
0000
0000
0000
1030
0000
0010
0000
0001
0000
0100
0010
0000
1000
0100
0000
,  // measure 34
1200
0000
0000
0001
0000
0000
1300
0000
0020
0000
0000
0001
0000
0000
1030
0000
,  // measure 35
2010
0010
0001
0100
,  // measure 36
3002
0000
0013
0100
2000
0000
3010
0100
0002
0000
2003
0000
3100
0000
0100
0000
,  // measure 37
1200
0000
0000
0000
0301
0000
0100
0000
1000
0000
0010
0100
0000
0001
0010
0000
,  // measure 38
0021
0000
0000
1000
0000
0000
0031
0000
0200
0000
0000
1000
0000
0000
0301
0000
,  // measure 39
0101
0000
0100
0000
0101
0000
0000
0110
0000
0010
1000
0000
1001
0000
0001
0010
,  // measure 40
0200
0000
0000
0000
0000
1300
1000
0010
,  // measure 41
0100
0001
0100
1000
0001
0010
2000
0000
,  // measure 42
3001
0010
1000
0010
0200
0000
2300
0000
,  // measure 43
3010
1000
0010
0001
1000
0100
0002
0000
,  // measure 44
1003
0000
0100
0000
0001
0000
0100
0000
0010
0100
0010
0000
0001
0000
0100
0010
,  // measure 45
0100
0001
0100
1000
0001
0010
2000
0000
,  // measure 46
3001
0010
1000
0010
0200
0000
2300
0000
,  // measure 47
3010
1000
0010
0001
1000
0100
0002
0000
,  // measure 48
1003
0000
0100
0000
0001
0000
0100
0010
0100
0010
0000
0001
0100
0000
0010
1000
,  // measure 49
0001
0010
0100
0010
1000
0001
0100
1000
,  // measure 50
0001
0100
0010
0100
0101
0000
1001
0000
,  // measure 51
1000
0100
0010
0100
0001
1000
0010
0001
,  // measure 52
1000
0000
0010
0000
0010
0000
0100
0001
0000
0010
0100
0000
1000
0000
1000
0001
,  // measure 53
1000
0010
0100
0010
0001
1000
0100
0001
,  // measure 54
1000
0100
0010
0100
1100
0000
1001
0000
,  // measure 55
0001
0100
0010
0100
1000
0001
0010
1000
,  // measure 56
0001
0100
0001
0100
0001
0010
0100
0010
0000
0100
0010
0100
1000
0000
0001
2000
,  // measure 57
0002
0000
0000
0000
,  // measure 58
0000
0000
0000
0000
,  // measure 59
3003
0000
0000
0000
;
