#TITLE:Giudecca;
#SUBTITLE:-MAYA AKAI Remix-;
#ARTIST:D.J. SETUP;
#TITLETRANSLIT:;
#SUBTITLETRANSLIT:;
#ARTISTTRANSLIT:;
#GENRE:;
#CREDIT:;
#BANNER:Giudecca -MAYA AKAI remix-.png;
#BACKGROUND:Giudecca -MAYA AKAI remix--bg.png;
#LYRICSPATH:;
#CDTITLE:;
#MUSIC:Giudecca -MAYA AKAI remix-.ogg;
#OFFSET:0.296000;
#SAMPLESTART:34.182793;
#SAMPLELENGTH:12.000000;
#SELECTABLE:YES;
#DISPLAYBPM:174.000000;
#BPMS:0.000000=174.020004
,131.000000=348.040009
,132.000000=174.020004
,259.750000=163.020004
,260.000000=174.000000
;
#STOPS:131.000000=0.172000
;
#BGCHANGES:;
#KEYSOUNDS:;
#ATTACKS:;

//---------------dance-single - BLANK.----------------
#NOTES:
     dance-single:
     BLANK.:
     Beginner:
     6:
     0.230551,0.344810,0.163518,0.071095,0.000000,227.000000,204.000000,23.000000,10.000000,0.000000,0.000000,0.230551,0.344810,0.163518,0.071095,0.000000,227.000000,204.000000,23.000000,10.000000,0.000000,0.000000:
0000
0000
0000
0000
,
0000
0000
0000
0000
,
0000
0000
0000
0000
,
0000
0000
0000
0000
,
0000
0000
0000
0000
,
0000
0000
0000
0000
,
0000
0000
0000
0000
,
0000
0000
0000
0000
,
0000
0000
0000
0000
,
2002
0000
0000
0000
,
0000
0000
0000
0000
,
3003
0000
0000
0000
,
0000
0000
0000
0000
,
0220
0000
0000
0000
,
0000
0000
0000
0000
,
0330
0000
0000
0000
,
0000
0000
0000
0000
,
1000
0000
0001
0000
,
1000
0000
0001
0000
,
0010
0000
0100
0000
,
0010
0000
0100
0000
,
1000
0000
0010
0000
,
1000
0000
0010
0000
,
0100
0000
0001
0000
,
0100
0000
0001
0000
,
1000
1000
1000
0000
,
0001
0001
0001
0000
,
0100
0100
0100
0000
,
0010
0010
0010
0000
,
1000
0000
0100
0000
,
0010
0000
0001
0000
,
1000
0010
0100
0001
,
0000
0000
0000
0000
,
1001
0000
0110
0000
,
1000
0100
0001
0100
,
2000
0000
3002
0000
,
2003
0000
3002
0000
,
1003
0000
0110
0000
,
0001
0000
0110
0000
,
1000
0001
1000
0001
,
0010
0010
0010
0010
,
0100
0000
1001
0000
,
0010
0000
1001
0000
,
1000
0000
0110
0000
,
0001
0000
0110
0000
,
1000
0010
0110
0000
,
0001
0010
0110
0000
,
1000
0100
0110
0000
,
0001
1000
0001
1000
,
0001
0000
1001
0000
,
1000
0000
1001
0000
,
0001
0000
1001
0000
,
1000
0000
1001
0000
,
0001
0001
0010
0010
,
1000
1000
0010
0010
,
0002
0000
2003
0000
,
3001
0010
0100
1000
,
0010
0000
1001
0000
,
0100
0000
1001
0000
,
0010
0000
1001
0000
,
0100
0000
1001
0000
,
1000
1000
0010
0010
,
0001
0001
0010
0010
,
1000
0100
0110
0000
,
0001
0010
0100
1000
,
0001
0000
0001
0000
,
1000
0000
1000
0000
,
0010
0000
0100
0000
,
0001
1000
0001
0000
,
0100
0000
0100
0000
,
0010
0000
0010
0000
,
1000
0000
1000
0000
,
0001
0010
0100
0010
,
0001
0000
0001
0000
,
1000
0000
1000
0000
,
0010
0000
0010
0000
,
0100
0000
0100
0001
,
1000
0000
1000
0000
,
0100
0000
0100
0000
,
0010
0001
0010
0001
,
0010
0000
0000
0000
,
0001
0000
0000
1000
,
0000
1000
0000
0001
,
0100
0001
0000
1000
,
0000
0000
1000
0000
0000
0001
0000
0000
,
0100
0000
0000
0100
,
0000
0010
0000
0100
,
0001
0010
0000
0100
,
0000
0000
1000
0000
0000
0001
0000
0000
,
1000
0000
0000
0001
,
0000
1000
0000
0001
,
0100
1000
0000
0100
,
0000
0000
0001
0000
0000
0100
0000
0000
,
0010
1000
0010
1000
,
0001
0100
0001
0100
,
0010
1000
0001
0100
,
0010
0000
0000
0000
,
1001
0000
0000
0000
;

//---------------dance-single - BLANK.----------------
#NOTES:
     dance-single:
     BLANK.:
     Easy:
     9:
     0.381881,0.551697,0.163518,0.184847,0.000000,376.000000,353.000000,23.000000,26.000000,0.000000,0.000000,0.381881,0.551697,0.163518,0.184847,0.000000,376.000000,353.000000,23.000000,26.000000,0.000000,0.000000:
0000
0000
0000
0000
,
0000
0000
0000
0000
,
0000
0000
0000
0000
,
0000
0000
0000
0000
,
0000
0000
0000
0000
,
0000
0000
0000
0000
,
0000
0000
0000
0000
,
0000
0000
0000
0000
,
0000
0000
1000
0000
0000
0001
0000
0000
,
0220
0000
0000
0000
,
0000
0000
0000
0000
,
0330
0000
0000
0000
,
0000
0000
0001
0000
0000
1000
0000
0000
,
0220
0000
0000
0000
,
0000
0000
0000
0000
,
0330
0000
0000
0000
,
0000
0000
1000
0000
0000
0001
0000
0000
,
0100
0001
0000
1000
,
0100
0010
0000
0010
,
0001
1000
0000
1000
,
0010
0000
0100
0000
0000
0101
0000
0000
,
0001
0010
0000
0010
,
0100
1000
0000
0010
,
0100
0001
0000
0001
,
1000
0000
0010
0000
0000
0101
0000
0000
,
0001
0010
0001
0010
,
0100
0001
0100
0001
,
0100
1000
0100
1000
,
0010
1000
0010
1000
,
0001
0010
0100
1000
,
0001
0010
0100
1000
,
0002
0000
2003
0000
,
3010
0100
1001
0000
,
0001
0000
0100
0000
0010
0001
0010
0000
,
0100
0001
0100
0000
0001
1000
0001
0000
,
0020
0000
0130
1000
,
0100
0001
0100
1000
,
0020
0000
0130
1001
,
0010
1001
0100
1001
,
0001
1000
0001
1000
0001
1000
0001
1000
,
0001
0000
0010
0100
1000
0001
0100
0000
,
0001
0010
1100
0001
,
1000
0010
0101
1000
,
0001
0100
1010
0001
,
1000
0000
0100
0000
0011
0000
0010
0001
,
1000
0001
0110
1000
,
0001
1000
0110
0001
,
1010
0011
1100
0101
,
1000
0001
1000
0001
1000
0001
1000
0000
,
0010
1000
0100
0001
,
0010
1000
0100
0001
,
0010
1000
0100
0001
,
0010
1000
0100
0001
,
2000
0000
0000
0000
3010
0100
0010
0000
,
0100
1000
0100
0000
0001
0010
0001
0000
,
0002
0000
1003
0001
,
0010
0100
0010
0100
0010
0100
0010
0000
,
1001
0100
0001
0010
,
1000
0100
0001
0010
,
1000
0100
0001
0010
,
1000
0100
0001
0010
,
1000
0000
0001
0000
0110
0000
0001
1000
,
0001
0000
1000
0000
0110
0000
1000
0001
,
1000
0000
0001
0000
0110
0000
0001
1000
,
0001
0000
0100
0000
0001
1000
0001
1000
,
0001
0100
0010
1000
,
0001
0000
0010
0000
0100
0000
0010
0001
,
1000
0100
1000
0010
,
0100
0000
0001
0000
1000
0001
1000
0000
,
0001
0010
0100
1000
,
0010
0000
0100
0000
0001
0000
1000
0001
,
1000
0001
0100
0010
,
0100
0000
0001
0000
0010
0001
0010
0001
,
0100
0010
1000
0010
,
0100
0000
0001
0000
0010
0000
0100
1000
,
0010
0000
0100
0000
0001
0000
1000
0001
,
1000
0000
0001
0000
0010
0100
1000
0010
,
0100
0001
1000
0100
,
0010
0000
0001
0000
1000
0000
0010
0100
,
0001
1000
0001
1000
0001
1000
0001
1000
,
0000
0000
2000
0000
0000
3020
0000
0000
,
0230
1000
0010
0001
,
0010
1000
0010
0001
,
0320
1000
0100
0001
,
1030
0000
0200
0000
0300
0020
0000
0030
,
0002
1000
0100
0010
,
0100
1000
0100
1000
,
0023
0100
0001
0100
,
1000
0000
0230
0000
0000
0320
0000
0000
,
0230
1000
0001
1000
,
0010
1000
0001
1000
,
0302
0010
0100
0010
,
0100
0000
2003
0000
0000
3002
0000
0000
,
1003
0100
1000
0100
1000
0100
1000
0000
,
0001
0010
0001
0010
0001
0010
0001
0000
,
1000
0001
1000
0001
0100
0010
0200
0020
,
0000
0000
0000
0330
,
1001
0000
0000
0000
;

//---------------dance-single - BLANK.----------------
#NOTES:
     dance-single:
     BLANK.:
     Medium:
     12:
     0.480399,0.724102,0.270161,0.270161,0.017774,473.000000,435.000000,38.000000,38.000000,0.000000,0.000000,0.480399,0.724102,0.270161,0.270161,0.017774,473.000000,435.000000,38.000000,38.000000,0.000000,0.000000:
0000
0000
0000
0000
,
0000
0000
0000
0000
,
0000
0000
0000
0000
,
0000
0000
0000
0000
,
0000
0000
0000
0000
,
0000
0000
0000
0000
,
0000
0000
0000
0000
,
0000
0000
0000
0000
,
0000
0000
1010
0000
0000
0011
0000
0000
,
2200
0000
0000
0000
,
0000
0000
0000
0000
,
3300
0000
0000
0000
,
0000
0000
0011
0000
0000
1010
0000
0000
,
0202
0000
0000
0000
,
0000
0000
0000
0000
,
0303
0000
0000
0000
,
0000
0000
1001
0000
0000
0110
0000
0000
,
1001
0000
0100
0000
0000
0001
0100
0000
,
0010
0000
1000
0000
0000
0100
0010
0000
,
0001
0000
1000
0000
0000
0010
0100
0000
,
0001
0001
1000
0000
0000
0001
0010
0100
,
0010
0000
0001
0000
0000
1000
0010
0000
,
0100
0000
0001
0000
0000
0010
0100
0000
,
1000
0000
0001
0000
0000
1000
0010
0000
,
0100
0100
0001
0000
0000
0010
0001
0000
,
1000
1000
0001
0001
,
0100
0100
0010
0010
,
1000
1000
0001
0001
,
0010
0010
0100
0100
,
1000
0010
1000
0010
1000
0010
1000
0010
,
0100
0001
0100
0001
0100
0001
0100
0001
,
1000
0100
0010
0001
1000
0001
0100
0010
,
1000
0001
0220
0330
,
1001
0000
0110
0000
1000
0100
0010
0100
,
1000
0010
1000
0010
0100
1000
0100
0001
,
0020
1000
0230
0001
,
2300
0010
3002
0100
,
1003
0000
1001
0000
0001
0010
0200
0000
,
1000
0001
1000
0001
,
1300
0010
1000
0010
1000
0001
1000
0001
,
1000
0000
0100
0010
0001
1000
0010
0100
,
0110
0000
0001
0010
0200
0000
1300
0000
,
0110
0000
1000
0010
0200
0000
0301
0000
,
0110
0000
0001
0010
0200
0000
1300
0000
,
1000
0100
1000
0100
0010
0001
0010
0001
,
1100
0000
0010
0100
0001
0000
1010
0000
,
0011
0000
0100
0010
1000
0000
0101
0000
,
1100
0000
1000
0100
0001
0000
0110
0000
,
1001
0000
1000
0010
0100
0001
1000
0100
,
0010
0001
0100
1000
,
0010
0001
0100
1000
,
0010
0001
0100
1000
,
0010
0001
0100
1000
,
0201
0000
1000
0000
0301
0010
0001
0010
,
0100
0001
0100
1000
0100
0010
0001
0100
,
0020
0000
0030
0000
1001
0000
1000
1000
,
0001
0100
0001
1000
0001
0100
0001
1000
,
0010
1000
0100
0001
,
0010
1000
0100
0001
,
0010
1000
0100
0001
,
0010
1000
0100
0001
,
1001
0000
0001
0100
1000
0100
0010
0100
,
0001
0000
1000
0100
0001
0100
0010
0100
,
2000
0000
3010
0100
0002
0000
0013
0010
,
0001
1000
0001
1000
0100
1000
0001
1000
,
0010
0000
1001
0000
1000
0100
0010
0000
,
0001
0000
1010
0000
0001
0100
0010
0100
,
0001
0000
1001
0000
1000
0100
0010
0000
,
0001
0010
0200
0300
1000
0002
1003
0010
,
0100
0000
0011
0000
1000
0001
1000
0000
,
0100
0000
1010
0000
0001
0100
0010
1000
,
0001
0000
0110
0000
1000
0001
0010
0000
,
0100
1000
0020
0130
0001
1000
0100
0010
,
0001
0000
1001
0000
0001
1000
0010
0000
,
0100
0000
0110
0000
0010
1000
0010
0100
,
0001
0000
1001
0000
0001
0010
0100
0000
,
1000
0001
2000
3000
0010
1000
0100
0010
,
0001
0000
1100
0000
1000
0001
0100
0000
,
0001
0000
0011
0000
0001
0010
0100
1000
,
0010
0100
0010
0100
0001
1000
0001
1000
,
0000
0000
0002
0000
0000
0023
0000
0000
,
0230
0000
1000
0000
0000
0001
1000
0000
,
0001
0000
1000
0000
0000
0001
1000
0000
,
0320
0000
1000
0000
0000
0001
1000
0000
,
0031
0000
0200
0000
0301
0020
0001
0030
,
0002
0000
1000
0000
0000
0010
1000
0000
,
0100
0000
1000
0000
0000
0010
1000
0000
,
0023
0000
0001
0000
0000
1000
0001
0000
,
1000
0000
0230
0000
0001
2300
0001
0000
,
3020
0000
0001
0000
0000
0100
1000
0000
,
0100
0000
0001
0000
0000
0100
1000
0000
,
2030
0000
0001
0000
0000
0100
0001
0000
,
0100
0000
3002
0000
0010
0203
0010
0000
,
1300
0100
0010
0001
1000
0010
0100
0001
,
0010
0001
0100
0010
1000
0100
0010
0001
,
1000
0001
1000
0000
0001
0000
1000
0000
0010
0100
0010
0100
0010
0100
0020
0200
,
0000
0000
0000
0330
,
1001
0000
0000
0000
;

//---------------dance-single - BLANK.----------------
#NOTES:
     dance-single:
     BLANK.:
     Hard:
     14:
     0.639854,0.827545,0.334146,0.511883,0.110197,630.000000,583.000000,47.000000,72.000000,0.000000,0.000000,0.639854,0.827545,0.334146,0.511883,0.110197,630.000000,583.000000,47.000000,72.000000,0.000000,0.000000:
0000
0000
0000
0000
,
0000
0000
0000
0000
,
0000
0000
0000
0000
,
0000
0000
0000
0000
,
0000
0000
0000
0000
,
0000
0000
0000
0000
,
0000
0000
0000
0000
,
0000
0000
0000
0000
,
0000
0000
2200
0000
3300
0220
0000
0330
,
0022
0000
0000
0000
,
0000
0000
0000
0000
,
0033
0000
0000
0000
,
0000
0000
2020
0000
3030
0220
0000
0330
,
0202
0000
0000
0000
,
0000
0000
0000
0000
,
0303
0000
0000
0000
,
0000
0000
1001
0000
0000
0110
0000
0000
,
1001
0000
0001
0100
0000
0010
1000
0100
,
0000
0010
0001
0100
0000
0010
1000
0100
,
0000
0100
1000
0010
0000
0100
0001
0010
,
0000
0010
0001
0100
0010
0100
0001
1000
,
0010
0100
0001
1000
0000
0100
1000
0001
,
0000
0100
0001
1000
0000
0100
1000
0001
,
0000
0010
0001
1000
0000
0010
1000
0001
,
0000
0010
0001
1000
0010
1000
0001
0100
,
0010
1000
0100
0010
0001
1000
0010
0100
,
0010
1000
0001
0010
0100
0010
0001
1000
,
0001
0100
0010
1000
0010
0100
0001
1000
,
0100
0010
0001
1000
0010
0001
0010
1000
,
0001
0001
0010
0010
0100
0100
1000
1000
,
0010
0010
0100
0100
0001
0001
1000
1000
,
0020
0000
0200
0330
,
1001
0000
0000
0000
0110
0000
0000
0000
0001
1000
0001
1000
0001
0000
0000
0000
,
0021
0000
1000
0000
0031
0100
1000
0100
,
0010
1000
0100
0010
0001
0100
0010
1000
,
0002
0010
2003
0100
,
3020
0001
0230
1000
,
0302
1000
0013
1001
,
0100
1001
0010
1001
,
1000
0100
0001
0100
1000
0010
0001
0010
,
0100
0000
0100
0000
0010
0000
0010
0000
1000
0001
1000
0001
1000
0000
0000
0000
,
1002
0000
0013
0100
1100
0100
0001
0100
,
2001
0000
3010
0100
0101
0100
1000
0100
,
1002
0000
0013
0100
2001
0000
3010
0100
,
1002
0000
0203
0000
0320
0000
2030
0000
3001
0010
0001
0010
0001
1000
0001
1000
,
0200
0000
1300
0001
2100
0000
3001
1000
,
0120
0000
0031
1000
0102
0000
1003
0010
,
0101
0000
0001
0000
0010
0000
0100
0000
2010
0000
0000
0000
3001
0010
0100
0010
,
0001
0001
1000
1000
0010
0010
0100
0100
,
0002
0013
0100
1000
0020
0130
1000
0100
,
0002
0013
0100
1000
0020
0130
1000
0100
,
0002
0013
0100
1000
0020
0130
1000
0100
,
0002
0013
0100
1000
0020
0130
0010
1000
,
0002
0003
2000
3000
0110
1000
0001
1000
,
0110
0001
1000
0001
0110
1000
0001
1000
,
0201
0000
1000
0000
0320
0000
0001
0001
,
2030
0100
3002
0010
2003
0100
3002
0010
,
2003
3100
0010
0001
0200
0310
0001
0010
,
2000
3100
0010
0001
0200
0310
0001
0010
,
2000
3100
0010
0001
0200
0310
0001
0010
,
2000
3100
0010
0001
0200
0310
0100
0001
,
0020
0030
0200
0300
1001
0100
0010
0100
,
1001
0010
0100
0010
1001
0100
0010
0100
,
0021
0000
0230
0000
1300
0001
1000
0010
,
0100
0000
0100
0000
0001
0000
0001
0000
1000
0100
1000
0100
0010
0001
0010
0000
,
0100
0000
1001
0000
1000
1000
0010
0000
,
0100
0000
0011
0000
0001
0010
0100
0010
,
0001
0000
1001
0000
1000
0010
0100
0010
,
1000
0100
0002
0103
2000
3020
0130
0010
,
1000
0000
0101
0000
0001
0001
0010
0000
,
0100
0000
1001
0000
0001
0100
0010
0010
,
1000
0000
1100
0000
0100
0010
0001
0100
,
0001
0010
2000
3001
0100
0020
0130
1000
,
0001
0000
1001
0000
0001
0100
0010
0000
,
1000
0000
1100
0000
0001
0010
0100
0100
,
1000
0000
1001
0000
1000
0010
0100
0000
,
0001
0000
0010
0000
0200
0000
1300
0000
0010
0000
2000
0000
3100
0000
0010
0001
,
0010
0001
1001
0000
0001
1000
0010
0000
,
0100
0000
0000
0000
1001
0000
0000
0000
0001
0000
0010
0000
0100
0000
1000
0001
,
1000
0000
1000
0000
0010
0000
0100
0010
0100
0000
0100
0000
0001
1000
0001
1000
,
0001
0000
2000
0000
3000
0200
0000
0310
,
0001
0100
1000
0100
0010
1000
0010
0001
,
1000
0000
0100
0000
0010
0000
0100
0000
0001
0000
0010
0000
0001
0000
1000
0001
,
1000
0001
0010
1000
0010
0100
1000
0010
,
0100
0001
0010
0010
0001
0100
0100
0001
,
1000
0100
0010
0001
0100
0001
0010
1000
,
0010
0000
0001
0000
0100
0000
1000
0000
0001
0000
0010
0000
0100
0000
0010
1000
,
0010
1000
0100
0010
0100
1000
0010
0100
,
0001
1000
0010
0010
0100
0010
0010
1000
,
0001
0010
0100
1000
0001
1000
0100
0010
,
0001
0000
0100
0000
0010
0000
1000
0000
0001
0000
1000
0000
0010
0000
0100
0001
,
1000
0100
0010
0001
0100
0010
1000
0001
,
0010
0000
0010
0000
0100
1000
0100
0000
0010
0000
0001
0100
0001
0000
1000
0000
,
0010
0010
0010
0010
0100
0100
0100
0100
,
0001
0001
0001
0001
1000
1000
1000
1000
,
0010
0100
0010
0100
0010
0100
0010
0100
0001
1000
0001
1000
0001
1000
0002
2000
,
0000
0000
0000
3003
,
1001
0000
0000
0000
;

//---------------dance-single - BLANK.----------------
#NOTES:
     dance-single:
     BLANK.:
     Challenge:
     16:
     0.772904,1.185530,0.369694,0.348365,0.682511,761.000000,709.000000,52.000000,49.000000,12.000000,1.000000,0.772904,1.185530,0.369694,0.348365,0.682511,761.000000,709.000000,52.000000,49.000000,12.000000,1.000000:
// measure 0
0000
0000
0000
0000
,  // measure 1
0000
0000
0000
0000
,  // measure 2
0000
0000
0000
0000
,  // measure 3
0000
0000
0000
0000
,  // measure 4
0000
0000
0000
0000
,  // measure 5
0000
0000
0000
0000
,  // measure 6
0000
0000
0000
0000
,  // measure 7
0000
0000
0000
0000
,  // measure 8
0000
0000
2020
0000
3030
2002
0000
3003
,  // measure 9
0202
0000
0000
0000
,  // measure 10
0000
0000
0000
0000
,  // measure 11
0303
0000
0000
0000
,  // measure 12
0000
0000
0022
0000
0033
2002
0000
3003
,  // measure 13
2200
0000
0000
0000
,  // measure 14
0000
0000
0000
0000
,  // measure 15
3300
0000
0000
0000
,  // measure 16
0000
0000
0220
0000
0330
2002
0000
3003
,  // measure 17
1000
0100
0010
0001
0000
0001
0100
0010
,  // measure 18
0000
0010
1000
0100
0000
0100
1000
0001
,  // measure 19
0000
0001
0100
1000
0000
1000
0100
0010
,  // measure 20
0000
0010
2000
3100
0010
0002
0103
0010
,  // measure 21
0100
0001
1000
0010
0000
0010
1000
0100
,  // measure 22
0000
0100
0010
0001
0000
0001
0100
0010
,  // measure 23
0000
0010
1000
0001
0000
0001
0010
0100
,  // measure 24
0000
0100
2000
3010
0100
0002
0013
0100
,  // measure 25
1000
1000
0001
0001
0100
0100
0010
0010
,  // measure 26
1000
1000
0001
0001
0010
0010
0100
0100
,  // measure 27
1000
1000
0010
0010
0100
0100
0001
0001
,  // measure 28
1000
0100
0010
0010
0001
0100
0100
0010
,  // measure 29
1000
0100
0001
0100
0010
0001
0100
0001
,  // measure 30
0010
1000
0010
0001
1000
0100
0010
0001
,  // measure 31
1000
0010
1000
0010
1000
0010
1000
0010
0100
0001
0100
0001
0100
0001
0100
0001
,  // measure 32
0100
0000
0000
0000
0000
0000
0110
0000
0000
0000
0000
0000
4000
0004
0000
0000
0000
0000
3003
0000
0000
0000
0000
0000
,  // measure 33
1200
0000
0001
0000
1300
0001
M010
0010
,  // measure 34
0100
0001
M010
0010
1000
0001
M100
0100
,  // measure 35
1020
0000
0001
0030
1200
0000
0001
0300
,  // measure 36
1020
0000
0001
0030
1200
0000
0001
0300
,  // measure 37
1001
0110
2001
0010
,  // measure 38
0100
0010
0101
3010
,  // measure 39
0001
1000
0010
0100
0001
1000
0010
0100
0001
1000
0100
0010
0001
1000
0100
0010
,  // measure 40
0001
0000
1000
0000
0001
0000
1000
0001
1000
0010
1000
0010
0100
0001
0100
0001
,  // measure 41
4000
0000
3001
0100
0011
1000
0100
M100
,  // measure 42
0010
1000
0010
M010
0001
1000
0100
M100
,  // measure 43
1004
0000
0013
0100
2020
3030
0001
0001
,  // measure 44
0100
0010
1000
0001
0010
0100
1000
0010
1000
0001
0100
0010
0100
0001
0010
0100
,  // measure 45
4000
0000
3001
0010
0201
0000
1300
1000
,  // measure 46
0004
0000
0000
0000
0000
0000
0103
0000
0010
0000
1000
0000
0021
0000
0000
0000
0000
0000
0130
0000
0000
0001
0000
0000
,  // measure 47
1000
0100
0010
0000
0001
0000
0100
0000
2020
0000
0000
3030
0001
0100
0010
0100
,  // measure 48
0001
0000
0001
1000
0010
0000
1000
0001
0010
0000
0001
1000
0010
1000
0001
0010
,  // measure 49
0001
0100
0010
0010
1100
0010
0100
0100
,  // measure 50
0011
0100
0010
0010
1100
0010
0100
0100
,  // measure 51
0011
0100
0010
0010
1100
0010
0100
0100
,  // measure 52
0011
0100
0010
0010
1100
0010
0100
0100
,  // measure 53
1004
0000
0043
0000
0130
0010
0001
00M1
,  // measure 54
0100
1000
0010
M010
0001
0010
001M
1000
,  // measure 55
0104
0000
0000
0000
1000
0000
0003
0000
0001
0010
0100
0000
0010
0000
0010
0000
,  // measure 56
0001
1000
0001
0100
0010
1000
0010
0100
0004
0000
1000
0000
0043
0000
0100
0000
,  // measure 57
2030
0000
3100
0010
0101
0010
0100
0100
,  // measure 58
1010
0100
0010
0010
0101
0010
0100
0100
,  // measure 59
1010
0100
0010
0010
0101
0010
0100
0100
,  // measure 60
1010
0100
0010
0010
0101
0010
0100
0100
,  // measure 61
1002
0000
0013
0100
1010
0001
0010
001M
,  // measure 62
1100
0010
0100
010M
1010
0001
0100
010M
,  // measure 63
2000
0000
0000
0000
0001
0000
0000
0000
3100
0010
0001
0000
1000
0000
0010
0000
,  // measure 64
0100
0001
0100
0001
1000
0010
1000
0010
1000
0100
0010
0001
1000
0010
0100
0001
,  // measure 65
2000
0000
0000
0000
3001
0000
0000
0000
0001
0010
0000
0001
0000
0100
0000
0000
,  // measure 66
0020
0000
0000
0000
1030
0000
0000
0000
0100
0010
0000
0001
0000
1000
0010
0000
,  // measure 67
0200
0000
0000
0000
0301
0000
0000
0000
1000
0100
0000
0010
0000
0001
0010
0000
,  // measure 68
0001
1000
0001
1000
0001
0000
0000
0000
0100
0010
0000
1000
0000
0001
0010
0000
,  // measure 69
0200
0000
0000
0000
1300
0000
0000
0000
0001
0100
0000
0001
0000
1000
0000
0000
,  // measure 70
0020
0000
0000
0000
0130
0000
0000
0000
0001
1000
0000
0100
0000
0010
0100
0010
,  // measure 71
0002
0000
0000
0000
1003
0000
0000
0000
0001
0010
0000
0100
0000
1000
0100
0000
,  // measure 72
0010
0001
0100
0001
0100
0000
0010
0000
1000
0000
0100
0000
0010
0001
1000
0010
,  // measure 73
0100
0000
0001
0000
1000
0010
0000
0000
1000
0000
0000
0001
0000
0010
0100
0000
,  // measure 74
1000
0000
0010
0000
0100
0001
0000
0000
0010
0000
0000
0100
0000
1000
0010
0000
,  // measure 75
0100
0000
0001
0000
0100
0010
0000
0000
1000
0100
0000
0010
0000
0001
1000
0000
,  // measure 76
0010
0100
0010
0100
0010
0000
1000
0000
0001
0000
1000
0000
0100
0010
0001
1000
,  // measure 77
0010
0000
0100
0000
0001
0010
0000
0000
0100
0000
0000
1000
0000
0010
0100
0000
,  // measure 78
0001
0000
1000
0000
0100
0010
0000
0000
0001
0000
0000
1000
0000
0010
1000
0010
,  // measure 79
0100
0000
0001
0000
1000
0000
0100
0010
0001
0000
1000
0000
0010
0100
0010
0100
,  // measure 80
0000
0000
0002
0000
0000
2003
0000
0000
,  // measure 81
3100
0010
0001
1000
0000
0010
0000
0000
0100
0010
1000
0001
0000
0010
0000
0000
,  // measure 82
0100
1000
0100
0010
0000
0001
0000
0000
0100
0001
0100
0010
0000
1000
0100
0010
,  // measure 83
0001
0100
0010
1000
0000
0001
0000
0000
1000
0100
0010
0001
0000
1000
0010
1000
,  // measure 84
0001
0100
0010
0100
0002
0000
0010
0000
0013
0000
0200
0000
1000
0000
1300
0000
,  // measure 85
0001
0010
0100
0010
0000
0001
0000
0000
1000
0010
0100
0010
0000
1000
0000
0000
,  // measure 86
0001
0010
0100
1000
0000
0001
0000
0000
1000
0010
0100
0001
0000
1000
0100
1000
,  // measure 87
0001
0100
0010
0100
0000
0001
0000
0000
1000
0100
1000
0001
0000
1000
0100
0010
,  // measure 88
0001
0010
0001
0010
0200
0000
0001
0000
0301
0000
2000
0000
0010
0000
3010
0000
,  // measure 89
1000
0001
1000
0001
0000
0100
0000
0000
0001
1000
0001
1000
0000
0010
0000
0000
,  // measure 90
0100
0001
0100
0010
0000
0001
0000
0000
0100
1000
0100
0010
0000
1000
0100
0010
,  // measure 91
0001
0100
0010
0100
0000
0001
0000
0000
1000
0100
0010
1000
0000
0010
0100
0010
,  // measure 92
0001
1000
0001
1000
0010
0000
0100
0000
0001
1000
0001
1000
0010
0100
0001
1000
,  // measure 93
0010
0010
0010
0010
0100
0100
0100
0100
,  // measure 94
0110
0110
0110
0110
1001
1001
1001
1001
,  // measure 95
1000
0001
0100
0010
1000
0100
0010
0001
1000
0010
0100
0010
1000
0001
0100
0010
,  // measure 96
0100
0001
1000
0100
1000
0001
0010
0001
1000
0010
1000
0001
0100
0010
1000
0002
,  // measure 97
2000
0000
0000
0000
,  // measure 98
0000
0000
0000
0000
,  // measure 99
0000
0000
0000
0000
,  // measure 100
0000
0000
0000
0000
,  // measure 101
0003
3000
0000
0000
0000
0000
0000
0000
0000
0000
0000
0000
0000
0000
0000
0000
;
