#VERSION:0.83;
#TITLE:Giselle;
#SUBTITLE:;
#ARTIST:Sobrem a.k.a. Widowmaker;
#TITLETRANSLIT:;
#SUBTITLETRANSLIT:;
#ARTISTTRANSLIT:;
#GENRE:Ballet;
#CREDIT:;
#MUSIC:Giselle.ogg;
#BANNER:Giselle.png;
#BACKGROUND:Giselle-bg.png;
#CDTITLE:cdtitle.png;
#SAMPLESTART:5.091;
#SAMPLELENGTH:15.000;
#SELECTABLE:YES;
#OFFSET:-0.399;
#BPMS:0.000=152.000
,44.000=148.000
,48.000=144.000
,50.000=140.000
,51.000=128.000
,52.000=136.000
,68.000=140.000
,76.000=144.000
,77.000=146.000
,79.000=144.000
,86.000=142.000
,88.000=152.000
,150.000=153.000
,152.000=76.000
,160.000=152.000
,174.000=76.000
,175.000=152.000
,189.000=76.000
,190.000=152.000
,203.000=76.000
,204.000=152.000
,217.750=76.000
,218.750=152.000
,232.000=151.000
,233.000=152.000
,248.000=151.500
,256.000=140.000
,257.000=152.000
,262.000=158.000
,264.000=148.400
,268.000=154.750
,272.000=144.750
,273.000=149.750
,274.000=153.800
,279.000=152.000
,319.000=150.000
;
#STOPS:174.000=0.789
,203.000=0.395
,261.000=0.388
,308.000=0.524
;
#SPEEDS:0.000=1.000=0.000=0;
#SCROLLS:0.000=1.000;
#TICKCOUNTS:0.000=4;
#TIMESIGNATURES:0.000=4=4;
#LABELS:0.000=Song Start;
#COMBOS:0.000=1;
#ORIGIN:;
#PREVIEWVID:;
#JACKET:Giselle-jacket.png;
#CDIMAGE:;
#DISCIMAGE:;
#BGCHANGES:-0.500=Giselle.avi=1.000=0=0=0=StretchNoLoop==CrossFade_Fastest==,
99999.000=-nosongbg-=1.000=0=0=0=StretchNoLoop====
;
#FGCHANGES:;

//--------------- dance-single - Daff_4K ----------------
#NOTEDATA:;
#STEPSTYPE:dance-single;
#DESCRIPTION:Daff_4K;
#DIFFICULTY:Beginner;
#METER:5;
#RADARVALUES:0.202144,0.261118,0.288777,0,0,196,156,40,0,0,0,0,0,0,0.202144,0.261118,0.288777,0,0,196,156,40,0,0,0,0,0,0;
#CHARTNAME:Daff_4K;
#CHARTSTYLE:;
#CREDIT:Daff_4K;
#NOTES:
0000
0000
0000
0000
,
0000
0000
0000
0000
,
0000
0000
0000
0000
,
1001
0000
0010
0000
,
1001
0000
0100
0000
,
1000
1000
1000
0000
,
0001
0001
0001
0000
,
0110
0000
1000
0000
,
0110
0000
0001
0000
,
0010
0010
0010
0000
,
0100
0100
0100
0000
,
1000
0000
0000
0000
,
0001
0000
0000
0000
,
0100
0000
0010
0000
,
1000
1000
1000
0000
,
0100
0000
0010
0000
,
0001
0001
0001
0000
,
1000
0000
0010
0000
,
0100
0000
0001
0000
,
0010
0000
0100
0000
,
0110
0000
1001
0000
,
0010
0010
0010
0000
,
0100
0000
0001
0000
,
1000
0000
0001
0000
,
1001
0000
0110
0000
,
0100
0100
0100
0000
,
1000
0000
0001
0000
,
1001
0000
1000
0000
,
0010
0000
0001
0000
,
0010
0000
1000
0000
,
0100
0000
0010
0000
,
0001
0000
0001
0000
,
1000
0000
1000
0000
,
0010
0000
0100
0000
,
0110
0000
0000
0000
,
1001
0000
0000
0000
,
0001
0000
0010
0000
,
0100
0000
1000
0000
,
1001
0000
0000
0000
,
0000
0000
0000
0000
,
0010
0010
0010
0000
,
0100
0100
0100
0000
,
0110
0000
1001
0000
,
0100
0100
0000
0110
,
0000
1000
0000
0110
,
0000
0001
0000
0110
,
0000
0000
1001
1001
,
0000
0000
1001
0000
,
0100
0000
1001
0000
,
0110
0000
1001
0000
,
0010
0010
0010
0000
,
0110
0000
0001
0000
,
0110
0000
1000
0000
,
0110
0000
0000
1001
,
1001
0000
0000
1001
,
0000
0100
0000
1001
,
0000
0110
0000
1001
,
0000
0010
0010
0010
,
0000
1000
0000
0000
,
0000
0100
0000
0000
,
0000
0001
0000
0000
,
0000
0100
0000
0000
,
0000
1000
0000
1000
,
0000
0001
0000
0001
,
0000
0100
0100
0100
,
0100
0100
0000
0000
,
0001
0000
0010
0000
,
1000
0000
0010
0000
,
0001
0001
0001
0000
,
1000
1000
1000
0000
,
0110
0000
0001
0000
,
0110
0000
1000
0000
,
0100
0100
0100
0000
,
0110
0000
1001
0000
,
0110
0000
1001
0000
,
0010
0000
0010
0000
,
0100
0000
0100
0100
,
0000
1001
0000
0000
,
0000
0000
0000
0000
,
0000
0000
0000
0000
,
0000
0000
0000
0110
0000
0000
0000
0000
;

//--------------- dance-single - Daff_4K ----------------
#NOTEDATA:;
#STEPSTYPE:dance-single;
#DESCRIPTION:Daff_4K;
#DIFFICULTY:Easy;
#METER:8;
#RADARVALUES:0.347564,0.493223,0.440386,0.527019,0.064975,337,276,61,73,0,0,0,0,0,0.347564,0.493223,0.440386,0.527019,0.064975,337,276,61,73,0,0,0,0,0;
#CHARTNAME:Daff_4K;
#CHARTSTYLE:;
#CREDIT:Daff_4K;
#NOTES:
0000
0000
0000
0000
,
0000
0000
0000
0000
,
0000
0000
0000
0000
,
1001
0000
1010
0011
,
1001
0000
1100
0101
,
0001
0010
0100
0010
,
1000
0100
0001
1000
,
1001
0000
0011
1010
,
1001
0000
0101
1100
,
1000
0010
0100
0010
,
0001
0110
1001
0000
,
2000
0000
3200
0320
,
0032
0000
0203
0320
,
2030
0000
3002
0000
,
0023
2030
3200
0000
,
0302
0000
2003
0000
,
3200
0302
2003
3020
,
0032
0000
2003
0000
,
3020
0032
0203
0000
,
2300
0000
3002
0103
,
0220
0330
2002
3003
,
1100
0011
1001
0000
,
1000
0000
0010
0000
0100
0010
0100
0000
,
0002
0013
2000
3010
,
0220
0330
2002
3003
,
0101
1010
1001
0000
,
0001
0000
1000
0001
1000
0000
0010
0000
,
0210
0000
0301
0010
,
0210
0000
1300
0010
,
1000
0100
0001
0100
,
1000
0000
0001
0000
0100
0010
0100
0000
,
0002
0013
2000
3010
,
0002
0103
2000
3100
,
0001
0010
0100
1000
,
0220
0000
0000
0330
,
2002
0000
0000
3003
,
2000
3020
0230
0302
,
0023
0230
2300
3001
,
2002
0000
0000
0000
,
0000
0000
0000
3003
,
0201
1000
0301
1001
,
1200
0001
1300
1001
,
0011
1100
1010
0101
,
0001
0000
0010
0000
0100
0000
1000
0000
1001
0000
0000
0000
0001
0000
0000
0100
,
0000
0000
0000
0000
1000
0000
0010
0000
0001
0000
0000
0000
1000
0000
0000
0010
,
0000
0000
0000
0000
0001
0000
0100
0000
1000
0000
0000
0000
0010
0000
0000
0100
,
0000
0000
0000
0000
0000
0001
0000
1000
0000
0000
0100
0000
0010
0000
0001
0000
,
0000
1000
0000
1001
0000
0000
0000
0000
0001
0000
0000
0010
0000
0000
0000
0000
,
1000
0000
0100
0000
0001
0000
0000
0000
0010
0000
0000
0100
0000
0000
1000
0000
,
0001
0110
1000
0110
,
0001
1000
0110
1001
,
1000
0000
0000
0100
0000
0000
0000
0000
0001
0000
0010
0000
1000
0000
0000
0000
,
0001
0000
0000
0010
0000
0000
0000
0000
1000
0000
0100
0000
0001
0000
0000
0000
,
0010
0000
0000
0100
0000
0000
0000
0000
0000
1000
0000
0001
0000
0000
0100
0000
,
0010
0000
1000
0000
0000
0001
0000
1001
0000
0000
0000
0000
1000
0000
0000
0010
,
0000
0000
0000
0000
0001
0000
0100
0000
1000
0000
0000
0000
0010
0000
0000
0100
,
0000
0001
1000
0000
0110
0000
0001
0000
,
0110
1000
0001
0110
,
1001
0001
0100
0020
,
0100
1030
0100
0020
,
0100
0031
1000
0020
,
0100
0000
1030
0000
0001
0000
0010
0100
,
0010
0000
0001
0000
0100
0000
0010
1000
,
0010
0000
1000
0000
0100
0000
0010
0001
,
0010
0002
0203
0320
,
1030
1001
0000
0000
,
0002
0010
1000
0010
,
2003
0010
0001
0010
,
3001
1000
0100
0010
,
0001
1000
0010
0100
,
0110
0000
1010
1001
,
0110
0000
0011
1001
,
1000
0010
0001
0010
,
0220
0330
2002
3003
,
0220
0330
2002
3003
,
1000
0001
0010
0100
,
1000
0000
0001
0000
0100
0010
0100
0010
,
0100
2002
0000
0000
,
0000
0000
0000
0000
,
0000
0000
3003
0000
,
0000
0000
0000
0110
0000
0000
0000
0000
;

//--------------- dance-single - Daff_4K ----------------
#NOTEDATA:;
#STEPSTYPE:dance-single;
#DESCRIPTION:Daff_4K;
#DIFFICULTY:Medium;
#METER:12;
#RADARVALUES:0.577555,0.638288,0.693066,0.411508,0.241851,560,464,96,57,0,0,0,0,0,0.577555,0.638288,0.693066,0.411508,0.241851,560,464,96,57,0,0,0,0,0;
#CHARTNAME:Daff_4K;
#CHARTSTYLE:;
#CREDIT:Daff_4K;
#NOTES:
0000
0000
0000
0000
,
0000
0000
0000
0000
,
0000
0000
0000
0000
,
1001
0000
0000
1000
0010
0000
0100
0000
0101
0000
0000
0000
1100
0000
0000
0000
,
1001
0000
0000
0001
0100
0000
0010
0000
1010
0000
0000
0000
0011
0000
0000
0000
,
0001
1000
0010
0100
0001
1000
0100
0010
,
0001
0001
1000
1000
0010
0100
0001
0000
,
1001
0000
0000
0001
0010
0000
0100
0000
1100
0000
0000
0000
0101
0000
0000
0000
,
1001
0000
0000
1000
0100
0000
0010
0000
0011
0000
0000
0000
1010
0000
0000
0000
,
1000
0001
0010
0100
1000
0001
0100
0010
,
0110
1001
0220
0330
,
2001
0000
3010
0100
0002
0000
0013
0000
,
1002
0000
0013
0100
2000
0000
3010
0000
,
1002
0000
0000
0000
0013
0000
0000
0010
0200
0000
0000
0000
1300
0000
0000
1000
,
0002
0103
2020
3030
,
1002
0000
0000
0000
0013
0000
0000
0010
0200
0000
0000
0000
1300
0000
0000
1000
,
0020
0000
0000
0000
0130
0000
0000
0100
0002
0000
0000
0000
1003
0000
0000
0000
,
2001
0000
0000
0000
3010
0000
0000
0010
0200
0000
0000
0000
0301
0000
0000
0001
,
2000
3200
0320
0032
,
2003
0000
0000
0000
3010
0000
0000
0010
0200
0000
0000
0000
0301
0000
0000
0000
,
0021
1030
1200
0301
,
1001
0110
2002
3003
,
1010
0000
0101
0000
0001
0010
0100
1000
,
0020
0230
0302
1003
,
1020
0031
0201
1300
,
0010
1001
0110
1001
,
1100
0000
0000
0000
0011
0000
0000
0001
1000
0000
0000
0000
0110
0000
0000
0000
,
1002
0000
0013
1000
0020
0000
0130
0000
,
2001
0000
3010
0001
0020
0000
0130
0000
,
0001
0010
0001
0000
1000
0010
1000
0000
,
0100
0010
0001
0100
0010
1000
0001
0000
,
0021
0000
0130
1000
0020
0000
0130
0001
,
0011
0000
1100
0000
1000
0010
0100
0001
,
0010
0000
0000
0010
0100
0000
0000
0100
1000
0000
0000
1000
0001
0000
0000
0000
,
0201
1000
0001
0310
,
1200
0001
1000
0310
,
1001
0000
1000
0100
0010
0001
0100
0010
,
1000
0001
0100
0010
1000
0100
0010
0001
,
2001
0000
3020
0000
0130
0001
2000
0000
,
3002
0000
0023
0000
0130
1000
0010
0100
,
0001
0000
0000
0001
0010
0000
0000
0010
1000
0000
0000
1000
0100
0000
0001
0000
,
1000
0000
0000
1000
0010
0000
0000
0010
0001
0000
0000
0001
0100
0000
1000
0000
,
0010
0100
0001
1000
0100
0010
0001
1000
,
0010
0100
0010
0100
0010
0100
0010
0000
1001
0000
0000
0000
0011
0000
0000
1100
,
0000
0000
1000
0000
0010
0000
0001
0000
0010
0000
1000
0000
1100
0000
0000
0011
,
0000
0000
0001
0000
0100
0000
1000
0000
0001
0000
0010
0000
1010
0000
0000
0101
,
0000
0000
1001
0000
0000
1000
0000
0100
0000
0000
0001
0000
1000
0000
0010
0000
,
0001
0000
1000
0000
1001
0000
0000
0000
0101
0000
0000
1010
0000
0000
1000
0000
,
0100
0000
0001
0000
0100
0000
0010
0000
0110
0000
0000
1001
0000
0000
0001
0000
,
2000
0000
0000
0000
3010
0000
0000
0010
0002
0000
0000
0000
0103
0000
0000
0100
,
1000
0000
0000
0000
0110
0000
0000
0000
1001
0000
0010
0100
0010
0000
0000
0000
,
1010
0000
0000
0101
0000
0000
0001
0000
0010
0000
1000
0000
0010
0000
0001
0000
,
0101
0000
0000
1010
0000
0000
1000
0000
0100
0000
0001
0000
1000
0000
0010
0000
,
0011
0000
0000
1100
0000
0000
1001
0000
0000
0001
0000
0100
0000
0000
1000
0000
,
0001
0000
0010
0000
1000
0001
0000
1001
0000
0000
0000
0000
1100
0000
0000
0011
,
0000
0000
0001
0000
0100
0000
1000
0000
0100
0000
0010
0000
0110
0000
0000
1001
,
0000
0000
1000
0000
0002
0000
0000
0000
0013
0000
0000
0010
2000
0000
0000
0000
,
3100
0000
0000
0100
0001
0000
0000
0000
0110
0000
0000
0000
1001
0000
0010
0100
,
0010
0000
0001
0100
0010
0100
2000
0000
,
3200
0000
0301
0010
0100
1000
0020
0000
,
0130
0001
1000
0100
0010
0100
0002
0000
,
0203
0000
1300
0010
0100
0001
0010
0100
,
2000
0000
3010
0100
0010
0001
0010
1000
,
0001
0001
0010
0100
0010
1000
0010
0001
,
1000
1010
0011
0101
,
1100
0000
0000
0000
1001
0000
0000
0000
0001
0000
0100
0000
0010
0100
0010
0000
,
1000
0000
0000
1000
0100
0000
0001
0000
0100
0000
0000
0000
0110
0000
0000
0000
,
1001
0000
0000
0001
0100
0000
1000
0000
0100
0000
0000
0000
0110
0000
0000
0000
,
1001
0000
0000
1000
0100
0000
0010
0000
0001
0000
0000
0001
0100
0000
0010
0000
,
1000
0000
0000
1000
0001
0000
0000
0001
0010
0000
0100
0000
1000
0000
0001
0000
,
1001
0000
0000
1000
0010
0000
0001
0000
0011
0000
0000
0000
1010
0000
0000
0000
,
1001
0000
0000
0001
0010
0000
1000
0000
1010
0000
0000
0000
0011
0000
0000
0000
,
0001
0010
0100
0010
1000
0010
0100
0010
,
0011
0000
0000
0001
0100
0000
0000
0000
1010
0000
0000
1000
0100
0000
0000
0000
,
0011
0000
0000
0001
1000
0000
0000
0000
1010
0000
0000
1000
0001
0000
0000
0001
,
0010
0000
0000
0010
1000
0000
0000
1000
0100
0000
0000
0100
0001
0000
0000
0001
,
1000
0000
0000
1000
0100
0000
0000
0100
0010
0000
0001
0000
1000
0000
0010
0000
,
0110
2002
0000
0000
,
0000
0000
0000
0000
,
0000
0000
0000
3003
0000
1000
0010
0100
,
0001
0010
0100
1001
0000
0000
0000
0000
;

//--------------- dance-single - Daff_4K ----------------
#NOTEDATA:;
#STEPSTYPE:dance-single;
#DESCRIPTION:Daff_4K;
#DIFFICULTY:Hard;
#METER:16;
#RADARVALUES:0.770417,0.957432,0.758041,0.844674,0.613652,747,642,105,117,0,0,0,0,0,0.770417,0.957432,0.758041,0.844674,0.613652,747,642,105,117,0,0,0,0,0;
#CHARTNAME:Daff_4K;
#CHARTSTYLE:;
#CREDIT:Daff_4K;
#NOTES:
0000
0000
0000
0000
,
0000
0000
0000
0000
,
0000
0000
0000
0000
,
1001
0000
1000
0010
0100
0000
0001
0000
0022
0000
0033
0000
2200
0000
3300
0000
,
1001
0000
0001
0100
0010
0000
1000
0000
2200
0000
3300
0000
0022
0000
0033
0000
,
0001
0100
0001
0000
1000
0000
0001
0000
0010
0100
0010
0000
1000
0000
0010
0000
,
0001
0100
1000
0100
0001
0010
0110
0000
,
1001
0000
0001
0010
0100
0000
1000
0000
2020
0000
3030
0000
0202
0000
0303
0000
,
1001
0000
1000
0100
0010
0000
0001
0000
0202
0000
0303
0000
2020
0000
3030
0000
,
1000
0100
1000
0000
0001
0000
1000
0000
0010
0100
0010
0000
0001
0000
0010
0000
,
1000
0001
0220
0330
2002
0000
3003
0000
,
2001
0000
0000
0000
3100
0000
0010
0100
0020
0000
0000
0000
0031
0000
0000
0000
,
1002
0000
0000
0000
0103
0000
0010
0100
0020
0000
0000
0000
1030
0000
0000
0000
,
1002
0000
0000
0000
0013
0000
0000
0100
2000
0000
0000
0000
3010
0000
0000
0100
,
0002
0013
1100
1001
,
0201
0000
0000
0000
0310
0000
0000
0010
2000
0000
0000
0000
3001
0000
0000
0001
,
0010
0000
0000
0100
1000
0000
0000
0000
1010
0000
0000
0000
0101
0000
0000
0000
,
2001
0000
0000
0000
3010
0000
0000
0100
0002
0000
0000
0000
0013
0000
0000
0100
,
2000
3010
0101
1001
,
1200
0000
0000
0000
0310
0000
0000
0010
0002
0000
0000
0000
1003
0000
0000
0000
,
1020
0000
0000
0000
0031
0000
0000
0001
0200
0000
0000
0000
1300
0000
0000
1000
,
0010
0000
0000
0000
0110
0000
0000
0000
1001
0000
0001
0000
0010
0000
0100
0010
,
0200
0000
0000
0000
1300
0000
0001
1000
0001
0000
0100
0000
0010
0000
1000
0000
,
0100
0001
1000
0010
0001
1000
0100
0010
,
0021
0000
0000
0000
1030
0000
0000
1000
0200
0000
0000
0000
0301
0000
0000
0001
,
0010
0000
0000
0000
0110
0000
0000
0000
1001
0000
0000
1000
0010
0000
0100
0000
,
0001
0000
0000
0001
0010
0000
0100
0010
0100
0000
1000
0000
0001
0000
0000
0000
,
2001
0000
0000
0000
3010
0000
0100
0001
0100
0000
0000
0000
0110
0000
0000
0000
,
1002
0000
0000
0000
0013
0000
0100
1000
0100
0000
0000
0000
0110
0000
0000
0000
,
2001
0000
0000
0000
3010
0000
0100
0010
0100
0000
0001
0000
0010
0000
0100
0000
,
1000
0000
0010
0100
0010
0100
0001
1000
0001
0000
0010
0000
0100
0000
0000
0000
,
2100
0000
0000
0000
3010
0000
0000
0100
0002
0000
0000
0000
0013
0000
0000
0100
,
2000
0000
0000
0000
3001
0000
0100
0010
0100
0000
0010
0000
0110
0000
1001
0000
,
1000
0100
1000
0000
0001
0100
0001
0000
1000
0010
1000
0000
0001
0010
0001
0000
,
0101
0000
0000
0100
1000
0000
0000
1000
0010
0000
0000
0010
0001
0000
0000
0000
,
1100
0000
0000
0100
0001
0000
0000
0001
0010
0000
0000
0010
1000
0000
0000
0000
,
1001
0000
0001
0010
0001
0000
1000
0010
1000
0000
0001
0100
0001
0000
1000
0100
,
1000
0000
0010
0100
0010
0000
1000
0100
1000
0000
0001
0100
0001
0000
1000
0000
,
1002
0000
0000
0000
0010
0000
1000
0000
0203
0000
1000
0000
0310
0000
1000
0001
,
2000
0000
0000
0000
0010
0000
0001
0000
3200
0000
0001
0000
0310
0000
0001
1000
,
0001
0000
0001
0100
0010
0000
0010
1000
0100
0000
0100
0010
0001
0000
1001
0000
,
1000
0000
1000
0100
0010
0000
0010
0001
0100
0000
0100
0010
1000
0000
1001
0000
,
0101
0010
1100
0010
0011
0100
1010
0100
,
0001
1000
0001
1000
0001
1000
0001
2000
0002
0000
3003
0000
2200
0000
3300
0022
,
0000
0033
1001
0000
1000
0010
0100
0000
0010
1000
0001
0000
0022
0000
0033
2200
,
0000
0000
0000
3300
0000
0000
1001
0000
0000
0000
0000
0000
0001
0000
0000
0000
0100
0000
0010
0000
0000
0000
0000
0000
1000
0000
0000
0000
0100
0000
0010
0000
0000
0000
0000
0000
0220
0000
0000
0000
0000
0000
0330
0000
0000
2002
0000
0000
,
0000
3003
0101
0000
0000
0011
0000
1100
0000
0000
1010
0000
1001
0000
0001
0010
,
0100
1000
0001
0000
2002
0000
3003
0000
2020
0000
3030
0202
0000
0303
1001
0000
,
1000
0100
0010
0000
0100
0010
0001
0000
0202
0000
0303
2020
0000
3030
0110
0000
,
2001
0000
0000
0000
3100
0000
0000
0010
0002
0000
0000
0000
1003
0000
0000
1000
,
0001
0000
0101
0000
1000
0000
1100
0000
0010
0000
0001
2000
0002
0000
3003
0000
,
0202
0000
0303
2020
0000
3030
1001
0000
0001
0010
0100
0000
0010
0001
1000
0000
,
2020
0000
0000
0000
0000
0000
3030
0000
0000
0202
0000
0000
0000
0000
0000
0303
0000
0000
1001
0000
0000
0000
0000
0000
1000
0000
0000
0001
0000
0000
1000
0000
0000
0001
0000
0000
0100
0000
0010
0000
0100
0000
0010
0000
0000
0000
0000
0000
,
0220
0000
0330
2002
0000
3003
1100
0000
0000
1010
0000
0101
0000
0000
0011
0000
,
1001
0000
1000
0010
0100
0001
2000
0002
0000
0000
3003
0000
0022
0000
0033
2200
,
0000
3300
1001
0000
0001
0100
0010
0000
0100
0010
1000
0000
2200
0000
3300
0022
,
0000
0033
0110
0000
1002
0000
0000
0000
0103
0000
0000
0010
2000
0000
0000
0000
,
3001
0000
0000
0001
1000
0000
1100
0000
0001
0000
0101
0000
0010
0000
1000
0002
,
2000
0000
3003
0000
0001
0000
0010
0100
0010
0000
0001
0000
0200
0000
0000
0000
,
2300
0000
0000
0000
3001
0000
0010
0100
0010
0000
1000
0000
0002
0000
0000
0000
,
0013
0000
0100
0000
1000
0000
0010
0100
0010
0000
1000
0000
0200
0000
0000
0000
,
0302
0000
0000
0000
1003
0000
0010
0100
0010
0000
0001
0000
1000
0000
0010
0000
,
0100
0000
0001
0000
1000
0000
0100
0010
0100
0000
1000
0000
0010
0000
0010
0000
,
0100
0000
0100
0000
0001
0000
0010
0100
0010
0000
0001
0000
0100
0000
0010
0000
,
2000
0000
0000
0000
3001
0010
0000
0000
0010
1000
0000
0000
1000
0100
0000
0000
,
0100
0001
0000
0000
1001
0000
0000
0000
1000
0000
0001
0000
0100
0010
0100
0000
,
0001
0000
0000
1000
0000
0000
0010
0000
0000
0100
0000
0010
0100
0000
0000
0001
0000
0000
0010
0000
0000
0100
0000
0000
,
1000
0000
0000
0001
0000
0000
0010
0000
0000
0100
0000
0010
0100
0000
0000
1000
0000
0000
0010
0000
0000
0100
0000
0000
,
0001
0000
1000
0001
1000
0010
0100
0010
1000
0000
0001
1000
0001
0010
0100
0010
,
0001
0100
0010
0000
1000
0100
0010
0000
0001
0100
0001
1000
0100
1000
0001
0000
,
1001
0000
1000
0010
0001
0000
0010
0000
2020
0000
3030
0000
0202
0000
0303
0000
,
1001
0000
0001
0010
1000
0000
0010
0000
0022
0000
0033
0000
2200
0000
3300
0000
,
1000
0010
1000
0000
0001
0000
0100
0000
0001
0010
0001
0000
1000
0000
0100
0000
,
1000
0010
1000
0000
0001
0010
0001
0000
1000
0100
1000
0000
0001
0100
0001
0000
,
1000
0010
0100
0000
0001
0010
0100
0000
1000
0100
0010
0000
0001
0100
0010
0000
,
1000
0100
0000
0000
0100
0001
0000
0000
0001
0010
0000
0000
0010
1000
0000
0000
,
1000
0001
0000
0000
0001
0010
0000
0000
0010
0000
0100
0000
1000
0000
0001
0000
,
1001
0000
0000
0000
1000
0001
1000
0001
1000
0001
1000
0001
1000
0001
1000
0001
,
1000
0001
1000
0001
1000
0001
1000
0001
1000
0001
1000
0001
1000
0001
1000
0001
,
1000
0001
1000
0001
1000
0001
1000
0001
1000
0001
1000
0010
0100
0010
1000
0001
,
0010
0100
0010
0001
1000
0000
1001
0000
0000
0000
0000
0000
0000
0000
0000
0000
;

//--------------- dance-single - Daff_4K ----------------
#NOTEDATA:;
#STEPSTYPE:dance-single;
#DESCRIPTION:Daff_4K;
#DIFFICULTY:Challenge;
#METER:18;
#RADARVALUES:0.916868,0.986446,0.599213,1.054037,1.046818,889,806,83,146,0,0,0,0,0,0.916868,0.986446,0.599213,1.054037,1.046818,889,806,83,146,0,0,0,0,0;
#CHARTNAME:Daff_4K;
#CHARTSTYLE:;
#CREDIT:Daff_4K;
#NOTES:
0000
0000
0000
0000
,
0000
0000
0000
0000
,
0000
0000
0000
0000
,
1001
0000
1000
0010
0100
0001
1000
0200
0002
0000
0303
0000
0220
0000
0330
0000
,
1001
0000
0001
0100
0010
1000
0001
0020
2000
0000
3030
0000
0220
0000
0330
0000
,
0001
0100
0010
0100
0001
0000
1000
0000
0100
0010
0001
0010
0100
0000
1000
0000
,
0001
0100
0010
0000
1000
0100
0010
0000
0110
0000
1001
0000
0100
0010
0100
0000
,
1001
0000
0001
0010
0100
1000
0001
0200
2000
0000
3300
0000
0220
0000
0330
0000
,
1001
0000
1000
0100
0010
0001
1000
0020
0002
0000
0033
0000
0220
0000
0330
0000
,
1000
0100
0010
0100
1000
0000
0001
0000
0100
0010
1000
0010
0100
0000
0001
0010
,
0001
0000
1000
0010
1000
0000
0100
0010
0100
0000
1000
0000
0001
0000
0100
0000
,
0120
0000
0000
0000
1030
0000
0001
0010
0200
0000
0000
0000
1300
0000
0000
0000
,
0120
0000
0000
0000
0031
0000
1000
0010
0200
0000
0000
0000
0301
0000
0000
0000
,
2001
0000
0000
0000
3200
0000
0000
0301
2000
0000
0000
0000
3020
0000
0000
0031
,
0200
0000
0000
0310
2000
0000
0000
3100
0020
0000
0000
0000
0031
0000
0000
0000
,
1002
0000
0000
0000
0203
0000
0000
0310
2000
0000
0000
0000
3200
0000
0000
0301
,
2000
0000
0000
0000
0000
0000
0000
0000
0000
0000
0000
0000
3020
0000
0000
0000
0000
0000
0000
0000
0000
0031
0000
0000
0200
0000
0000
0000
0000
0000
0000
0000
0000
0310
0000
0000
1000
0000
0000
0000
0100
0000
0000
0000
0010
0000
0000
0000
,
0002
0000
0000
0000
0203
0000
0000
1300
0002
0000
0000
0000
0023
0000
0000
1030
,
0200
0000
0000
0310
0002
0000
0000
0103
0020
0000
0000
0000
1030
0000
0000
0000
,
2001
0000
0000
0000
3200
0000
0000
0310
0002
0000
0000
0000
1003
0000
0000
0000
,
1020
0000
0000
0000
0031
0000
0010
1000
0200
0000
0000
0000
0301
0000
0100
1000
,
0020
0000
0000
0000
0130
0001
1000
0001
0010
0000
1000
0000
0100
0000
0001
0000
,
2001
0000
0000
0000
3100
0000
0001
0100
1000
0000
0010
0000
0100
0000
0001
0000
,
0010
0100
1000
0000
0010
0100
0001
0000
0010
0100
0010
0100
1000
0000
0001
0000
,
0021
0000
0000
0000
1030
0000
0010
0001
0100
0000
1000
0000
0001
0000
0010
0000
,
1000
0001
0110
1000
0110
0001
1000
0010
,
0100
0000
0001
0010
0001
0000
1000
0010
1000
0000
0100
0000
0010
0000
0001
0000
,
0021
0000
0000
0000
1030
0010
0100
0010
0001
0000
0100
0000
0101
0000
0000
0000
,
1020
0000
0000
0000
0031
0010
0100
0010
1000
0000
0100
0000
1100
0000
0000
0000
,
1001
0000
0000
0000
0001
0100
0001
0000
1000
0100
1000
0000
0010
0000
0100
0000
,
0001
0000
0010
0100
0010
0100
1000
0001
1000
0000
0010
0000
0110
0000
0000
0000
,
0102
0000
0000
0000
0013
0100
0010
0100
2000
0000
0000
0000
3010
0100
0010
0100
,
0002
0000
0000
0000
1003
0001
1000
0001
0010
0000
0110
0000
1100
0000
1001
0000
,
0001
0100
0001
0000
1000
0100
1000
0000
0010
0100
0010
1000
0001
1000
0001
0000
,
2001
0000
0000
0100
3200
0000
0000
0010
0320
0000
0000
0001
0031
0000
0000
0000
,
1002
0000
0000
0100
0203
0000
0000
0010
0320
0000
0000
1000
1030
0000
0000
0000
,
1001
0000
0001
0010
0001
0000
1000
0010
1000
0000
0001
0100
0001
0000
1000
0100
,
1000
0000
0001
0010
0001
1000
0010
1000
0100
0010
0001
0100
0010
1000
0001
1000
,
1002
0000
0000
0100
0000
0000
0023
0000
0000
1000
0000
0000
0230
0000
0000
0001
0000
0000
2300
0000
0000
3010
0100
0001
,
2000
0000
0100
0000
3020
0000
0001
0000
0230
0000
1000
0000
0301
0010
0100
1000
,
0001
0100
0010
0001
0010
0100
0001
0010
0100
0001
0100
0010
0001
0000
0110
0000
,
1000
0100
0010
1000
0010
0100
1000
0010
0100
1000
0100
0010
1000
0000
0110
0000
,
0001
0010
1000
0010
0001
1000
0010
0001
0010
1000
0100
0010
0001
0100
0010
1000
,
0100
0010
0100
0010
0100
0010
0100
0010
2002
0000
3003
0000
2020
0000
3030
0202
,
0000
0303
1001
0000
1000
0100
0001
0100
1000
0010
0001
0000
0022
0000
0033
2020
,
0000
0000
0000
3030
0000
0000
1001
0000
0000
0000
0000
0000
0001
0000
0000
0000
0010
0000
0100
0000
0000
0000
1000
0000
0010
0000
0000
0000
0100
0000
0001
0000
0000
0000
0000
0000
0202
0000
0000
0000
0000
0000
0303
0000
0000
2020
0000
0000
,
0000
3030
1001
0000
0001
1000
0000
0110
0000
0001
1000
0000
1001
0000
0001
0100
,
1000
0000
0000
0000
0001
0000
0000
0000
0010
0000
0000
0000
1000
0000
0000
0000
0002
0003
0000
0000
0000
0020
0030
0200
0300
0000
0000
0000
2000
3000
0000
0000
0220
0000
0000
0000
0000
0000
0000
0000
0330
0000
0000
0000
2002
0000
0000
0000
0000
0000
0000
0000
3003
0000
0000
0000
0001
0000
0000
0000
0100
0000
0010
0000
,
0100
0001
1000
0100
0001
0100
1000
0000
2020
0000
3030
0022
0000
0033
0110
0000
,
2001
0000
0000
3100
0010
0000
0010
0001
0200
0000
0000
0310
1000
0000
1000
0100
,
0010
0000
0001
0100
0010
0000
1000
0001
1000
0001
0010
0100
2002
0000
3003
0000
,
0022
0000
0033
2200
0000
3300
1001
0000
0001
0100
1000
0100
0001
0010
1000
0000
,
2020
0000
0000
0000
0000
0000
3030
0000
0000
0022
0000
0000
0000
0000
0000
0033
0000
0000
1001
0000
0000
0000
0000
0000
1000
0000
0000
0001
0000
0000
0100
0000
0010
0000
0100
0000
0001
0000
1000
0000
0001
0000
1000
0000
0000
0000
0000
0000
,
2200
0000
3300
0022
0000
0033
1001
0000
1000
0001
0000
0110
0000
1000
0001
0000
,
1001
0000
0000
0000
0000
0000
0000
0000
1000
0000
0000
0000
0100
0000
0000
0000
0001
0000
0000
0000
1000
0000
0000
0000
0010
0000
0000
0000
0002
0003
0200
0300
0002
0003
0200
0300
0020
0030
2000
3000
0020
0030
2000
3000
0200
0000
0000
0000
0020
0000
0000
0000
0000
0000
0000
0000
0330
0000
0000
0000
2002
0000
0000
0000
,
0000
0000
3003
0000
1000
0000
0100
0010
0100
0000
1000
0000
0001
0000
0100
0000
1000
0000
0100
0000
0001
0000
0000
0000
0022
0000
0000
0000
0033
0000
2020
0000
,
0000
3030
0110
0000
1002
0000
0000
0103
0010
0000
0010
1000
0200
0000
0000
0310
,
0001
0000
0001
0100
0010
0000
1000
0100
0010
0000
0001
1000
0001
1000
0010
0100
,
2002
0000
3003
0000
1000
0000
0100
0010
0100
1000
0001
1000
0020
0000
0000
0000
,
0230
0000
0001
0000
0301
0000
1000
0001
1000
0100
0010
0001
2000
0000
0010
0000
,
3010
0000
0100
0000
0001
0000
0100
0010
0100
0001
1000
0001
0020
0000
0000
0000
,
0230
0000
1000
0000
1300
0000
0001
1000
0001
0100
0010
1000
0001
0010
0100
0010
,
0001
0000
0100
0000
0010
0000
1000
0001
1000
0100
0010
0100
0020
0000
0001
0000
,
0032
0000
1000
0000
1003
0000
0001
1000
0001
0100
0010
0100
0020
0000
1000
0000
,
2030
0000
0001
0000
3001
0010
0001
0000
1000
0010
1000
0000
0001
0100
0001
0000
,
1000
0100
1000
0000
1001
0000
0000
0000
0001
0000
1000
0000
0100
0010
0100
0000
,
1000
0000
0000
0001
0000
0000
0010
0000
0100
0010
0000
1000
0010
0000
0000
0001
0000
0100
0010
0000
0000
0010
0000
1000
,
0001
0000
0000
1000
0000
0000
0010
0000
0100
0010
0000
0001
0010
0000
0000
1000
0000
0100
0010
0000
0000
0010
0000
0001
,
1000
0000
0010
0100
0010
1000
0100
0010
0001
0000
0010
0100
0010
0001
0100
0010
,
1000
0100
0010
0000
0001
0100
0010
0000
1000
0100
1000
0001
0100
0001
1000
0000
,
1001
0000
0001
0010
1000
0010
0001
0200
2000
0000
3300
0000
0220
0000
0330
0000
,
1001
0000
1000
0010
0001
0010
1000
0200
0002
0000
0303
0000
0220
0000
0330
0000
,
0001
0100
0010
0100
0001
0000
1000
0001
1000
0100
0010
0100
1000
0000
0001
1000
,
0010
0100
0010
0100
0000
0000
0001
0000
0000
1000
0000
0000
0100
0010
0100
0010
0000
0000
0001
0000
0000
1000
0000
0000
,
0001
0100
0001
0100
0000
0000
0010
1000
0010
1000
0000
0000
0100
0010
0100
0010
0000
0000
0001
1000
0001
1000
0000
0000
,
0001
0100
0001
0000
1000
0100
1000
0000
0001
0010
0001
0000
1000
0010
1000
0000
,
0001
0010
0100
0000
1000
0010
0100
0000
1001
0000
1001
0000
0110
0000
0110
0000
,
1001
0000
0000
0000
0001
0010
0001
0010
0100
1000
0100
1000
0010
1000
0010
0100
,
0001
0100
0001
1000
0100
1000
0100
0010
0001
0010
0001
0100
0001
0100
0010
1000
,
0010
0000
0000
1000
0000
0000
0100
0000
0000
0010
0000
0000
0100
0000
0000
0010
0000
0000
0001
0000
0000
1000
0000
0000
0001
0000
0000
1000
0000
0000
0010
0000
0100
0000
0010
0000
0100
0000
0000
0001
0000
0000
0010
0000
0000
0100
0000
0000
,
1000
0010
0100
0001
1000
0000
1001
0000
0000
0000
0000
0000
0000
0000
0000
0000
;
