#VERSION:0.83;
#TITLE:Finite;
#SUBTITLE:;
#ARTIST:sta;
#TITLETRANSLIT:;
#SUBTITLETRANSLIT:;
#ARTISTTRANSLIT:;
#GENRE:;
#ORIGIN:;
#CREDIT:;
#BANNER:finite.png;
#BACKGROUND:finite-bg.png;
#PREVIEWVID:;
#JACKET:Finite-jacket.png;
#CDIMAGE:;
#DISCIMAGE:;
#LYRICSPATH:;
#CDTITLE:;
#MUSIC:Finite.ogg;
#OFFSET:0.407000;
#SAMPLESTART:44.137379;
#SAMPLELENGTH:21.573000;
#SELECTABLE:YES;
#BPMS:0.000=178.000;
#STOPS:;
#DELAYS:;
#WARPS:;
#TIMESIGNATURES:0.000=4=4;
#TICKCOUNTS:0.000=4;
#COMBOS:0.000=1;
#SPEEDS:0.000=1.000=0.000=0;
#SCROLLS:0.000=1.000;
#FAKES:;
#LABELS:0.000=Song Start;
#BGCHANGES:0.000=finite-bg.png=1.000=0=0=1=====,
2.000=Finite.avi=1.000=0=0=0=StretchNoLoop====,
99999=-nosongbg-=1.000=0=0=0 // don't automatically add -songbackground-
;
#KEYSOUNDS:;
#ATTACKS:
;

//---------------dance-single - BLANK?----------------
#NOTEDATA:;
#CHARTNAME:;
#STEPSTYPE:dance-single;
#DESCRIPTION:BLANK?;
#CHARTSTYLE:;
#DIFFICULTY:Beginner;
#METER:8;
#RADARVALUES:0.288701,0.422038,0.087108,0.052265,0.008711,232.000000,222.000000,10.000000,6.000000,0.000000,0.000000,0.000000,0.000000,0.000000,0.288701,0.422038,0.087108,0.052265,0.008711,232.000000,222.000000,10.000000,6.000000,0.000000,0.000000,0.000000,0.000000,0.000000;
#CREDIT:;
#NOTES:
0000
0000
0000
0000
,
0000
0000
0000
0000
,
0000
0000
0000
0000
,
0000
0000
0000
0000
,
0000
0000
0000
0000
,
0000
0000
0000
0000
,
0000
0000
0000
0000
,
0000
0000
1000
0000
0000
1000
0000
0000
,
0000
0000
0010
0100
,
0000
0100
0001
1000
,
0000
1000
0100
0000
0010
0000
0001
0000
,
0000
0001
0100
0010
,
0000
0010
1000
0000
0001
0000
0010
0000
,
0000
0010
0001
0100
,
0000
0100
0001
0000
1000
0000
0100
0000
,
0000
0010
0000
1001
,
0000
1001
1000
0001
,
0000
0001
0100
0010
,
0000
0010
1000
0000
0100
0000
0010
0000
,
0000
0010
0100
1000
,
0000
1000
0001
0000
0100
0000
0010
0000
,
0000
0010
0001
0010
,
0000
0010
1000
0000
0100
0000
0010
0000
,
0000
0010
1000
0010
,
0001
0100
0010
1000
,
0001
0000
0000
0000
,
0000
0000
0000
0000
,
0001
0000
0000
0000
,
0000
0000
0000
0000
,
1000
0000
0000
0000
,
0000
0000
0000
0000
,
1000
0000
0000
0010
,
0000
0010
0000
0000
0010
0000
0010
0000
,
1000
0001
1000
0100
,
0001
0000
0100
0000
0000
0010
0001
0000
,
0001
1000
0001
0100
,
0010
0000
1000
0000
0000
0010
0100
0000
,
0001
0010
0100
1000
,
0100
0000
0010
0000
0000
0001
0010
0000
,
0001
0100
0010
0100
,
0001
1000
0001
0000
1000
0001
1000
0000
,
0220
0000
0000
0000
,
0330
0000
0000
0000
,
0001
0010
0100
1000
,
0100
0010
0001
0000
,
2002
0000
0000
0000
,
3003
0000
0000
0000
,
1000
0010
0100
0001
,
0100
0010
1000
1000
,
0001
0010
0000
0010
,
0001
0100
0010
1000
,
1000
0100
0000
0100
,
1000
1001
0000
0110
,
0001
0010
0000
0010
,
0001
0010
0100
1000
,
1000
0010
0000
1000
,
0010
0110
0000
0110
,
0000
0001
0000
0000
,
0000
0000
0000
0000
,
0000
0001
0000
0000
0000
0000
0000
0000
,
0000
0000
0000
0000
,
0000
1000
0000
0000
,
0000
0000
0000
0000
,
0000
1000
0000
0000
0000
0000
0000
0000
,
0010
1001
0110
0000
,
1000
0000
0010
0000
0000
0100
0001
0000
,
0010
0000
0010
0000
0001
1000
0001
0000
,
0100
0000
0010
0000
0000
1000
0001
0000
,
0010
0000
0100
0000
1000
0100
1000
0000
,
0010
0000
0100
0000
0000
1000
0100
0000
,
0001
0000
0010
0000
0100
0010
0100
0000
,
0010
0000
0001
0000
0000
1000
0001
0000
,
0100
0010
0100
0000
0001
1000
0001
0000
,
0010
0000
0001
0000
0000
0100
0001
0000
,
1000
0000
0010
0000
0100
0100
0001
0000
,
1000
0100
0010
0001
,
0010
0000
0100
0000
1000
0001
1000
0000
,
0000
0001
0100
0000
0010
0000
1000
0000
,
0001
0010
0200
0320
,
0030
0000
0000
0001
0000
0000
0001
0000
0000
1000
0000
0000
1000
0000
0000
0000
,
0010
0000
0100
0000
0001
1000
0001
0000
;

//---------------dance-single - BLANK??----------------
#NOTEDATA:;
#CHARTNAME:;
#STEPSTYPE:dance-single;
#DESCRIPTION:BLANK??;
#CHARTSTYLE:;
#DIFFICULTY:Easy;
#METER:11;
#RADARVALUES:0.450473,0.597888,0.235192,0.174216,0.130662,362.000000,335.000000,27.000000,20.000000,0.000000,0.000000,0.000000,0.000000,0.000000,0.450473,0.597888,0.235192,0.174216,0.130662,362.000000,335.000000,27.000000,20.000000,0.000000,0.000000,0.000000,0.000000,0.000000;
#CREDIT:;
#NOTES:
0000
0000
0000
0000
,
0000
0000
0000
0000
,
0000
0000
0000
0000
,
0000
0000
0000
0000
,
0000
0000
0000
0000
,
0000
0000
0000
0000
,
0000
0000
0000
0000
,
0000
0000
1000
0000
0010
0010
0000
0100
,
0001
0000
1001
0000
0001
0100
0001
0000
,
0010
0000
0000
0010
0000
0000
0010
0000
0000
0000
0100
0000
1000
0000
0000
0010
,
0000
0100
0001
0000
1000
0010
1000
0000
,
0100
0000
0000
0100
0000
0000
0100
0000
0000
0000
1000
0000
0010
0000
0000
0100
,
0000
0001
0010
0001
1000
0001
0100
0000
,
0001
0000
0000
0001
0000
0000
0001
0000
0000
0000
1000
0000
0100
0000
0000
0010
,
0000
0100
1000
0000
0001
1000
0010
0000
,
1000
0000
0000
1000
0000
0000
0100
0000
0000
0000
0010
0000
0001
0000
0000
0100
,
0000
0010
1000
0000
0001
0010
0100
0000
,
0001
0000
0000
0001
0000
0000
0001
0000
0000
0000
0100
0000
0010
0000
0000
0001
,
0000
1000
0001
0000
1000
0010
0100
0000
,
1000
0000
0000
1000
0000
0000
1000
0000
0000
0000
0100
0000
0010
0000
0000
1000
,
0000
0100
0010
0001
0100
0010
0100
0000
,
1000
0000
0000
0100
0000
0000
0001
0000
0000
0000
1000
0000
0100
0000
0000
0001
,
0000
0100
1000
0000
0010
0100
0010
0000
,
0001
0000
0000
0010
0000
0000
1000
0000
0000
0000
0100
0000
0000
0010
0000
0000
,
0001
0000
1000
0000
0010
0100
0001
0000
,
1001
0000
0000
0000
,
0000
0000
0000
0000
,
0000
0110
0000
0000
0000
0000
0000
0000
,
1000
1000
0001
0001
0010
0010
0100
0100
,
0000
1000
0000
0000
,
0000
0000
0000
0000
,
0000
0001
0000
0000
0000
0000
0100
0000
,
0010
0010
1000
0001
0010
0100
1000
0000
,
0010
0000
0101
0000
1000
0100
0010
0000
,
0100
0000
0000
0000
1000
0000
0000
0001
0000
0000
0100
0000
0010
0000
0000
0000
,
1000
0000
0011
1000
0001
0000
0100
0000
,
0001
0000
0000
0000
1000
0000
0000
0110
0000
0000
0001
0000
1000
0000
0000
0000
,
0001
0010
0100
0000
0001
0000
0101
0000
,
0100
0000
0000
0000
0010
0000
0000
1001
0000
0000
0001
0000
1000
0000
0000
0000
,
1000
0010
0100
0000
1000
0000
1100
0000
,
0100
0001
0010
0000
0100
1000
0010
0000
,
0220
0000
0000
0000
,
0000
0000
0330
0000
,
0001
1000
0100
0000
0100
0000
0010
0000
,
1000
0000
0001
0000
0100
0000
0000
0100
0000
0000
0000
0000
0010
0000
0001
0000
,
2002
0000
0000
3003
,
0220
0000
0000
0330
,
1000
0100
0010
0000
0001
0010
0100
0000
,
1000
0000
0000
0100
0000
0000
0001
0000
0000
0000
0000
0000
0100
0000
0000
0000
0100
0000
0000
0000
0100
0000
0000
0000
,
0010
1001
0010
1001
,
0001
0100
1000
0001
1000
0100
0001
0000
,
0100
1001
0100
1001
,
1000
0000
0100
0000
0010
0000
0000
0010
0000
0000
0001
0000
1000
0000
0000
0000
,
0002
0003
1100
0000
0002
0003
1010
0000
,
1000
0010
0001
1000
0001
0010
1000
0000
,
2000
0000
3000
0000
0011
0000
0000
0000
2000
0000
3000
0000
0101
0000
0000
1000
,
0000
0000
0001
0000
0100
0000
0000
0001
0000
0000
1000
0000
0100
0000
0000
0000
,
0220
0000
0000
0330
,
0000
0000
0000
0000
,
2002
0000
0000
3003
,
0000
0000
0000
0000
,
0022
0000
0000
0033
,
0000
0000
0000
0000
,
2200
0000
0000
3300
,
0001
0001
1000
1000
0010
0010
0100
0000
,
0001
0010
0100
0000
1000
0000
1000
0000
,
0100
0010
0100
0000
1000
0010
0100
0000
,
1000
0100
0001
0010
1000
0010
0001
0100
,
1000
0100
0010
1000
0100
0000
0011
0000
,
1000
0001
0100
0000
0010
0000
0010
0000
,
0001
0010
0100
0000
0010
1000
0001
0000
,
1000
0100
0010
0000
0100
0000
0100
0000
,
1000
0010
0001
0010
0100
0001
1000
1000
,
0001
0000
1010
0000
0001
1000
0100
0000
,
1000
0000
0011
0000
1000
0100
0001
0100
,
1000
0010
0001
1000
0100
0001
1000
0010
,
0001
1000
0100
0010
1000
0001
0100
0000
,
0001
0000
0010
0000
0001
0000
0000
0000
1000
0000
0000
0001
0000
0000
0100
0000
,
0000
0010
1000
0001
0020
0000
0230
0000
,
1300
0000
0000
1000
0000
0000
0001
0000
0000
0001
0000
0000
0100
0000
0000
0100
,
0000
0000
0010
0000
0000
0010
0000
0000
1000
0000
0001
0000
1000
0000
0000
0000
;

//---------------dance-single - BLANK???----------------
#NOTEDATA:;
#CHARTNAME:;
#STEPSTYPE:dance-single;
#DESCRIPTION:BLANK???;
#CHARTSTYLE:;
#DIFFICULTY:Medium;
#METER:13;
#RADARVALUES:0.543803,0.704486,0.200348,0.226481,0.335366,437.000000,414.000000,23.000000,26.000000,0.000000,0.000000,0.000000,0.000000,0.000000,0.543803,0.704486,0.200348,0.226481,0.335366,437.000000,414.000000,23.000000,26.000000,0.000000,0.000000,0.000000,0.000000,0.000000;
#CREDIT:;
#NOTES:
0000
0000
0000
0000
,
0000
0000
0000
0000
,
0000
0000
0000
0000
,
0000
0000
0000
0000
,
0000
0000
0000
0000
,
0000
0000
0000
0000
,
0000
0000
0000
0000
,
0000
0000
0000
0000
1000
0000
0000
0000
0010
0000
0100
0000
0000
0000
0001
1000
,
0001
0000
0110
0000
0001
0010
0100
0000
,
0001
0000
0000
0100
0000
0000
1000
0000
0000
0000
0010
0000
1000
0000
0000
1001
,
0000
1000
0010
0010
1000
0100
0010
0000
,
1000
0000
0000
0010
0000
0000
0001
0000
0000
0000
0100
0000
0001
0000
0000
1001
,
0000
0000
0001
0000
0010
0100
0010
0100
1000
0000
0010
0000
0100
0000
0000
0000
,
1000
0000
0000
0100
0000
0000
0001
0000
0000
0000
0010
0000
0001
0000
0000
1000
,
0000
0001
1001
0000
0001
0100
0010
0000
,
0001
0000
0000
0010
0000
0000
1000
0000
0000
1000
0000
0000
0110
0000
0001
0000
,
0000
0001
0000
0000
0110
0000
0000
0000
1000
0000
0001
0000
0100
0000
0000
0000
,
1000
0000
0000
0100
0000
0000
0010
0000
0000
0000
0100
0000
0001
0000
0000
0001
,
0000
0010
1001
0000
0001
1000
0010
0000
,
0001
0000
0000
0010
0000
0000
1000
0000
0000
0000
0100
0000
1000
0000
0000
1000
,
0000
0001
0000
0000
0010
0100
0010
0100
1000
0000
0001
0000
0010
0000
0000
0000
,
1000
0000
0000
0010
0000
0000
0001
0000
0000
0000
0100
0000
0001
0000
0000
0010
,
0000
0100
1001
0000
0001
1000
0100
0000
,
0001
0000
0000
0100
0000
0000
2000
0000
0001
0000
0000
0001
0000
0000
0001
0000
,
0000
3001
0000
0000
1000
0000
0100
0000
0010
0100
0010
0000
0001
1000
0001
0000
,
0220
0000
0000
0330
,
0000
0000
0000
0000
,
2002
0000
0000
3003
,
0000
0000
0000
0000
0000
0000
0000
0000
0000
0000
0000
0000
1000
0001
1000
0000
,
2002
0000
0000
3003
,
0000
0000
0000
0000
,
0000
0220
0000
0000
0000
0330
1000
0001
,
0010
0100
0010
0000
0001
1000
0001
0000
0100
0000
0010
0000
1000
0000
0100
0000
,
0001
0100
0001
0100
1000
0010
1000
0020
,
0000
0000
0130
0000
0001
0000
0000
1001
0000
0000
0001
0000
0010
0000
0100
0000
,
0010
1000
0010
1000
0002
0000
0103
0010
,
0001
0000
0000
0000
1000
0000
0010
0100
0000
0000
0001
0000
1000
0000
0001
0000
,
0100
0010
0100
0010
0100
1000
0100
1000
,
0100
0000
0010
0000
1000
0000
0001
1000
0000
0000
0100
0000
0010
0000
0001
0000
,
0010
0000
1000
0000
0010
0000
1000
0000
0010
0000
0001
0000
0010
0000
0001
1000
,
0001
0000
0100
0000
0000
0000
0100
0000
0000
0100
0000
0000
0001
1000
0001
0000
,
0010
0000
0000
0001
0000
0000
0100
0000
,
0000
1000
0000
0000
0000
0000
0010
0000
,
0001
1000
0001
0100
0010
0100
0001
0010
,
0100
0000
1000
0000
0010
0000
1000
0001
0000
0000
1000
0000
0100
0010
0001
0000
,
0100
0000
0000
1000
0000
0000
0010
0000
,
0000
0001
0000
0000
0000
0000
0100
0000
,
1000
0001
0010
1000
0010
0001
0100
1000
,
0100
0000
0000
0010
0000
0000
1000
0000
0000
0001
0000
0000
0010
0000
0000
0000
0010
0000
0000
0000
0010
0000
0000
0000
,
0001
0000
0000
0100
0000
0000
1000
0000
0000
0100
0000
0000
0001
0000
0000
1000
,
0100
0000
0000
0100
0000
0000
0100
0000
0010
0001
0010
0000
0100
1000
0100
0000
,
1000
0000
0000
0010
0000
0000
0001
0000
0000
0010
0000
0000
1000
0000
0000
0001
,
0010
0000
0100
0000
0010
0000
0000
0001
0000
0000
0100
0000
0010
1000
0001
0000
,
0001
0000
0000
0010
0000
0000
1000
0000
0000
0010
0000
0000
0001
0000
0000
1000
,
0100
0000
0000
0010
0000
0000
0001
0000
1000
0010
1000
0000
0001
0100
0001
0000
,
1000
0000
0000
0100
0000
0000
0001
0000
0000
0100
0000
0000
1000
0000
0000
0010
,
0000
0010
0000
0100
0001
0000
0000
0010
0000
0010
0000
0100
1000
0000
0001
2000
,
0002
0000
0000
0000
,
0000
0000
0000
3003
,
0220
0000
0000
0000
,
0000
0000
0000
0000
0000
0000
0000
0000
0330
0000
0000
0000
0001
1000
0001
2000
,
0002
0000
0000
0000
,
0000
0000
0000
3003
,
0000
0220
0000
0000
0000
0000
0330
0000
,
0002
0000
2003
0000
3000
0100
0110
0000
,
0001
0010
1000
0010
0001
0100
1000
0001
,
0010
0100
0010
1000
0100
0010
0001
1000
,
0010
0010
1000
1000
0001
0001
0100
0100
,
0010
1000
0100
0001
0100
1000
0010
0100
,
0002
0000
1000
0000
0013
0010
0100
0000
,
2000
0000
0000
0000
0001
0000
0000
3100
0000
0000
0100
0000
0010
0000
0000
0000
,
0002
0000
1000
0000
0103
0100
0010
0000
,
1000
0000
0001
0000
0010
0100
0010
0000
0001
0000
1000
0000
0010
0100
0010
0000
,
1000
0001
0100
1000
0001
0010
0001
0010
,
1000
0100
0010
0001
0010
1000
0010
0001
,
0100
0100
1000
1000
0100
0100
0001
0001
,
0010
1000
0010
0001
0100
1000
0100
0001
,
0000
0000
1000
0000
0100
0000
0000
0000
0010
0000
0000
0001
1000
0000
0100
0000
,
0000
0000
1000
0000
0010
0000
0000
0100
0002
0000
0000
0000
2003
0000
0000
0000
,
3010
0000
0000
0110
0000
0000
1010
0000
0000
0101
0000
0000
0011
0000
0000
1100
,
0000
0000
1001
0000
0000
1010
0000
0000
1000
0000
0100
0000
0010
0001
0010
0000
;

//---------------dance-single - BLANK????----------------
#NOTEDATA:;
#CHARTNAME:;
#STEPSTYPE:dance-single;
#DESCRIPTION:BLANK????;
#CHARTSTYLE:;
#DIFFICULTY:Hard;
#METER:15;
#RADARVALUES:0.655799,0.810785,0.078397,0.270035,0.587979,527.000000,518.000000,9.000000,31.000000,0.000000,0.000000,0.000000,0.000000,0.000000,0.655799,0.810785,0.078397,0.270035,0.587979,527.000000,518.000000,9.000000,31.000000,0.000000,0.000000,0.000000,0.000000,0.000000;
#CREDIT:;
#NOTES:
// measure 0
0000
0000
0000
0000
,  // measure 1
0000
0000
0000
0000
,  // measure 2
0000
0000
0000
0000
,  // measure 3
0000
0000
0000
0000
,  // measure 4
0000
0000
0000
0000
,  // measure 5
0000
0000
0000
0000
,  // measure 6
0000
0000
0000
0000
,  // measure 7
0000
0000
0000
0000
1000
0000
0000
0100
0010
0000
0010
0000
0001
0100
0001
1000
,  // measure 8
0010
0000
2002
3003
1000
0100
0010
0000
,  // measure 9
0100
0000
1000
0010
0000
1000
0010
0000
0000
0000
0100
0000
0001
0000
0000
0010
,  // measure 10
0000
0000
0100
0000
1000
0001
1000
0000
0001
0000
0100
0000
0010
0000
0000
0000
,  // measure 11
0100
0000
0001
0010
0000
0001
0010
0000
0000
0000
0100
0000
1000
0000
0000
0001
,  // measure 12
0000
0000
0100
0000
0010
1000
0010
1000
0001
0000
0010
0000
0100
0000
0000
0000
,  // measure 13
0010
0000
0001
0100
0000
0001
0100
0000
0000
0000
0010
0000
1000
0000
0000
0100
,  // measure 14
0000
0000
0010
0000
0100
1000
0100
0000
1000
0000
0010
0000
0100
0000
0000
0000
,  // measure 15
0010
0000
1000
0001
0000
0000
1000
0100
0000
0010
0001
0000
1000
0000
0001
0100
,  // measure 16
0000
0010
1000
0000
0001
0000
0000
0000
0010
0000
0100
0000
1000
0000
0000
0000
,  // measure 17
0100
0010
0000
0100
1000
0000
0010
0000
0100
0000
0001
0000
0010
0000
0000
0011
,  // measure 18
0000
0000
0001
0000
1000
0100
1000
0000
0010
0000
0100
0000
0001
0000
0000
0000
,  // measure 19
0010
0100
0000
0010
0001
0000
0100
0000
0001
0000
0010
0000
0100
0000
0000
1001
,  // measure 20
0000
1000
0000
0000
0010
0100
0010
0100
0001
0000
0100
0000
0010
0000
0000
0000
,  // measure 21
1000
0010
0000
0100
0001
0000
1000
0000
0000
0000
0001
0000
0100
0001
0000
1010
,  // measure 22
0000
1000
0100
0010
0000
0001
1000
0000
,  // measure 23
0001
0010
0000
0100
1000
0000
0001
0000
0010
0000
1000
0000
0000
0010
0000
0000
,  // measure 24
0001
0000
0000
0000
1000
0000
0001
0100
0010
0100
0001
0000
0001
0010
0100
1000
,  // measure 25
0000
0010
0000
0000
,  // measure 26
0000
0000
0000
0000
,  // measure 27
0000
0100
0000
0000
0000
0000
0000
0000
,  // measure 28
2000
0000
0000
0000
3200
0000
0000
0000
0320
0000
0000
0000
0031
1000
0001
1000
,  // measure 29
0000
1000
0000
0000
,  // measure 30
0000
0000
0000
0000
,  // measure 31
0000
0000
0001
0000
0000
0000
0000
0000
0000
0000
0000
0000
0100
0000
0001
1000
,  // measure 32
0100
0000
0100
0000
0010
0001
0010
0100
1000
0000
1000
0000
0100
0010
0001
0000
,  // measure 33
0100
1000
0100
0001
0010
0100
1000
0200
,  // measure 34
0000
0000
0310
0000
1000
0010
0000
0010
0000
0000
0001
0000
1000
0001
1000
0000
,  // measure 35
0001
0100
1000
0100
0020
0000
0031
0010
,  // measure 36
0200
0000
0000
0000
0301
0000
0010
0001
0000
0001
0010
0000
0100
0000
0001
0000
,  // measure 37
0100
1000
0010
0001
1000
0100
1000
0100
,  // measure 38
0001
0000
0010
0000
0100
0000
0001
0100
0000
0100
0010
0000
0001
0000
0000
0000
,  // measure 39
1000
0000
0001
0000
0100
0000
0010
0000
1000
0000
0010
0000
0100
0000
0010
1000
,  // measure 40
0000
1000
0000
0000
0110
0000
0100
0001
0000
0001
0000
0000
0110
0000
0000
0000
,  // measure 41
2000
0000
0000
3200
0000
0000
0302
0000
,  // measure 42
0000
0000
0023
0000
0000
0000
0000
0000
0030
0000
0000
0000
1000
0001
1000
0001
,  // measure 43
1000
0000
0010
0000
0001
0000
0010
0100
0010
0000
1000
0000
0001
0000
0100
0000
,  // measure 44
0001
0000
0010
0000
1000
0000
0010
0100
0010
0000
0001
0000
0010
0100
1000
0000
,  // measure 45
0002
0000
0000
0023
0000
0000
2030
0000
,  // measure 46
0000
0000
3200
0000
0000
0000
0000
0000
0300
0000
0000
0000
0001
1000
0001
1000
,  // measure 47
0001
0000
0100
0000
0010
0000
1000
0001
1000
0000
0100
0000
0010
0000
0001
0000
,  // measure 48
1000
0000
0000
0000
0000
0000
0010
0000
0000
0000
0000
0000
0100
0000
0000
0000
0000
0000
0001
0000
0000
0010
0000
0000
0001
0000
0000
0000
0000
0000
0000
0000
0001
0000
0000
0000
0000
0000
0000
0000
0001
0000
0000
0000
0000
0000
0000
0000
,  // measure 49
1000
0000
0100
1000
0000
0100
1000
0000
0100
1000
0000
0100
1000
0000
0100
1000
,  // measure 50
0010
0000
0000
0010
0000
0000
0010
0000
0100
0001
0100
0000
0100
1000
0100
0000
,  // measure 51
0010
0000
1000
0010
0000
1000
0010
0000
1000
0010
0000
1000
0010
0000
1000
0010
,  // measure 52
0100
0000
0001
0000
1000
0100
0000
0010
0000
0010
0001
0000
1001
0000
0000
0000
,  // measure 53
0001
0000
0010
0001
0000
0010
0001
0000
0010
0001
0000
0010
0001
0000
0010
0001
,  // measure 54
1000
0000
0000
1000
0000
0000
1000
0000
0010
0001
0010
0000
0010
1000
0010
0000
,  // measure 55
0100
0000
0001
0100
0000
0001
0100
0000
0001
0100
0000
0001
0100
0000
0001
0100
,  // measure 56
0000
0010
0000
0000
1001
0000
1000
0100
0010
0001
1000
0000
0100
0010
0100
1000
,  // measure 57
0000
0001
0000
0000
,  // measure 58
0000
0000
0000
0000
,  // measure 59
0000
1000
0000
0000
0000
0000
0000
0000
,  // measure 60
0000
0000
0000
0000
0000
0000
0000
0000
0000
0000
0000
0000
0010
0100
0010
0100
,  // measure 61
0000
0010
0000
0000
,  // measure 62
2000
0000
3002
0000
0023
0230
0320
0230
,  // measure 63
0300
0100
0000
0000
0000
0000
2000
0000
,  // measure 64
3002
0000
0203
0000
0000
1000
0301
0000
,  // measure 65
0001
0010
0100
0010
0001
1000
0010
0100
,  // measure 66
0001
0000
1000
0000
0001
0000
0100
0000
0010
0000
1000
0000
0001
0000
0010
0100
,  // measure 67
0010
0000
0001
0010
0001
0000
1000
0010
1000
0000
0010
0100
0010
0000
0100
0001
,  // measure 68
0100
1000
0100
0001
0010
0000
1100
0001
,  // measure 69
0020
0000
0000
0000
0130
0000
1000
0000
0001
0100
0000
0001
0010
0000
0001
0000
,  // measure 70
2000
0000
0000
0000
3010
0000
0001
0010
0000
0000
0010
0000
1000
0000
0100
0000
,  // measure 71
0020
0000
0031
0001
1000
0100
0010
0001
,  // measure 72
0100
0010
0100
0000
0001
0000
0010
0000
0100
0010
0100
0000
1000
0000
0001
0000
,  // measure 73
1000
0010
0001
0010
0100
0001
0010
0001
,  // measure 74
1000
0000
0001
0000
0100
0000
0010
0000
1000
0000
0100
0000
0010
0000
0100
1000
,  // measure 75
0010
0000
0100
0001
0010
0000
0001
1000
0010
0000
1000
0001
0010
0000
0100
1000
,  // measure 76
0100
0000
0010
0001
1000
0000
0010
0000
0200
0000
0000
0000
1000
0000
0000
0000
,  // measure 77
0301
0000
1000
0000
0010
0000
0010
0000
0100
0000
0001
0010
0000
0100
0010
0000
,  // measure 78
0001
0000
1000
0000
0010
0100
0000
0100
0020
0000
0000
0000
2030
0000
0000
0000
,  // measure 79
3001
0000
0000
0001
0000
0000
0010
0000
0000
0010
0000
0000
0100
0000
0100
1000
,  // measure 80
0000
0001
1000
0000
0100
1000
0000
0010
0000
0010
0100
0000
0001
1000
0001
1000
;

//---------------dance-single - BLANK?????----------------
#NOTEDATA:;
#CHARTNAME:;
#STEPSTYPE:dance-single;
#DESCRIPTION:BLANK?????;
#CHARTSTYLE:;
#DIFFICULTY:Challenge;
#METER:17;
#RADARVALUES:0.713041,1.163300,0.243902,0.792683,0.736063,573.000000,545.000000,28.000000,91.000000,2.000000,0.000000,8.000000,0.000000,0.000000,0.713041,1.163300,0.243902,0.792683,0.736063,573.000000,545.000000,28.000000,91.000000,2.000000,0.000000,8.000000,0.000000,0.000000;
#CREDIT:;
#OFFSET:0.407000;
#BPMS:0.000000=178.000000
;
#STOPS:;
#DELAYS:;
#WARPS:;
#TIMESIGNATURES:0.000000=4=4
;
#TICKCOUNTS:0.000000=4
;
#COMBOS:0.000000=1
;
#SPEEDS:0.000000=0.000000=0.000000=0
,4.000000=0.250000=16.000000=0
,20.000000=1.000000=16.000000=0
,117.000000=0.714000=1.000000=0
,125.500000=1.000000=2.500000=0
,225.000000=1.250000=3.000000=0
,231.000000=1.000000=1.000000=0
;
#SCROLLS:0.000000=1.000000
,32.000000=0.500000
,33.000000=2.000000
,33.250000=0.500000
,33.750000=1.000000
,49.000000=0.000000
,49.125000=2.000000
,49.250000=0.000000
,49.375000=2.000000
,49.500000=0.000000
,49.625000=2.000000
,49.750000=0.000000
,49.875000=2.000000
,50.000000=1.000000
,81.000000=0.000000
,81.125000=2.000000
,81.250000=0.000000
,81.375000=2.000000
,81.500000=0.000000
,81.625000=2.000000
,81.750000=0.000000
,81.875000=2.000000
,82.000000=1.000000
,93.750000=2.000000
,94.000000=0.500000
,94.250000=1.000000
,94.500000=2.000000
,94.750000=0.500000
,95.000000=1.000000
,95.250000=2.000000
,95.500000=0.500000
,95.750000=1.000000
,96.000000=2.000000
,96.250000=0.500000
,96.500000=1.000000
,100.000000=0.500000
,112.000000=1.000000
,116.000000=0.500000
,117.000000=0.700000
,127.000000=1.000000
,164.000000=0.500000
,172.000000=1.000000
,180.000000=0.500000
,188.000000=1.000000
,194.000000=0.000000
,194.333328=2.000000
,194.666672=0.000000
,195.000000=2.000000
,195.333328=0.000000
,195.666672=2.000000
,196.000000=1.000000
,200.000000=0.000000
,200.166672=2.000000
,200.333328=1.000000
,200.500000=0.000000
,200.625000=2.000000
,200.750000=0.000000
,200.916672=2.000000
,201.083328=1.000000
,201.250000=0.000000
,201.375000=2.000000
,201.500000=0.000000
,201.666672=2.000000
,201.833328=1.000000
,202.000000=0.000000
,202.125000=2.000000
,202.250000=0.000000
,202.375000=2.000000
,202.500000=0.000000
,202.625000=2.000000
,202.750000=0.000000
,202.875000=2.000000
,203.000000=0.000000
,203.125000=2.000000
,203.250000=0.000000
,203.375000=2.000000
,203.500000=0.000000
,203.625000=2.000000
,203.750000=0.000000
,203.875000=2.000000
,204.000000=1.000000
,216.000000=0.000000
,216.166672=2.000000
,216.333328=1.000000
,216.500000=0.000000
,216.625000=2.000000
,216.750000=0.000000
,216.916672=2.000000
,217.083328=1.000000
,217.250000=0.000000
,217.375000=2.000000
,217.500000=0.000000
,217.666672=2.000000
,217.833328=1.000000
,218.000000=0.000000
,218.125000=2.000000
,218.250000=0.000000
,218.375000=2.000000
,218.500000=0.000000
,218.625000=2.000000
,218.750000=0.000000
,218.875000=2.000000
,219.000000=0.000000
,219.125000=2.000000
,219.250000=0.000000
,219.375000=2.000000
,219.500000=0.000000
,219.625000=2.000000
,219.750000=0.000000
,219.875000=2.000000
,220.000000=1.000000
,225.000000=0.800000
,228.000000=0.400000
,231.000000=0.500000
,243.000000=0.000000
,243.125000=1.000000
,243.250000=0.000000
,243.375000=1.000000
,243.500000=0.000000
,243.625000=1.000000
,243.750000=0.000000
,243.875000=1.000000
,244.000000=0.500000
,248.000000=0.000000
,248.500000=2.000000
,249.000000=0.000000
,249.500000=2.000000
,250.000000=0.000000
,250.250000=2.000000
,250.500000=0.000000
,250.750000=2.000000
,251.000000=0.000000
,251.250000=2.000000
,251.500000=0.000000
,251.750000=2.000000
,252.000000=0.500000
,256.000000=1.000000
,288.000000=0.000000
,288.125000=2.000000
,288.250000=0.000000
,288.375000=2.000000
,288.500000=0.000000
,288.625000=2.000000
,288.750000=0.000000
,288.875000=2.000000
,289.000000=0.000000
,289.125000=2.000000
,289.250000=0.000000
,289.375000=2.000000
,289.500000=0.000000
,289.625000=2.000000
,289.750000=0.000000
,289.875000=2.000000
,290.000000=0.000000
,290.125000=2.000000
,290.250000=0.000000
,290.375000=2.000000
,290.500000=0.000000
,290.625000=2.000000
,290.750000=0.000000
,290.875000=2.000000
,291.000000=0.000000
,291.125000=2.000000
,291.250000=0.000000
,291.375000=2.000000
,291.500000=0.000000
,291.625000=2.000000
,291.750000=0.000000
,291.875000=2.000000
,292.000000=1.000000
,314.000000=0.000000
,314.500000=2.000000
,315.000000=0.000000
,315.500000=2.000000
,316.000000=0.000000
,316.125000=2.000000
,316.250000=1.000000
,316.750000=0.000000
,316.875000=2.000000
,317.000000=1.000000
,317.500000=0.000000
,317.625000=2.000000
,317.750000=1.000000
,318.250000=0.000000
,318.375000=2.000000
,318.500000=1.000000
,319.000000=0.000000
,319.125000=2.000000
,319.250000=1.000000
;
#FAKES:;
#LABELS:0.000000=Song Start
;
#ATTACKS:TIME=-0.307000:LEN=8.700000:MODS=Stealth;
#NOTES:
0000
0000
0000
0000
,
0000
0000
0000
0000
,
0000
0000
0000
0000
,
0000
0000
0000
0000
,
0000
0000
0000
0000
,
0000
0000
0000
0000
,
0000
0000
0000
0000
,
0000
0000
0000
0000
1000
0000
0100
0010
0001
1000
0010
0000
0100
0001
0010
0001
,
1000
0000
2002
3003
0001
0010
0200
0300
,
0001
0100
0000
0100
0010
0000
0001
0000
0100
0000
0010
0000
0100
0000
0001
1000
,
0000
0010
0101
0000
1000
0100
0020
0030
,
1000
0010
0000
0010
0100
0000
1000
0000
0010
0000
1000
0000
0001
0000
0010
0001
,
0000
0000
0001
0000
0010
0100
0001
0100
1000
0000
0010
0000
0200
0000
0300
0000
,
1000
0100
0000
0100
0010
0000
1000
0000
0001
0000
1000
0000
0100
0000
1000
0001
,
0000
0100
1010
0000
0001
0100
0020
0030
,
0001
0010
0000
0010
0100
0000
0010
1000
0000
1000
0100
0000
1100
0000
0010
0001
,
0000
0001
0100
0000
0101
0000
0000
0000
0001
0000
1000
0000
0020
0000
0030
0000
,
0001
0010
0000
0010
1000
0000
0100
0000
1000
0000
0010
0000
0101
0000
1000
0010
,
0000
0000
0100
0000
0101
0000
0000
0001
1000
0000
0001
0000
0020
0000
0030
0000
,
1000
0010
0000
0010
0001
0000
0100
0000
0001
0000
0010
0000
1100
0000
0001
0010
,
0000
0010
0100
0000
0001
0100
0010
0100
1000
0000
0001
0000
0200
0000
0300
0000
,
1000
0100
0000
0100
0001
0000
0010
0000
0001
0000
0100
0000
1010
0000
0001
0010
,
0000
0100
1010
0000
0001
1000
0200
0300
,
0001
0100
0000
0100
1000
0000
0010
0100
0000
0000
0001
0000
0000
1000
0000
0000
,
0010
0000
0000
0000
1000
0000
0100
0010
0001
0100
0010
0000
1000
0001
0010
0001
,
0200
1000
0000
0300
,
0000
0000
0000
0000
,
0200
0001
0000
0000
0000
0000
0300
0000
,
0001
0000
0000
0000
0000
0010
0000
0000
0001
0000
0000
0000
0100
0000
0000
0000
0000
0010
0000
0000
0000
1000
0000
0000
0000
0000
0000
0000
0001
0000
0000
0000
0010
0000
0000
0000
0100
0000
0000
0000
0000
0000
1000
0000
0000
0001
0000
0000
,
0020
1000
0000
0030
,
0000
0000
0000
0000
,
0020
0000
0001
0000
0000
0000
0030
0000
0000
0000
00MM
0000
1000
0000
0100
0010
,
0001
0100
0010
0000
0001
0010
0100
0010
1000
0000
0100
0000
0010
0001
1000
0000
,
0020
0032
0023
2030
3002
0023
2030
3020
,
0000
0000
0032
0000
0013
0100
0000
1001
0000
0000
1000
0000
0010
0000
0002
0000
,
2003
3200
0302
0023
2030
0000
3002
0203
,
2300
0000
0000
0000
3100
0010
0000
1001
0000
0000
1000
0000
0001
0000
0020
0000
,
0230
0320
2030
3020
0032
0203
0320
0230
,
2300
0000
3002
0000
0013
0100
0000
1001
0000
0000
0001
0000
1000
0000
0002
0000
,
0203
0000
0320
0000
0032
0000
2003
0000
3002
0000
0023
0000
0230
0000
0301
1000
,
0001
1000
0010
0000
0110
0000
1000
0001
1000
0001
0010
0000
0100
0010
0100
0000
,
2000
0000
0000
3000
0000
0000
1000
0000
0000
0000
1000
0000
0000
0000
0000
0000
,
0002
0000
0000
0003
0000
0000
0001
0000
0000
0000
0001
0000
0100
0001
0100
0010
,
1000
0000
0010
0000
0001
0000
0010
0100
0010
0000
0100
0000
0001
0000
0010
0000
,
1000
0000
0010
0000
0001
0000
0100
0010
0100
0000
0010
0000
1000
0000
1000
0001
,
0020
0000
0000
0030
0000
0000
0010
0000
0000
0000
0010
0000
0000
0000
0000
0000
,
0200
0000
0000
0300
0000
0000
0100
0000
0000
0000
0100
0000
1000
0001
0010
0001
,
0100
0000
1000
0000
0100
0000
0001
0010
0001
0000
0010
0000
0100
0000
1000
0100
,
0000
0000
0000
0100
0000
0000
0010
0000
0000
0000
0000
0000
0001
0000
0000
0000
0000
0000
0010
0000
0000
0001
0000
0000
1000
0000
0000
0000
0000
0000
0000
0000
0101
0000
0000
0000
0000
0000
0000
0000
1100
0000
0000
0000
0000
0000
0000
0000
,
0011
0000
0000
2000
0001
3000
0020
0000
0031
2000
0000
3000
0021
0000
0030
0001
,
0100
0000
0100
0010
0000
1000
0100
0000
0010
0100
0010
0001
1000
0010
0100
0001
,
0020
0000
0030
0002
1000
0003
0020
0000
1030
0002
0000
0003
1020
0000
0030
1000
,
0001
0000
0100
0000
0010
0000
0000
0110
0000
0000
1000
0000
0100
0010
0001
1000
,
0200
0000
0300
2000
0001
3000
0200
0000
0301
2000
0000
3000
0201
0000
0300
0001
,
1000
0000
1000
0010
0000
0100
0010
0000
0001
0010
0100
0010
1000
0100
0010
0001
,
0200
0000
0300
0002
1000
0003
0200
0000
1300
0002
0000
0003
1200
0000
0310
0001
,
0000
1000
0010
0000
0110
0000
0100
0001
1000
0100
0010
0000
0001
0100
0010
1000
,
0002
0100
0000
0003
,
0000
0000
0000
0000
,
2000
0100
0000
0000
0000
0000
3000
0000
,
0000
0000
0000
0000
0000
0000
0000
0000
0000
0000
0000
0000
0100
0010
0100
0010
,
0002
0010
0000
0003
,
4000
0000
3040
0000
0430
0304
0043
0430
,
2300
0010
0000
0000
0000
0000
3000
0000
,
0001
0000
0000
0000
0000
0010
0000
0000
0001
0000
0000
0000
2000
0000
0000
0000
0000
0002
3000
0000
0000
0000
0000
0003
0000
0000
0000
0010
0000
0000
0100
0000
0000
0000
0000
0000
1001
0000
0000
0000
0000
0000
0000
0000
0000
0000
0000
0000
,
2000
0000
3020
0000
,
0001
0000
0000
0000
0000
0000
0230
0000
0000
0301
0010
0001
,
1000
0010
1000
0010
0100
0001
0100
0001
1000
0100
1000
0100
0010
0001
0010
0001
,
1000
0100
0010
0001
0100
0010
1000
0001
2000
0000
0000
0000
3010
0000
0100
0000
,
0002
0000
0000
0000
1000
0000
0000
0000
0010
0000
0000
0100
0000
0000
2003
0000
,
0000
0000
0000
0000
0100
0000
0000
0100
0000
0000
0000
0000
0010
0000
0000
0000
,
3002
0000
0000
0000
0000
0000
0010
0000
0000
0000
0000
0000
1003
0000
0100
0010
,
0001
0010
0100
1000
0001
1000
0001
0100
0010
0100
0001
1000
0010
0100
0010
1000
,
0002
0010
0000
0010
,
2003
0000
0000
0000
0100
0000
0000
0000
3001
0010
0001
0010
0100
0010
0100
1000
,
0001
1000
0010
0100
0001
0010
0001
0100
0010
1000
0001
0010
0100
1000
0010
1000
,
0001
0010
0100
0010
0100
1000
0010
1000
0002
0000
0000
0000
2003
0000
0000
0000
,
3000
0000
0010
0000
0100
0000
0000
0000
0001
0000
0000
1000
0000
0000
0001
0000
,
0000
0000
0100
0000
0010
0000
0000
0010
4000
0000
0000
0000
3004
0000
0000
0000
,
0013
0000
0000
1100
0000
0000
0101
0000
0000
1010
0000
0000
0011
0000
1000
0001
,
0000
0010
0100
0000
1000
0001
0100
0010
1000
0100
1000
0010
0100
0001
0010
0001
;
