#VERSION:0.83;
#TITLE:Energie;
#SUBTITLE:;
#ARTIST:U 96;
#TITLETRANSLIT:;
#SUBTITLETRANSLIT:;
#ARTISTTRANSLIT:;
#GENRE:Electro;
#ORIGIN:Germany;
#CREDIT:;
#BANNER:Energie-banner.png;
#BACKGROUND:Energie-bg.png;
#PREVIEWVID:;
#JACKET:Energie-jacket.png;
#CDIMAGE:;
#DISCIMAGE:;
#LYRICSPATH:;
#CDTITLE:cdtitle.png;
#MUSIC:Energie.ogg;
#OFFSET:0.000000;
#SAMPLESTART:9.449000;
#SAMPLELENGTH:15.000000;
#SELECTABLE:YES;
#BPMS:0.000=127.000;
#STOPS:;
#DELAYS:;
#WARPS:;
#TIMESIGNATURES:0.000=4=4;
#TICKCOUNTS:0.000=4;
#COMBOS:0.000=1;
#SPEEDS:0.000=1.000=0.000=0;
#SCROLLS:0.000=1.000;
#FAKES:;
#LABELS:0.000=Song Start;
#BGCHANGES:3.750=Energie.avi=1.000=0=0=1=====,
99999=-nosongbg-=1.000=0=0=0 // don't automatically add -songbackground-
;
#KEYSOUNDS:;
#ATTACKS:
;

//---------------dance-single - RaverAce----------------
#NOTEDATA:;
#CHARTNAME:;
#STEPSTYPE:dance-single;
#DESCRIPTION:RaverAce;
#CHARTSTYLE:;
#DIFFICULTY:Beginner;
#METER:1;
#RADARVALUES:0.046184,0.099609,0.087376,0.000000,0.000000,37.000000,27.000000,10.000000,0.000000,0.000000,0.000000,0.000000,0.000000,0.000000,0.046184,0.099609,0.087376,0.000000,0.000000,37.000000,27.000000,10.000000,0.000000,0.000000,0.000000,0.000000,0.000000,0.000000;
#CREDIT:;
#NOTES:
// measure 0
0000
0000
0000
0000
,  // measure 1
0000
0000
0000
0000
,  // measure 2
0000
0000
0000
0000
,  // measure 3
0000
0000
0000
0000
,  // measure 4
0000
0000
0000
0000
,  // measure 5
1001
0000
0000
0000
,  // measure 6
0000
0000
0000
0000
,  // measure 7
0100
0000
0000
0000
,  // measure 8
0000
0000
0000
0000
,  // measure 9
0100
0000
0000
0000
,  // measure 10
0000
0000
0000
0000
,  // measure 11
0100
0000
0000
0000
,  // measure 12
0000
0000
0000
0000
,  // measure 13
1001
0000
0000
0000
,  // measure 14
0000
0000
0000
0000
,  // measure 15
1001
0000
0000
0000
,  // measure 16
0000
0000
0000
0000
,  // measure 17
1001
0000
0000
0000
,  // measure 18
0000
0000
0000
0000
,  // measure 19
1001
0000
0000
0000
,  // measure 20
0000
0000
0000
0000
,  // measure 21
1000
0000
0000
0000
,  // measure 22
0000
0000
0000
0000
,  // measure 23
0000
0000
0000
0000
,  // measure 24
0000
0000
0000
0000
,  // measure 25
0010
0000
0000
0000
,  // measure 26
0000
0000
0000
0000
,  // measure 27
0010
0000
0000
0000
,  // measure 28
0000
0000
0000
0000
,  // measure 29
0100
0000
0000
0000
,  // measure 30
0000
0000
0000
0000
,  // measure 31
0100
0000
0000
0000
,  // measure 32
0000
0000
0000
0000
,  // measure 33
1000
0000
0000
0000
,  // measure 34
0000
0000
0000
0000
,  // measure 35
0001
0000
0000
0000
,  // measure 36
0000
0000
0000
0000
,  // measure 37
1000
0000
0000
0000
,  // measure 38
0000
0000
0000
0000
,  // measure 39
0001
0000
0000
0000
,  // measure 40
0000
0000
0000
0000
,  // measure 41
1001
0000
0000
0000
,  // measure 42
0000
0000
0000
0000
,  // measure 43
1001
0000
0000
0000
,  // measure 44
0000
0000
0000
0000
,  // measure 45
1001
0000
0000
0000
,  // measure 46
0000
0000
0000
0000
,  // measure 47
1001
0000
0000
0000
,  // measure 48
0000
0000
0000
0000
,  // measure 49
0100
0000
0000
0000
,  // measure 50
0000
0000
0000
0000
,  // measure 51
0100
0000
0000
0000
,  // measure 52
0000
0000
0000
0000
,  // measure 53
0010
0000
0000
0000
,  // measure 54
0000
0000
0000
0000
,  // measure 55
0010
0000
0000
0000
,  // measure 56
0010
0000
0000
0000
,  // measure 57
1001
0000
0000
0000
;

//---------------dance-single - RaverAce----------------
#NOTEDATA:;
#CHARTNAME:;
#STEPSTYPE:dance-single;
#DESCRIPTION:RaverAce;
#CHARTSTYLE:;
#DIFFICULTY:Easy;
#METER:6;
#RADARVALUES:0.222185,0.309311,0.218440,0.148539,0.000000,178.000000,153.000000,25.000000,17.000000,0.000000,0.000000,0.000000,0.000000,0.000000,0.222185,0.309311,0.218440,0.148539,0.000000,178.000000,153.000000,25.000000,17.000000,0.000000,0.000000,0.000000,0.000000,0.000000;
#CREDIT:;
#NOTES:
0000
0000
0000
0000
,
0000
0000
0000
0000
,
0000
0000
0000
0000
,
0000
0000
0000
0000
,
0000
0000
0000
0000
,
1001
0000
1000
0000
,
0001
0000
0010
0000
,
0110
0000
0100
0000
,
1000
0000
0010
0100
,
1001
0000
0001
0000
,
1000
0000
0010
0000
,
0110
0000
0100
0000
,
0001
0000
0010
0100
,
2001
0000
0100
0000
,
0001
0000
3100
0010
,
0002
0000
0100
0000
,
1000
0000
0103
0010
,
0200
0000
1000
0000
,
0001
0000
0310
1000
,
1001
0000
0001
0010
,
0200
0000
0020
0330
,
2002
0000
0000
3003
,
1001
0000
0001
0000
,
1001
0000
1000
0000
,
0010
0000
0110
0000
,
1001
0001
0010
0000
,
0100
1000
0010
0010
,
0110
0100
0001
0000
,
0001
0010
0100
0100
,
1001
1000
0010
0000
,
0100
0001
0010
0010
,
0110
0100
1000
0000
,
1000
0010
0100
0100
,
1001
0000
0000
0000
,
0001
0000
0000
0000
,
1000
0000
0000
0000
,
0001
0000
0000
0000
,
1001
0000
0010
0000
,
1001
0000
0100
0000
,
1001
0000
0100
0000
,
1001
0000
0010
0000
,
1001
0001
0010
0001
,
0100
1000
0100
1000
,
0010
1000
0010
0100
,
0010
0001
0010
0100
,
0001
0001
0010
0100
,
1000
1000
0010
0100
,
0001
0100
1000
0100
,
0010
1000
0100
0010
,
1002
0010
0010
0010
,
0100
0100
0203
0320
,
0230
0010
0010
0010
,
0001
0001
0320
1030
,
2001
0010
0010
0010
,
0100
0100
3200
0310
,
0110
0100
1000
0001
,
1001
1000
0010
0100
,
2001
0000
0000
0000
,
3020
0000
0230
0000
,
0310
0000
0000
0000
;

//---------------dance-single - RaverAce----------------
#NOTEDATA:;
#CHARTNAME:;
#STEPSTYPE:dance-single;
#DESCRIPTION:RaverAce;
#CHARTSTYLE:;
#DIFFICULTY:Medium;
#METER:11;
#RADARVALUES:0.444369,0.515518,0.270865,0.244653,0.131064,356.000000,325.000000,31.000000,28.000000,0.000000,0.000000,0.000000,0.000000,0.000000,0.444369,0.515518,0.270865,0.244653,0.131064,356.000000,325.000000,31.000000,28.000000,0.000000,0.000000,0.000000,0.000000,0.000000;
#CREDIT:;
#NOTES:
0000
0000
0000
0000
,
0000
0000
0000
0000
,
0000
0000
0000
0000
,
0000
0000
0000
0000
,
0000
0000
0000
0000
,
1001
0000
1000
0000
0000
0010
0000
0200
0000
0000
0000
0000
0301
0000
0000
0000
,
0001
0000
0010
0000
0000
0100
0000
0020
0000
0000
0000
0000
0031
0000
1000
0000
,
1001
0000
0001
0000
0000
0010
0000
0200
0000
0000
0000
0000
1300
0000
0000
0000
,
1000
0000
0010
0000
0000
0100
0000
0020
0000
0000
0000
0000
1030
0000
0001
0000
,
0101
0000
0200
0000
0000
0310
0000
1000
0000
0001
0000
0010
0100
0000
0010
0000
,
0001
0000
1000
0000
0010
0100
0000
0002
0000
0000
0000
0000
0013
0000
0100
0000
,
1100
0000
0200
0000
0000
0310
0000
0001
0000
1000
0000
0010
0100
0000
0010
0000
,
1000
0000
0001
0000
0010
0100
0000
1000
0001
0000
0100
0000
0010
0100
0000
0100
,
0002
0010
1000
0100
,
1000
0000
0010
0000
1003
0100
0001
0100
,
0120
1000
0100
0001
,
0100
0000
1000
0000
0130
0010
0001
1000
,
2100
0010
0001
0100
,
0001
0000
0010
0000
3001
0100
1000
0100
,
0110
0010
1000
0000
0100
0010
0001
1000
,
0002
0000
0103
0010
2000
0000
3010
0100
,
0210
0000
0000
0001
0000
0010
0000
0301
,
0001
0000
0001
0010
0000
0010
0100
1000
,
0001
0000
1000
0010
0000
0010
0100
0001
,
0010
0020
0000
0230
0020
0000
0330
0000
,
1001
0000
0000
0000
1000
0000
0010
0000
0100
0000
0000
0110
0000
0000
0010
0000
,
1000
0001
0010
0000
0100
0100
0110
0000
,
1001
0000
0000
0000
0001
0000
0010
0000
0100
0000
0000
0110
0000
0000
0010
0000
,
0001
1000
0010
0000
0100
0100
0110
0000
,
0010
0000
0020
0000
0000
0000
1000
0000
1030
0000
0000
1010
0000
0000
0010
0000
,
0100
0001
0010
0100
1000
0100
0110
0000
,
0010
0000
0020
0000
0000
0000
0001
0000
0031
0000
0000
0011
0000
0000
0010
0000
,
0100
1000
0010
0100
0001
0002
0000
1003
,
1001
0000
0000
0000
0001
0000
0000
0000
0010
0000
0000
0020
0000
0000
0230
0000
,
0000
1300
0100
0010
0001
0001
1000
0010
,
1000
0000
0000
0000
1000
0000
0000
0000
0010
0000
0000
0020
0000
0000
0230
0000
,
0000
0301
0100
0010
1000
1000
0001
0010
,
0110
0000
0100
0110
0000
0011
0000
0001
,
1001
0000
0000
0000
1000
0000
1010
0000
0000
0000
0110
0000
0000
0100
0000
0001
,
1000
0000
0100
1100
0000
0110
0000
0011
,
0002
0000
1003
0010
2000
0000
3001
0010
,
0110
0100
1000
0000
1000
0010
0100
0000
,
0100
0001
0010
0000
0010
0100
1000
0000
,
1000
0010
0001
0000
1000
0100
0001
0000
,
0001
0010
1000
0000
0001
0100
1000
0001
,
1000
1000
0001
0000
0100
0010
1000
0100
,
0010
0010
0001
0000
0001
0100
1000
0100
,
0001
0001
1000
0000
0100
0010
0001
0100
,
0010
0010
1000
0000
1000
0100
0001
0100
,
0010
0001
0010
0000
0001
0100
0001
0000
,
0100
0010
0100
0000
0010
1000
0100
0010
,
0001
0010
0100
0000
1000
0100
1000
0000
,
0010
1000
0010
0000
0100
0001
0010
0100
,
0110
0010
0001
0000
1000
0100
1000
0000
,
0100
0010
0100
0000
0010
0001
0100
0010
,
1010
1000
0001
0000
0001
0100
0001
0000
,
0010
0001
0010
0000
1000
0010
0001
0010
,
0110
0100
0002
0000
0000
0000
0000
0000
,
2003
0000
3200
0000
,
0310
0000
0000
0000
;

//---------------dance-single - RaverAce----------------
#NOTEDATA:;
#CHARTNAME:;
#STEPSTYPE:dance-single;
#DESCRIPTION:RaverAce;
#CHARTSTYLE:;
#DIFFICULTY:Hard;
#METER:14;
#RADARVALUES:0.640341,0.695949,0.288341,0.288341,0.703376,513.000000,480.000000,33.000000,33.000000,0.000000,0.000000,0.000000,0.000000,0.000000,0.640341,0.695949,0.288341,0.288341,0.703376,513.000000,480.000000,33.000000,33.000000,0.000000,0.000000,0.000000,0.000000,0.000000;
#CREDIT:RaverAce;
#NOTES:
0000
0000
0000
0000
,
0000
0000
0000
0000
,
0000
0000
0000
0000
,
0000
0000
0000
0000
,
0000
0000
0000
0000
,
1001
0000
0002
0000
0000
0103
0000
0200
0000
0000
1300
0000
0100
0000
0010
0000
,
0001
0000
2000
0000
0000
3010
0000
0020
0000
0000
0031
0000
0100
0010
1000
0000
,
0001
0000
2000
0000
0000
3100
0000
0200
0000
0000
0301
0000
0100
0000
0010
0000
,
1000
0000
0002
0000
0000
0013
0000
0020
0000
0000
1030
0000
0100
1000
0001
0000
,
0101
0000
0100
0000
0010
1000
0000
0100
0000
0100
0000
0001
0010
0000
0100
0000
,
1000
0000
0010
0000
0100
0001
0000
0020
0000
0000
0130
0000
0010
0001
1000
0000
,
1100
0000
0100
0000
0010
0001
0000
0100
0000
0100
0000
1000
0010
0000
0100
0000
,
0001
1000
0000
1000
0010
0000
0100
0000
0001
1000
0000
1000
0100
0010
0001
0000
,
1001
0000
1000
0000
0100
1000
0000
0010
0000
0001
0000
0010
0100
0000
0001
0000
,
0100
0000
0010
0000
1000
0100
0000
0020
0000
0000
0001
0000
0032
0000
0103
0000
,
0110
0000
0010
0000
1000
0100
0000
0001
0000
0100
0000
0010
0001
0000
0100
0000
,
1000
0000
0100
0000
0010
1000
0000
0002
0000
0000
0103
0000
0100
0010
1000
0000
,
1001
0000
0001
0000
0100
0001
0000
0010
0000
1000
0000
0010
0100
0000
1000
0000
,
0100
0000
0010
0000
0001
0100
0000
0020
0000
0000
1000
0000
2030
0000
3100
0000
,
0110
0000
0010
0000
0001
0100
0000
1000
0000
0100
0000
0010
1000
0000
0100
0000
,
0110
0000
0010
0000
0001
0100
0000
0020
0000
0000
1000
0000
1030
0001
0010
0000
,
0210
0000
0000
1000
0000
0001
0000
1000
,
1300
0000
0000
0000
0001
0000
0010
0000
0000
0000
0010
0000
0000
1000
0010
0100
,
0001
0000
0000
0000
1000
0000
0010
0000
0000
0000
0010
0000
0001
0000
0010
0001
,
1000
0000
2000
0000
0000
0000
3002
0000
2000
0000
0000
0000
0003
0000
3100
1000
,
0001
0100
0001
0100
0001
0000
0100
0000
0010
0000
0000
1010
0000
0000
1000
0100
,
0010
0001
0010
0001
0010
0000
0100
0000
1100
0000
1000
0000
1010
0000
0000
0000
,
1000
0100
1000
0100
1000
0000
0100
0000
0010
0000
0000
0011
0000
0000
0001
0100
,
0010
1000
0010
1000
0010
0000
0100
0000
0101
0000
0001
0000
0011
0000
0000
0000
,
1000
0010
0100
0001
1000
0000
0100
0000
0010
0000
0000
1001
0000
0000
1000
0001
,
0100
0001
0010
0100
1000
0000
0010
0000
0110
0000
0100
0000
0101
0000
0000
0000
,
0001
0010
0100
1000
0001
0000
0100
0000
0010
0000
0000
1001
0000
0000
0001
1000
,
0100
1000
0010
0100
0001
0000
0010
0000
0110
0000
0110
0000
0100
0000
1000
0000
,
1001
0000
0001
0000
0100
0000
1000
0000
0200
0000
0000
0302
0000
0000
0023
0000
,
0000
1030
0010
0100
1000
1000
0010
0100
,
0001
0000
1000
0000
0100
0000
0001
0000
0200
0000
0000
2300
0000
0000
3020
0000
,
0000
0031
0010
0100
0001
0001
0010
0100
,
1100
0000
1000
1001
0000
0011
0000
0001
,
0101
0000
0000
0000
0100
0000
0110
0000
0000
0000
1010
0000
0010
0100
0000
0001
,
0010
0000
0100
0110
0000
1001
0000
1000
,
0001
0100
0000
0100
1000
0000
0010
0000
1000
0100
0000
0100
0001
0000
0010
0000
,
0100
0000
1000
0000
0001
0100
0000
1000
0100
0000
0010
1000
0000
1000
0001
0010
,
0100
0000
1000
0100
0000
0010
0001
0000
0100
0000
1000
0100
0000
0001
0010
0001
,
0100
0000
0001
0000
1000
0100
0000
0001
0100
0000
0010
0001
0000
0001
1000
0010
,
0100
0000
0001
1000
0000
1000
0100
0000
0010
0100
0010
0100
1000
0010
0100
0001
,
0010
0000
0001
0000
1000
0010
0000
0001
0000
1000
0000
0100
0001
0000
1000
0000
,
0100
0000
0010
0000
0001
0100
0000
0020
0000
0000
0130
0001
0000
0010
0001
1000
,
0010
0000
1000
0000
0001
0010
0000
1000
0000
0001
0000
0100
1000
0000
0010
0000
,
0110
0000
0100
0000
0001
1000
0000
0200
0000
0000
0310
0000
0010
0001
0100
0001
,
1000
0010
1000
0010
1000
0000
0001
0000
0100
0001
0100
0001
0100
0000
0010
0000
,
1000
0100
1000
0100
1000
0000
0010
0000
0100
0000
0200
0000
0320
0000
2030
0000
,
3001
0010
0001
0010
0001
0000
1000
0000
0100
1000
0100
1000
0100
0000
0010
0000
,
0001
0100
0001
0100
0001
0000
0010
0000
0001
1000
0001
1000
0100
0010
0100
0010
,
0001
0100
0010
0100
0001
0000
1000
0000
0001
0010
1000
0010
0100
0000
1000
0000
,
0010
1000
0010
0100
0001
0000
1000
0000
0100
0001
0100
0010
0001
0000
1000
0000
,
1001
0000
1010
0000
0010
0100
0000
0001
0010
0000
1000
0010
0000
0100
0010
0001
,
1000
0000
0100
1000
0000
1000
0001
0000
0100
0010
0100
0010
1000
0100
0010
0001
,
1000
0010
0200
0000
0000
0000
0000
0000
,
0302
0000
0023
0000
,
0130
0000
0000
0000
;
