#VERSION:0.83;
#TITLE:Divine Light of Myriad;
#SUBTITLE:;
#ARTIST:yoho;
#TITLETRANSLIT:;
#SUBTITLETRANSLIT:;
#ARTISTTRANSLIT:;
#GENRE:;
#CREDIT:;
#MUSIC:Divine Light of Myriad.ogg;
#BANNER:Divine Light of Myriad-bn.png;
#BACKGROUND:Divine Light of Myriad-bg.png;
#CDTITLE:;
#SAMPLESTART:97.327;
#SAMPLELENGTH:15.000;
#SELECTABLE:YES;
#OFFSET:1.045;
#BPMS:0.000=172.000;
#STOPS:;
#SPEEDS:0.000=1.000=0.000=0,
262.000=2.000=4.000=0
;
#SCROLLS:0.000=1.000,
234.000=0.500,
280.000=0.250,
280.500=0.500,
280.750=1.000,
281.000=0.500
;
#BGCHANGES:;
#FGCHANGES:;

//--------------- dance-single - ----------------
#NOTEDATA:;
#STEPSTYPE:dance-single;
#DESCRIPTION:;
#DIFFICULTY:Beginner;
#METER:6;
#RADARVALUES:0,0,0,0,0;
#NOTES:
0000
0000
0000
0000
,
0000
0000
0000
0000
,
0000
0000
0000
0000
,
0000
0000
0000
0000
,
0000
0000
0000
0000
,
0000
0000
0000
0000
,
0000
0000
0000
0000
,
0000
0000
0000
0000
,
0000
0000
0000
0000
,
1000
0000
1000
0000
,
0000
0000
1000
0000
,
0001
0000
0001
0000
,
0000
0000
0001
0000
,
0100
0000
0100
0000
,
0010
0000
0010
0000
,
1000
1000
0001
0001
,
0010
0010
0100
0000
,
1000
0000
1000
0000
,
0001
0000
0001
0000
,
0100
0000
0000
0000
,
0010
0000
0000
0000
,
0001
0000
0001
0000
,
1000
0000
1000
0000
,
0100
0000
0100
0000
,
0000
1001
0000
0010
,
0000
0010
0000
0010
,
0100
0000
0100
0000
,
1000
0001
1000
0001
,
1000
0000
1000
0001
,
1000
0000
1000
0001
,
0001
1000
0001
1000
,
0001
1000
0001
0000
,
0010
0000
0100
0010
,
0100
0000
0010
0100
,
0001
1000
0001
1000
,
0001
1000
0001
0000
,
0110
0000
1000
0000
,
0010
0010
0000
0100
,
0001
0000
1000
0000
,
0010
0010
0000
0100
,
0110
0000
1000
0000
,
0001
0001
0000
1000
,
0001
0000
0100
0000
,
0010
0000
0100
0100
,
0110
0000
1000
0000
,
0001
0001
0000
1000
,
1000
0000
0010
0000
,
0100
0100
0000
0001
,
0010
0000
0100
0000
,
1000
1000
0000
0001
,
0100
0000
0010
0000
,
1000
1000
0001
0000
,
0100
0000
0000
0010
0000
0000
0000
0100
,
0000
0000
0001
1000
,
0100
0000
0000
0010
0000
0000
0000
0100
,
0000
0000
1000
0001
,
0000
0000
2002
0000
,
0000
0000
0000
0000
,
3003
0000
0200
0000
,
0000
0000
0000
0000
,
0000
0300
0002
0000
,
0000
0003
2000
0000
,
0000
3000
0200
0000
,
0000
0300
0020
0000
,
0000
0030
0002
0000
,
0000
0003
0200
0300
,
0020
0030
1000
1000
,
0001
0001
1000
1000
,
0001
0001
0100
0010
,
0100
0010
1000
0001
,
0010
0000
0110
0000
,
1001
0000
0001
0100
,
0010
0000
1000
0000
,
1001
0000
0010
0100
,
1000
0000
0010
0100
,
0010
0000
0100
0010
,
0100
0000
0001
1000
,
0001
0000
1000
0001
,
1000
0000
0100
0000
,
0110
0000
0001
1000
,
0001
0000
0100
0000
,
0110
0000
1000
0001
,
1000
0000
0100
0000
,
0010
0100
0010
0000
,
0100
0000
1001
0000
,
0001
1000
0001
0000
,
1000
0000
0010
0010
,
0010
0010
0100
0000
,
0001
0000
0010
0010
,
0010
0010
0100
0000
,
1000
0000
0001
0001
,
0001
0001
0100
0000
,
0010
0000
1000
1000
,
0001
0001
0010
0000
,
0110
0000
2002
0000
,
0000
0000
0000
0000
,
0000
0000
0000
0000
,
0000
0000
0000
0000
,
0000
0000
3003
0000
;

//--------------- dance-single - ----------------
#NOTEDATA:;
#STEPSTYPE:dance-single;
#DESCRIPTION:;
#DIFFICULTY:Easy;
#METER:11;
#RADARVALUES:0,0,0,0,0;
#NOTES:
0000
0000
0000
0000
,
0000
0000
0000
0000
,
0000
0000
0000
0000
,
0000
0000
0000
0000
,
0000
0000
0000
0000
,
0000
0000
0000
0000
,
0000
0000
0000
0000
,
0000
0000
0000
0000
,
0000
0000
0000
0000
,
1000
1000
1100
0000
,
0001
0001
0101
0000
,
1000
1000
1010
0000
,
0001
0001
0011
0000
,
1000
0001
0000
0000
0001
1000
0000
0000
,
0100
0010
0000
0000
0010
0100
0000
0000
,
1000
1000
0001
0001
,
0100
0010
0100
0000
1001
0000
0000
0000
,
0101
0000
1000
0000
0010
0100
0010
0000
,
1000
0000
0100
0000
0010
0001
0010
0000
,
0100
1000
0001
0100
,
0001
1000
0010
0000
,
0101
0000
1000
0000
0100
0010
0100
0000
,
1000
0000
0001
0000
0100
0010
0100
0000
,
0001
0000
1000
0000
0100
0010
0100
0000
,
0010
0000
0000
0000
0001
0000
0000
1000
0000
0000
0001
0000
0100
0000
0000
0000
,
0001
0000
0000
0000
1000
0000
0000
0001
0000
0000
1000
0000
0100
0000
0000
0000
,
1000
0000
0010
0100
0000
0001
0100
0000
,
0001
0010
0001
0010
0100
1000
0100
0000
,
1001
0000
1000
0001
0100
0000
0010
1000
,
0001
0000
1000
0100
0010
0000
0001
0000
,
1001
0000
1000
0010
0100
0000
0001
0010
,
0100
0000
1000
0001
0100
0000
0010
0000
,
1001
0000
0001
1000
0010
0000
0100
0001
,
0010
0000
0100
1000
0001
0000
0100
0000
,
1001
0000
1000
0001
0010
0000
0100
0010
,
0001
1000
0001
1000
0001
0000
0000
0000
,
1020
0000
0000
0000
0130
0001
0100
0000
,
0010
0000
1000
0000
0001
0010
0100
0000
,
0010
0000
0001
0000
1000
0010
1000
0000
,
0100
0000
0010
0000
0001
1000
0010
0000
,
0210
0000
0000
0000
0301
1000
0001
0000
,
0010
0000
0100
0000
1000
0010
0100
0000
,
0001
0000
0010
0000
0100
1000
0100
0000
,
0010
0000
0000
0001
0000
0000
0100
0000
0100
0000
0100
0000
,
0020
0000
0000
0000
1030
0001
1000
0000
,
0100
0000
0010
0000
0001
0100
0010
0000
,
1000
0000
0001
0000
0010
0100
0010
0000
,
0001
0000
1000
0000
0010
0100
0001
0000
,
2100
0000
0000
0000
3010
0100
0010
0000
,
1000
0000
0001
0000
0010
0100
1000
0000
,
0010
0000
0100
0000
0001
0010
0001
0000
,
1000
0001
1000
0001
0020
0000
0230
0000
,
1300
0000
0000
0001
0000
0000
0100
0000
0000
0000
0010
0000
0000
0000
1000
0000
,
0000
0001
0000
0010
0100
0000
0110
0000
,
0001
0000
0000
1000
0000
0000
0100
0000
0000
0000
0010
0000
0000
0000
0001
0000
,
0000
1000
0000
0010
0100
0000
0110
0000
,
0000
0000
2002
0000
,
0000
0000
0000
0000
,
0000
3003
0220
0000
,
0000
0000
0000
0000
,
0000
0000
0000
0330
2200
0000
0000
0000
,
0000
0000
0000
3300
0202
0000
0000
0000
,
0000
0000
0000
0303
2002
0000
0000
0000
,
0000
0000
0000
3003
0220
0000
0000
0000
,
0000
0000
0000
0330
2020
0000
0000
0000
,
0000
0000
0000
3030
0022
0000
0000
0033
,
0202
0000
0000
0303
0001
1000
0010
0000
,
1000
0001
0010
0000
0001
0100
0010
0000
,
1000
0100
0010
0000
0001
1000
0001
1000
,
0001
1000
0001
1000
0010
0100
0010
0100
,
0002
0000
0000
0000
0000
0000
0003
0000
1000
0000
0000
0100
0000
0000
0010
0000
,
0002
0000
0003
0100
0000
0001
1000
0010
,
0100
0000
0000
0000
0001
0000
0000
0000
0010
0000
0000
0100
0000
0000
1000
0000
,
0020
0000
0030
0100
0000
0001
1000
0100
,
0010
0000
1001
0000
0001
0000
0100
0010
,
1000
0001
0010
0000
0100
0000
1000
0001
,
0100
0010
1000
0000
0001
0000
0010
0100
,
1000
0010
0100
0000
0001
0000
1000
0100
,
0010
0001
0100
0000
0010
0000
0000
0000
,
2002
0000
0000
0000
3003
0000
0000
0110
0000
0000
0001
0000
0100
0000
0010
0000
,
1000
0000
0000
0000
0001
0000
0000
0000
0010
0000
0000
0100
0000
0000
1000
0000
,
0020
0000
0030
0100
0000
0001
1000
0100
,
0010
0000
0001
0000
1000
0000
0010
0100
,
0001
0100
0010
0000
1000
0000
0100
0010
,
0001
0010
0100
0000
1001
0000
1000
0100
,
0010
0001
1000
0000
0010
0000
0100
0001
,
0010
0000
0100
0000
1000
0000
0000
0000
0001
0000
0000
0101
0000
0000
0000
0000
,
0001
0000
0000
0101
0000
0000
0000
1000
0000
0010
0000
1000
0000
0000
0000
0000
,
0110
0000
0000
0000
1001
0000
0000
0000
1000
0000
0000
1100
0000
0000
0000
0000
,
1000
0000
0000
1100
0000
0000
0000
0001
0000
0010
0000
0001
0000
0000
0000
0000
,
0110
0000
0000
0000
1001
0000
0000
0000
0101
0000
0000
0101
0000
0000
0000
0000
,
1010
0000
0000
1010
0000
0000
0000
0100
0000
0010
0000
0100
0000
0000
0000
0000
,
0110
0000
0000
0000
1001
0000
0000
0000
1100
0000
0000
1100
0000
0000
0000
0000
,
0011
0000
0000
0011
0000
0000
0011
0000
0000
0000
0000
0000
0000
0000
0000
0000
,
0220
0330
2002
0000
,
0000
0000
0000
0000
,
0000
0000
0000
0000
,
0000
0000
0000
0000
,
0000
0000
3003
0000
;

//--------------- dance-single - ----------------
#NOTEDATA:;
#STEPSTYPE:dance-single;
#DESCRIPTION:;
#DIFFICULTY:Medium;
#METER:13;
#RADARVALUES:0,0,0,0,0;
#NOTES:
0000
0000
0000
0000
,
0000
0000
0000
0000
,
0000
0000
0000
0000
,
0000
0000
0000
0000
,
0000
0000
0000
0000
,
0000
0000
0000
0000
,
0000
0000
0000
0000
,
0000
0000
0000
0000
,
0000
0000
0000
0000
,
0001
0100
0001
0000
1010
0000
0000
1000
,
0100
1000
0100
0000
0011
0000
1000
0000
,
0010
0100
0010
0000
1001
0000
0000
1000
,
0001
1000
0001
0000
0110
0000
0001
0000
,
1000
0100
0010
0000
0001
0100
0010
0000
,
1000
0001
0010
0000
0001
1000
0010
0000
,
1000
0100
1000
0100
0010
0001
0010
0001
,
0100
0010
0110
0000
1001
0000
0000
0000
,
0101
0000
0000
0001
0000
1000
0000
0010
0000
0000
0100
0000
0001
0000
0010
0000
,
0100
0000
0000
1000
0000
0001
0000
0100
0000
0000
0010
0000
1000
0000
0001
0000
,
0020
0000
0000
0100
0000
0100
0000
0130
0000
0000
0010
0000
0001
0000
1000
0000
,
0020
0000
0000
0100
0000
0100
0000
0130
0000
0000
0010
0000
1000
0000
0000
0000
,
0001
0000
0100
0000
0001
0100
0000
0001
0000
0100
0001
0000
1000
0000
0010
0000
,
1000
0000
0100
0000
1000
0100
0000
1000
0000
0100
1000
0000
0001
0000
0010
0000
,
0100
0000
1000
0000
0001
0100
0000
0001
0000
1000
0100
0000
1000
0000
0001
0000
,
0100
0000
0000
0000
0010
0000
0000
0010
0000
0000
0010
0000
1000
0000
0000
0000
,
0001
0000
0010
0000
0100
0000
0000
0100
0000
0000
0100
0000
0010
0000
0001
0000
,
0100
0100
1000
0100
0100
0001
0100
0100
,
0010
0010
1000
1000
0001
0001
0010
0000
,
0100
1000
0100
0000
0010
0000
0001
0000
0100
0000
1000
0000
0100
0000
0010
0000
,
1000
0001
0010
0100
1000
0001
0100
0000
,
0010
1000
0010
0000
0100
0000
0001
0000
0010
0000
0100
0000
1000
0000
0010
0000
,
0100
1000
0100
0001
0010
0001
0100
0000
,
0010
1000
0010
0000
0100
0000
0001
0000
0010
0000
0000
0100
0000
0000
1000
0000
,
0010
0000
1000
0000
0001
0000
0100
0000
0010
0000
0000
0100
0000
0000
0001
0000
,
1000
0001
1000
0000
0010
0000
0100
0000
0001
0000
0100
0000
1000
0000
0100
0000
,
0010
0100
1000
0100
0001
0000
0020
0000
,
0130
2000
0000
0010
3001
0001
1000
1000
,
0001
0000
0010
0000
0100
0000
1000
0001
0000
0100
0001
0000
0011
0000
0000
0000
,
1000
0100
0001
0100
0010
0010
0001
0001
,
0100
0000
0010
0000
1000
0000
0001
1000
0000
0100
1000
0000
1010
0000
0000
0000
,
1200
0000
0001
0000
1300
0001
0100
0100
,
0001
0000
0001
0000
0010
0000
0100
1000
0000
0010
1000
0000
1001
0000
0000
0000
,
0102
0000
0013
0001
1000
0010
1000
1000
,
0010
0000
0000
0100
0000
0000
0001
0000
0000
0010
0000
0000
0100
0000
1000
0000
0001
0000
0100
0000
0001
0000
1000
0000
,
0020
0000
0001
0000
1030
0010
0100
0100
,
0010
0000
1000
0000
0001
0000
1000
0100
0000
0010
0001
0000
0110
0000
0000
0000
,
1001
0000
0001
0100
0010
1000
0100
0100
,
1000
0000
0001
0000
0010
0000
0001
0100
0000
0010
1000
0000
1001
0000
0000
0000
,
0021
0000
1000
0000
0031
0100
0010
0010
,
0100
0000
0001
0000
0010
0000
0100
1000
0000
0001
0100
0000
0110
0000
0000
0000
,
1001
0000
1000
0100
1000
0010
0100
0100
,
0001
0000
0000
0010
0000
0000
1000
0000
0000
0010
0000
0000
0100
0000
0010
0000
0001
0000
0200
0000
0000
0000
0000
0000
,
0320
0000
0000
1030
0000
0010
0200
0000
0000
0000
0301
0000
1000
0000
0002
0000
,
0000
0023
0000
0130
1100
0000
0101
0000
,
2000
0000
0000
3010
0000
0100
0002
0000
0000
0000
0013
0000
0100
0000
2000
0000
,
0000
3020
0000
0130
1001
0000
0110
0000
,
0000
0000
2002
0000
,
0000
0000
0000
0000
,
0000
3003
0102
0000
,
0000
0000
0010
0000
,
0000
0000
0000
0003
2100
0000
0000
0000
,
0000
0000
3020
0000
,
0000
0000
0000
0030
1002
0000
0000
0000
,
0000
0000
0023
0000
,
0000
0000
0000
0030
2001
0000
0000
0000
,
0000
0000
3002
0000
,
0023
0000
0000
0030
0001
0010
0011
0000
,
1000
0010
1010
0000
0001
0100
0101
0000
,
1000
0100
1100
0000
0001
0010
0100
1000
,
0001
0100
0010
1000
0100
0100
0010
0010
,
0002
0000
0000
0000
0000
0000
0003
0000
1000
0000
0001
0100
0000
0010
1000
0000
,
1001
0000
0001
0100
0000
1000
0100
0010
,
1000
0000
1000
0000
0001
0000
0000
0000
0010
0000
0100
1000
0000
0001
0100
0000
,
0110
0000
0010
1000
0000
0001
0010
0001
,
0101
0000
0000
0000
1010
0000
0000
0000
1200
0000
0000
0001
0000
0010
0000
1300
,
0000
0000
0100
0000
0010
0000
0001
0000
0200
0000
0000
1000
0000
0010
0000
0301
,
0000
0000
0100
0000
0010
0000
1000
0000
1020
0000
0000
0001
0000
0100
0000
1030
,
0000
0000
0010
0000
1000
0000
0001
0000
0020
0000
0000
1000
0000
0100
0000
0031
,
0000
0010
0010
0100
1000
0000
0000
0000
,
2002
0000
0000
0000
3003
0000
0001
0100
0000
0010
1000
0000
0001
0000
1000
0000
,
0100
0000
0100
0000
0100
0000
0000
0000
0010
0000
0001
1000
0000
0010
0100
0000
,
1001
0000
0001
0010
0000
0100
0010
0001
,
0101
0000
1100
0000
0011
0000
1000
0010
,
1000
0100
0010
0001
0100
0000
0010
1000
,
0001
0010
0100
1000
1001
0000
0001
0010
,
0001
0100
1000
0100
0010
0000
0100
0001
,
1000
0000
0100
0000
0010
0000
0001
0000
1000
0010
0000
1000
0010
0000
0000
0000
,
0100
0001
0000
0100
0001
0000
0000
0010
0000
0010
0000
0010
0000
0000
0001
0000
,
1001
0000
0000
0000
0110
0000
0000
0000
0001
0010
0000
0001
0010
0000
0000
0000
,
0100
1000
0000
0100
1000
0000
0000
0010
0000
0010
0000
0010
0000
0000
0100
0000
,
0110
0000
0000
0000
1001
0000
0000
0000
0001
0100
0000
0010
1000
0000
0000
0000
,
0001
0010
0000
0100
1000
0000
0000
0010
0000
0010
0000
0010
0000
0000
1000
0000
,
1001
0000
0000
0000
0110
0000
0000
0000
1100
0000
0000
1010
0000
0000
0000
0000
,
0101
0000
0000
0011
0000
0000
1001
0000
0000
0000
0000
0000
0000
0000
0000
0000
,
0110
0000
2002
0000
,
0000
0000
0000
0000
,
0000
0000
0000
0000
,
0000
0000
0000
0000
,
0000
0000
3003
0000
;

//--------------- dance-single - ----------------
#NOTEDATA:;
#STEPSTYPE:dance-single;
#DESCRIPTION:;
#DIFFICULTY:Hard;
#METER:15;
#RADARVALUES:0,0,0,0,0;
#NOTES:
0000
0000
0000
0000
,
0000
0000
0000
0000
,
0000
0000
0000
0000
,
0000
0000
0000
0000
,
0000
0000
0000
0000
,
0000
0000
0000
0000
,
0000
0000
0000
0000
,
0000
0000
0000
0000
,
0000
0000
0000
0000
,
1000
1000
0100
0000
0110
0000
0000
1000
,
0010
0010
0100
0000
0101
0000
0001
0000
,
1000
1000
0100
0000
0120
0030
0000
0001
,
0100
0100
0010
0000
1010
0000
1000
0000
,
0001
0001
0010
0000
0100
0100
1000
0000
,
0001
0001
0100
0000
0010
0010
1000
0000
,
0001
1000
0100
1000
0001
0100
0010
0100
,
0001
1000
0001
0000
1000
0100
1000
0000
0001
0000
0000
0000
0000
0000
0000
0000
,
0021
0000
0000
1030
0000
0010
0100
1000
0000
0100
1000
0000
0001
0000
0100
0000
,
0120
0000
0000
0031
0000
0010
0100
0001
0000
0100
0001
0000
1000
0000
0100
0000
,
0020
0000
0000
1030
0000
0010
0000
0100
0000
0100
1000
0000
0001
0000
0100
0000
,
0020
0000
0000
0031
0000
0010
0000
0100
0000
0100
0001
0000
2000
0000
0000
0000
,
3100
0000
0100
0000
0010
0100
0000
0010
0000
0100
1000
0000
0001
0000
1000
0000
,
0010
0000
0010
0000
0100
0010
0000
0100
0000
0010
1000
0001
1000
0000
0001
0000
,
0010
0000
0010
0000
0100
0010
0000
0100
0000
0010
0001
0000
1000
0000
0010
0000
,
0100
0000
0000
0000
0102
0000
0000
1000
0000
0000
1000
0000
1000
0000
0000
0000
,
0010
0000
0010
0000
0010
0000
0000
0010
0000
0000
1000
0000
1000
0000
1003
0000
,
0100
0010
0100
0000
1000
0000
0001
0010
0001
0000
1000
0000
0010
0100
0010
0000
,
1000
0001
0010
0001
1000
0100
0001
0000
,
0100
0000
1000
0000
0001
0000
1000
0000
0010
0000
0010
0100
0000
0100
0001
0000
,
1000
0000
0100
0010
0100
0000
1000
0000
0001
0000
0001
0100
0000
0100
0010
0000
,
1000
0001
0010
0001
0100
0010
1000
0100
,
1000
0000
0010
0000
0100
0000
0001
0000
1000
0000
0100
0010
0100
0000
0000
0000
,
0010
0000
0001
0000
1000
0000
0001
0000
0100
0000
0100
0010
0000
0010
1000
0000
,
0001
0000
0010
0100
0010
0000
0001
0000
1000
0000
1000
0010
0000
0010
0100
0000
,
1000
0100
0010
0100
0001
0010
0100
0010
,
1000
0010
0100
0010
0001
0000
2000
0000
,
3100
1002
0000
0103
0010
0010
1000
0001
,
0010
0000
0001
0000
1000
0000
0010
0100
0000
0100
1000
0000
1100
0000
0000
0000
,
0100
0002
1003
0002
0013
0010
0100
0010
,
0001
0000
1000
0000
0010
0000
0100
0010
0000
0010
0001
0000
0011
0000
0000
0000
,
2010
0000
3002
0000
0103
0100
0001
1000
,
0100
0000
1000
0000
0001
0000
0010
0100
0000
0100
0001
0000
0101
0000
0000
0000
,
0100
2000
3001
2000
3010
0010
0100
0010
,
1000
0000
0000
0001
0000
0000
0010
0000
0000
0100
0000
0000
1000
0000
0001
0000
1000
0000
0010
0000
0100
0000
0010
0000
,
1000
0002
0000
0013
0100
0100
1000
0001
,
0100
0000
0010
0000
1000
0000
0001
0010
0000
0010
1000
0000
1010
0000
0000
0000
,
0010
0002
1003
0002
0103
0100
0010
1000
,
0001
0000
0010
0000
0001
0000
1000
0100
0000
0100
0001
0000
0101
0000
0000
0000
,
2100
0000
3002
0000
0013
0010
0001
1000
,
0100
0000
0010
0000
0001
0000
1000
0010
0000
0010
0001
0000
0011
0000
0000
0000
,
0010
2000
3001
2000
3100
0100
0010
0001
,
1000
0000
0000
0010
0000
0000
0100
0000
0000
0001
0000
0000
1000
0000
0001
0000
1000
0000
0002
0000
0000
0000
0000
0000
,
0023
0000
0000
0130
0000
0010
0002
0000
0000
0000
1003
0000
0010
0000
0220
0000
,
0330
2002
3003
1100
0011
0000
1001
0000
,
1020
0000
0000
0130
0000
0010
2000
0000
0000
0000
3001
0000
0010
0000
0220
0000
,
0330
2002
3003
0101
1010
0000
1001
0000
,
0000
0000
0210
0000
,
0000
0000
0000
0000
,
0000
0000
0000
0300
1002
0000
0000
0000
,
0000
0000
0010
0000
,
0000
0000
0000
0003
2000
0000
0000
0000
,
0000
0000
0010
0000
,
0000
0000
0000
3000
1002
0000
0000
0000
,
0000
0000
0100
0000
,
0000
0000
0000
0003
2000
0000
0000
0000
,
0000
0000
3200
0000
,
0320
0000
0000
0000
0000
0000
0030
0000
0001
1000
0001
1000
0001
0000
0000
0000
,
1000
0100
1000
0100
1000
0000
0000
0000
0001
0100
0001
0100
0001
0000
0000
0000
,
1000
0100
1000
0100
1000
0000
0000
0000
0001
0000
0100
0000
0010
0000
1000
0000
,
0001
0000
0010
0000
0100
0000
1000
0000
0001
1000
0001
0000
0100
0010
0100
0000
,
0002
0000
0000
0000
0000
0000
0003
0000
1000
0000
0100
0010
0000
0100
0001
0000
,
0201
0000
0000
0000
0310
0000
1000
0010
0000
0010
0001
0000
0100
0000
0001
0000
,
1000
0010
1000
0010
1000
0000
0000
0000
0001
0000
0100
0010
0000
0100
1000
0000
,
1200
0000
0000
0000
0310
0000
0001
0010
0000
0010
1000
0000
0100
0000
1000
0000
,
1001
0000
0000
0000
0011
0000
0000
0000
1200
0000
0000
0301
0000
0100
0000
0010
,
0000
0010
0001
0000
1000
0000
0010
0000
0200
0000
0000
1300
0000
0100
0000
0010
,
0000
0010
1000
0000
0001
0000
0010
0000
0210
0000
0000
0301
0000
0100
0010
0001
,
0000
0010
0001
0000
1000
0000
0010
0000
0210
0000
0000
1300
0000
0100
0010
1000
,
0000
0010
1000
0000
0001
0000
0010
0000
1000
0000
0000
0000
0000
0000
0010
0001
,
0200
0000
0000
0310
0000
0000
0001
0010
0000
0010
1000
0000
0100
0000
1000
0000
,
0001
1000
0001
1000
0001
0000
0000
0000
1000
0000
0010
0100
0000
0010
0001
0000
,
0021
0000
0000
0000
0130
0000
1000
0100
0000
0100
0001
0000
0010
0000
0001
0000
,
1001
0000
0000
0000
1100
0000
0000
0000
0021
0000
0000
1030
0000
0010
0000
0100
,
0000
0100
1000
0000
0001
0000
0100
0000
0020
0000
0000
0031
0000
0010
0000
0100
,
0000
0100
0001
0000
1000
0000
0100
0000
0120
0000
0000
1030
0000
0010
0100
1000
,
0000
0100
1000
0000
0001
0000
0100
0000
0120
0000
0000
0031
0000
0010
0100
0001
,
0000
0100
0001
0000
1000
0000
0100
0000
0001
0000
0100
0010
0000
0100
0010
0000
,
0001
0000
1000
0010
0000
1000
0010
0100
0000
0001
0000
0100
0000
0001
1000
0000
,
1100
0000
0000
0000
0011
0000
0000
0000
0001
0000
1000
0010
0000
1000
0010
0000
,
0100
0000
0001
1000
0000
0001
1000
0100
0000
0010
0000
0100
0000
0010
0001
0000
,
1001
0000
0000
0000
1010
0000
0000
0000
0101
0000
0100
0010
0000
0100
0010
0000
,
1000
0000
0001
0010
0000
0001
0010
0100
0000
1000
0000
0100
0000
1000
0001
0000
,
0101
0000
0000
0000
1010
0000
0000
0000
1001
0000
0000
1001
0000
0000
0000
0000
,
1100
0000
0000
1100
0000
0000
1100
0000
1000
0000
0001
0100
0000
0100
1000
0000
,
1100
0000
0210
0000
,
0000
0000
0000
0000
0000
0000
0000
0002
0000
0000
0000
0003
0000
0000
0000
0000
,
0000
0000
0000
0000
,
0020
0030
0000
0000
,
2000
3000
0300
0000
;

//--------------- dance-single - ----------------
#NOTEDATA:;
#STEPSTYPE:dance-single;
#DESCRIPTION:;
#DIFFICULTY:Challenge;
#METER:17;
#RADARVALUES:0,0,0,0,0;
#CREDIT:Talkion;
#NOTES:
0000
0000
0000
0000
,
0000
0000
0000
0000
,
0000
0000
0000
0000
,
0000
0000
0000
0000
,
0000
0000
0000
0000
,
0000
0000
0000
0000
,
0000
0000
0000
0000
,
0000
0000
0000
0000
,
0000
0000
0000
0000
0000
0000
0000
0000
0000
0000
0000
0000
0001
0010
0001
0010
,
0100
0100
1000
0000
0001
0100
0010
0100
,
0001
0000
1000
0100
1000
0000
0000
0000
0001
0000
0010
0000
0100
0000
1000
0000
,
0001
0000
0100
0010
0100
0000
0000
0000
0001
0000
1000
0000
0100
0000
1000
0000
,
0001
0000
0010
0100
0010
0000
0000
0000
0001
0000
1000
0000
0010
0000
0100
0000
,
0001
0001
1000
0000
0100
0100
0010
0000
,
0001
0001
1000
0000
0010
0010
0100
0000
,
0001
1000
0100
1000
0001
0100
0010
1000
,
0001
0010
0100
0010
0001
1000
0001
0100
0010
0000
0000
0000
0000
0000
0000
0000
,
1020
0000
0130
1000
0000
0100
0010
1000
0000
0001
1000
0100
0010
1000
0010
0100
,
2000
0000
3100
0001
0000
0100
0010
0001
0000
1000
0010
1000
0001
0000
0100
0010
,
0200
0000
0000
1300
0000
0100
0010
1000
0000
0010
1000
0000
0001
1000
0001
0010
,
0200
0000
0000
0301
0000
0100
0010
0001
0000
0010
0001
0000
2000
0000
0000
0000
,
3010
0000
0010
0000
0010
0100
0000
1000
0000
0100
0010
0000
1000
0001
0100
0001
,
0010
0000
0010
0000
0010
0100
0000
0001
0000
0100
0010
0100
1000
0000
0001
0000
,
0100
0000
0100
0000
0100
0010
0000
0001
0000
0010
0100
0000
0001
1000
0010
1000
,
0100
0000
0000
0000
0120
0000
0000
1000
0000
0000
0100
0000
0001
0000
0000
0000
,
1000
0000
1000
0000
0100
0000
0000
0001
0000
0000
0001
0000
0001
0000
0031
0000
,
1000
0010
1000
0000
0001
0000
0010
0100
0010
0000
0001
0000
1000
0010
1000
0000
,
0001
0100
0010
0100
0001
1000
0100
1000
0001
0010
0100
1000
0010
0000
0000
0000
,
1000
0001
0100
0001
1000
0100
0010
0100
0001
0000
0100
0010
0000
0010
0001
0000
,
1000
0000
0001
0100
0001
1000
0010
0100
1000
0000
0100
0010
0000
0010
1000
0000
,
0001
0010
0100
1000
0010
0100
0001
1000
0100
0010
0001
0100
0010
1000
0001
0010
,
0100
0010
0001
0100
0010
0100
0001
1000
0100
1000
0010
0100
0001
0000
0000
0000
,
1000
0001
0010
0001
1000
0010
0100
0010
0001
0000
0010
0100
0000
0100
0001
0000
,
1000
0000
0001
0010
0001
1000
0100
0010
1000
0000
0010
0100
0000
0100
1000
0000
,
0010
0100
0001
0100
0010
1000
0100
1000
0010
0100
0001
1000
0001
0010
0100
1000
,
0010
0100
0010
1000
0100
0010
0100
1000
0001
0000
0000
0000
0200
0000
0000
0000
,
0310
0000
1002
0000
0000
0000
0013
0000
0100
0010
0001
0000
1000
0001
0100
0001
,
1000
0000
0001
0010
0100
0010
0001
1000
0000
1000
0010
0100
1000
0000
0000
0000
,
0102
0000
1000
0000
0023
0000
0100
0000
0031
1000
0001
0000
0100
0010
1000
0010
,
0100
0000
0001
1000
0100
1000
0001
0010
0000
0010
0100
0010
1000
0000
0000
0000
,
0120
0000
0000
0000
0032
0000
0000
0000
1003
0010
0100
0000
0001
1000
0100
1000
,
0001
0000
1000
0010
0100
0010
1000
0001
0000
0001
0010
0100
0001
0000
0000
0000
,
2100
0000
0001
0000
3020
0000
0100
0000
1030
0001
1000
0000
0100
0010
0001
0010
,
0100
0000
0000
0000
0000
0000
1000
0000
0000
0001
0000
0000
0100
0000
0000
0010
0000
0000
0100
0000
0000
0001
0000
0000
1000
0000
0000
0000
0100
0000
0000
0000
0010
0000
0000
0000
0001
0000
0000
0000
0100
0000
0000
0000
0010
0000
0000
0000
,
1000
0000
2001
0000
0000
0000
3100
0000
0010
0100
1000
0000
0001
1000
0010
1000
,
0001
0000
1000
0100
0010
0100
1000
0001
0000
0001
0100
0010
0001
0000
0000
0000
,
2010
0000
0001
0000
3200
0000
0010
0000
1300
0001
1000
0000
0010
0100
0001
0100
,
0010
0000
1000
0001
0010
0001
1000
0100
0000
0100
0010
0100
0001
0000
0000
0000
,
0210
0000
0000
0000
2300
0000
0000
0000
3001
0100
0010
0000
1000
0001
0010
0001
,
1000
0000
0001
0100
0010
0100
0001
1000
0000
1000
0100
0010
1000
0000
0000
0000
,
0012
0000
1000
0000
0203
0000
0010
0000
0301
1000
0001
0000
0010
0100
1000
0100
,
0010
0000
0000
0011
0000
0000
1001
0000
0000
1010
0000
0000
0010
0000
0100
0000
0001
0000
2000
0000
0000
0000
0000
0000
,
3200
0000
0000
0310
0000
0100
2000
0000
0000
0000
3001
0000
0100
0000
0220
0000
,
0330
2002
3003
0011
1100
0000
1001
0000
,
0201
0000
0000
0310
0000
0100
0002
0000
0000
0000
1003
0000
0100
0000
0220
0000
,
0330
2002
3003
1010
0101
0000
1001
0000
,
0000
0000
0120
0000
,
0000
0000
0000
0000
0000
0000
0000
0000
0000
0000
0030
0000
1000
0010
0100
0001
,
1000
0010
0100
0001
1000
0010
0100
0001
2000
0000
0000
0000
0000
0000
0000
0000
,
0000
0000
0100
0000
,
0000
0000
0000
3000
0002
0000
0000
0000
,
0000
0000
0100
0000
,
0000
0000
0000
0003
2001
0000
0000
0000
,
0000
0000
0010
0000
,
0000
0000
0000
3000
0002
0000
0000
0000
,
0000
0000
0023
0000
,
0230
0000
0000
0000
0000
0000
0300
0000
0010
0001
1000
0001
0100
0000
0000
0000
,
0100
1000
0001
1000
0010
0000
0000
0000
0010
0001
1000
0001
0100
0000
0000
0000
,
0100
1000
0001
1000
0010
0000
0000
0000
0200
0000
0302
0000
2003
0000
3200
0000
,
0320
0000
0032
0000
2003
0000
3020
0000
0130
0001
1000
0100
0010
0001
1000
0010
,
0200
0000
0000
0000
0000
0000
0300
0000
0010
0000
1000
0001
0000
1000
0100
0010
,
2000
0000
0000
3010
0100
0000
0001
0100
0000
0100
1000
0000
0010
0000
0100
0010
,
1000
0100
0010
0100
1000
0000
0000
0000
0001
0000
0010
0001
0000
1000
0010
0100
,
2000
0000
0000
3100
0010
0000
0001
0010
0000
0010
1000
0000
0100
0000
0010
0100
,
1000
0000
0000
0000
1001
0000
0000
0000
0201
0000
0000
1300
0000
0100
0010
1000
,
0000
0010
1000
0000
0001
1000
0001
0010
0200
0000
0000
0301
0000
0100
0010
0001
,
1000
0000
0010
0100
0000
0010
0100
0000
0201
0000
0310
0001
0000
0010
0100
0001
,
0000
1000
0001
0010
0100
0001
0100
0010
0002
0000
0013
1000
0000
0010
0001
0100
,
0000
0010
0100
0010
0001
0000
1000
0000
1100
0000
0000
0000
0000
0000
1000
0100
,
0002
0000
0000
0013
0000
0000
1000
0010
0000
0010
0001
0000
0100
0000
0010
0100
,
0001
0010
0100
0010
0001
0000
0000
0000
1000
0000
0100
1000
0000
0001
0100
0010
,
0002
0000
0000
0013
0100
0000
1000
0100
0000
0100
0001
0000
0010
0000
0100
0010
,
0001
0000
0000
0000
1001
0000
0000
0000
1020
0000
0000
0031
0000
0010
0100
0001
,
0000
0100
0001
0000
1000
0001
1000
0100
0020
0000
0000
1030
0000
0010
0100
1000
,
0001
0000
0100
0010
0000
0100
0010
0000
1020
0000
0130
1000
0000
0100
0010
1000
,
0000
0001
1000
0100
0010
1000
0010
0100
2000
0000
3100
0001
0000
0100
1000
0010
,
0000
0100
0010
0100
1000
0000
0001
0000
0010
0100
0001
1000
0000
1000
0100
0010
,
0100
1000
0001
0010
0000
0010
1000
0010
0000
0010
0001
0100
0000
0100
1000
0100
,
0020
0000
0030
0000
2002
0000
3003
0000
1000
0100
1000
0001
0000
0001
0100
0010
,
0100
0001
1000
0010
0000
0010
0001
0010
0000
0010
1000
0100
0000
0100
0001
0100
,
0020
0000
0030
0000
2002
0000
3003
0000
0001
0100
0001
1000
0000
1000
0100
0010
,
0100
1000
0001
0010
0000
0010
1000
0010
0000
0010
0001
0100
0000
0100
1000
0100
,
0020
0000
0030
0000
2002
0000
3003
0000
1010
0000
0000
1010
0000
0000
0000
0000
,
0011
0000
0000
0011
0000
0000
1000
0000
1100
0000
0001
1000
0000
0001
0100
0010
,
0001
0000
0120
0000
,
0000
0000
0000
0000
0000
0000
0000
2000
0000
0000
0000
3000
0000
0000
0000
0000
,
0000
0000
0000
0000
,
0200
0300
0000
0000
,
0002
0003
0030
0000
;
