#VERSION:0.83;
#TITLE:Delrio;
#SUBTITLE:;
#ARTIST:MiddleIsland;
#TITLETRANSLIT:;
#SUBTITLETRANSLIT:;
#ARTISTTRANSLIT:;
#GENRE:;
#ORIGIN:;
#TAGS:;
#CREDIT:;
#BANNER:Delrio.png;
#BACKGROUND:Delrio-bg.png;
#PREVIEWVID:;
#JACKET:Delrio-jacket.png;
#CDIMAGE:;
#DISCIMAGE:;
#LYRICSPATH:;
#CDTITLE:cdtitle.png;
#MUSIC:Delrio.ogg;
#OFFSET:0.000000;
#SAMPLESTART:30.222000;
#SAMPLELENGTH:15.111000;
#SELECTABLE:YES;
#BPMS:0.000000=135.000000;
#STOPS:;
#DELAYS:;
#WARPS:;
#TIMESIGNATURES:0.000000=4=4;
#TICKCOUNTS:0.000000=4;
#COMBOS:0.000000=1;
#SPEEDS:0.000000=1.000000=0.000000=0;
#SCROLLS:0.000000=1.000000;
#FAKES:;
#LABELS:0.000000=Song Start;
#BGCHANGES:;
#KEYSOUNDS:;
#ATTACKS:
;

//---------------dance-single - MEGAtive----------------
#NOTEDATA:;
#CHARTNAME:;
#CHARTHASH:2074576377:
#STEPSTYPE:dance-single;
#BANNER:;
#DESCRIPTION:MEGAtive;
#CHARTSTYLE:;
#DIFFICULTY:Beginner;
#METER:4;
#METERF:0.000000;
#RADARVALUES:0.189821,0.214861,0.028271,0.245017,0.000000,141.000000,138.000000,3.000000,26.000000,0.000000,0.000000,0.000000,0.000000,0.000000,0.189821,0.214861,0.028271,0.245017,0.000000,141.000000,138.000000,3.000000,26.000000,0.000000,0.000000,0.000000,0.000000,0.000000;
#CREDIT:;
#NOTES:
// measure 0
0000
0000
0000
0000
,  // measure 1
0000
0000
0000
0000
,  // measure 2
0000
0000
0000
0000
,  // measure 3
0000
0000
0000
0000
,  // measure 4
0000
0000
0000
0000
,  // measure 5
0001
0000
0000
0000
,  // measure 6
1000
0000
0000
0000
,  // measure 7
0100
0000
0000
0000
,  // measure 8
0000
0000
0000
0000
,  // measure 9
0001
0000
1000
0010
,  // measure 10
0100
0000
0010
0100
,  // measure 11
0001
0000
1000
0100
,  // measure 12
0010
0000
0100
0010
,  // measure 13
0002
0000
1003
0000
,  // measure 14
0020
0000
0130
0000
,  // measure 15
0001
1000
0001
1000
,  // measure 16
0200
0000
0310
0000
,  // measure 17
1001
0000
1000
0010
,  // measure 18
0100
0001
0020
0000
,  // measure 19
0130
1000
0100
0010
,  // measure 20
0002
0000
0000
0000
,  // measure 21
1003
0010
0100
0010
,  // measure 22
0200
0000
0301
1000
,  // measure 23
0001
0010
0100
0010
,  // measure 24
0002
0000
1003
0100
,  // measure 25
0020
0000
0130
0000
,  // measure 26
1000
0100
0001
0000
,  // measure 27
0100
0010
0001
0000
,  // measure 28
1000
0010
0001
0000
,  // measure 29
0020
0000
0130
0000
,  // measure 30
0001
1000
0100
0010
,  // measure 31
0100
1000
0002
0000
,  // measure 32
1003
0010
0100
0001
,  // measure 33
0020
0000
0130
1000
,  // measure 34
0002
0000
0013
0100
,  // measure 35
0020
0000
0031
1000
,  // measure 36
0002
0000
0203
0000
,  // measure 37
0320
0000
1030
0000
,  // measure 38
1000
0100
0010
0001
,  // measure 39
0200
0000
0310
1000
,  // measure 40
0001
0010
0100
0010
,  // measure 41
0002
0000
0000
0000
,  // measure 42
1003
0100
1000
0001
,  // measure 43
0020
0000
0000
0130
0000
0000
0000
0000
,  // measure 44
1000
0001
0100
0010
,  // measure 45
0200
0000
0000
0000
,  // measure 46
0320
0000
1030
0000
,  // measure 47
0001
0010
1000
0000
,  // measure 48
0010
0100
1000
0000
,  // measure 49
0001
0100
1000
0000
,  // measure 50
0200
0000
0310
0000
,  // measure 51
1000
0100
0001
0000
,  // measure 52
0100
0010
0001
0000
,  // measure 53
1000
0010
0001
0000
,  // measure 54
0020
0000
0130
0000
,  // measure 55
1001
0000
0000
0000
,  // measure 56
2000
0000
3001
2002
,  // measure 57
3003
0000
0000
0000
;

//---------------dance-single - MEGAtive----------------
#NOTEDATA:;
#CHARTNAME:;
#CHARTHASH:571683952:
#STEPSTYPE:dance-single;
#BANNER:;
#DESCRIPTION:MEGAtive;
#CHARTSTYLE:;
#DIFFICULTY:Easy;
#METER:7;
#METERF:0.000000;
#RADARVALUES:0.289443,0.349150,0.065966,0.310983,0.018847,215.000000,208.000000,7.000000,33.000000,0.000000,0.000000,0.000000,0.000000,0.000000,0.289443,0.349150,0.065966,0.310983,0.018847,215.000000,208.000000,7.000000,33.000000,0.000000,0.000000,0.000000,0.000000,0.000000;
#CREDIT:;
#NOTES:
0000
0000
0000
0000
,
0000
0000
0000
0000
,
0000
0000
0000
0000
,
0000
0000
0000
0000
,
0000
0000
0000
0000
,
0001
0000
1000
0200
0000
0300
0000
0000
,
1000
0000
0001
0200
0000
0300
0000
0000
,
0001
0000
1000
0200
0000
0300
0000
0000
,
2000
0000
3001
0000
,
0002
0000
0203
0000
,
0310
1000
0200
0000
,
0320
0000
0032
0000
,
1003
0010
0100
0001
,
0020
0000
0000
0130
,
2000
0000
0000
0000
0000
0000
0000
0000
0000
0000
0000
0000
0000
0000
0000
0000
0000
0000
0000
0000
0000
0000
0000
0000
0000
0000
0000
0000
0000
0000
0000
0000
0000
0000
0000
0000
0000
0000
0000
0000
0000
0000
0000
0000
0000
0000
0000
0000
0000
0000
0000
0000
0000
0000
0000
0000
0000
0000
0000
0000
0000
0000
0000
0000
0000
0000
0000
0000
0000
0000
0000
0000
0000
0000
0000
0000
0000
0000
0000
0000
0000
0000
0000
0000
0000
0000
0000
0000
0000
0000
0000
0000
0000
0000
0000
3000
0002
0000
0000
0000
0000
0000
0000
0000
0000
0000
0000
0000
0000
0000
0000
0000
0000
0000
0000
0000
0000
0000
0000
0000
0000
0000
0000
0000
0000
0000
0000
0000
0000
0000
0000
0000
0000
0000
0000
0000
0000
0000
0000
0000
0000
0000
0000
0000
0000
0000
0000
0000
0000
0000
0000
0000
0000
0000
0000
0000
0000
0000
0000
0000
0000
0000
0000
0000
0000
0000
0000
0000
0000
0000
0000
0000
0000
0000
0000
0000
0000
0000
0000
0000
0000
0000
0000
0000
0000
0000
0000
0000
0000
0000
0000
0000
,
0103
0010
1000
0001
,
0020
0000
0030
1001
,
0001
0000
0010
0000
0100
0010
0100
0000
,
1000
0000
0001
0000
0100
0010
0100
0010
,
1000
0000
0100
0000
0010
0100
0010
0000
,
0001
0000
1000
0000
0010
0100
0010
0100
,
0002
0000
1000
0000
0013
0000
0100
0010
,
0200
1000
0310
0100
,
1000
0000
0001
0100
0001
0000
0010
0000
,
0100
0000
1000
0100
1000
0000
0001
0000
,
0200
0000
0310
0000
,
1000
0010
0100
0020
0000
0030
0000
0000
,
1000
0100
0010
0200
0000
0310
0000
0000
,
0001
0100
0010
0200
0000
0300
0000
0000
,
0002
0000
0013
0000
,
0001
0000
0010
0100
0010
0000
0001
0000
,
1000
0000
0010
0100
0010
0100
0001
0000
,
1000
0000
0100
1000
0001
0010
0001
0000
,
2000
0000
0000
0000
3010
0100
0010
0000
,
1000
0000
0100
0010
0100
0000
1000
0000
,
0001
0000
0100
0010
0100
0010
1000
0000
,
0001
0010
0001
0000
1000
0010
1000
0000
,
0200
0000
0300
1001
,
0001
0100
0001
0000
1000
0100
1000
0000
,
0001
0000
0010
0100
0010
0000
0100
0000
,
2000
0010
0010
0001
,
3002
0000
0000
0000
0000
0000
1003
0100
,
1000
0000
0001
0000
0010
0100
0010
0100
,
1000
0000
0000
1001
0000
0000
0000
0000
,
0001
0000
1000
0010
1000
0000
0010
0000
,
0100
0000
0001
1000
0001
0000
0010
0000
,
0200
0000
0310
0000
,
0001
0010
0001
2000
0000
3000
0000
0000
,
1000
0010
1000
0002
0000
0003
0000
0000
,
0001
0010
0001
2000
0000
3000
0000
0000
,
0001
0000
0000
0001
0000
0000
1000
0000
0010
0000
0000
0000
1001
0000
0000
0000
,
1000
0010
1000
0002
0000
0003
0000
0000
,
0001
0010
0001
2000
0000
3000
0000
0000
,
1000
0010
1000
0002
0000
0003
0000
0000
,
1000
0000
0000
1000
0000
0000
0001
0000
0010
0000
0000
0000
0110
0000
0000
0000
,
1001
0000
0000
0000
,
1000
0000
0000
1000
0000
0000
0001
0000
0100
0000
0000
0000
2002
0000
0000
0000
,
3003
0000
0000
0000
;

//---------------dance-single - MEGAtive----------------
#NOTEDATA:;
#CHARTNAME:;
#CHARTHASH:2147483647:
#STEPSTYPE:dance-single;
#BANNER:;
#DESCRIPTION:MEGAtive;
#CHARTSTYLE:;
#DIFFICULTY:Medium;
#METER:11;
#METERF:0.000000;
#RADARVALUES:0.475226,0.483438,0.292136,0.442916,0.160204,353.000000,322.000000,31.000000,47.000000,0.000000,0.000000,0.000000,0.000000,0.000000,0.475226,0.483438,0.292136,0.442916,0.160204,353.000000,322.000000,31.000000,47.000000,0.000000,0.000000,0.000000,0.000000,0.000000;
#CREDIT:;
#NOTES:
0000
0000
0000
0000
,
0000
0000
0000
0000
,
0000
0000
0000
0000
,
0000
0000
0000
0000
,
0000
0000
0000
0000
,
1000
0000
0001
0020
0000
0130
0010
0000
,
0001
0000
1000
0020
0000
0130
0010
0000
,
1000
0000
0100
0020
0000
0031
0010
0000
,
0001
0000
0000
1001
0000
0000
0100
0000
0110
0000
0000
0000
0000
0000
0000
0000
,
2000
0000
0000
3020
0000
0000
0130
0000
2000
0000
0000
0000
3200
0000
0000
0000
,
0302
0000
0000
0023
0000
0000
0130
0000
2000
0000
0000
0000
3001
0000
0000
0000
,
2000
0000
0000
3200
0000
0000
0310
0000
2000
0000
0000
0000
3010
0000
0100
0000
,
0020
0001
0100
0032
,
2003
0000
0010
0000
0001
0000
3100
0010
,
0002
0000
1000
0000
0103
0020
0000
1030
,
0200
0000
0000
0302
0000
0000
0103
0000
0020
0000
0000
0000
0130
0000
1000
0000
,
0001
0000
0000
1001
0000
0000
0100
0000
0110
0000
0000
0000
1001
0000
0000
0000
,
1000
0000
0010
0100
0000
0000
1000
0000
0100
0000
0010
0000
0100
0000
0000
0000
,
0001
0000
0010
0100
0000
0000
0001
0000
0100
0000
0010
0000
0100
0000
1000
0000
,
0001
0000
0100
0010
0000
0000
0001
0000
0010
0000
0100
0000
0010
0000
1000
0000
,
1000
0000
0100
0010
0000
0000
1000
0000
0010
0000
0100
0000
0020
0000
0000
0000
,
0031
0000
1000
0200
0000
0000
0301
0000
0100
0000
0010
0000
0001
0000
0100
0000
,
0020
0000
0000
0032
0000
0000
0013
0000
2000
0000
0000
0000
3100
0000
0010
0000
,
0200
0000
0000
0302
0000
0000
0103
0000
0020
0000
0000
0230
0000
0000
1300
0000
,
0001
0000
0100
0010
0000
0000
0001
0000
0010
0000
0100
0000
0010
0000
1000
0000
,
0001
0000
0000
0011
0000
0000
1000
0000
1010
0000
0000
0000
0000
0000
0000
0000
,
0001
1000
0100
0001
0100
0010
0100
0010
,
0001
1000
0010
0001
0010
0100
0010
0100
,
0001
1000
0100
0001
0100
0010
0100
0010
,
0001
0000
0000
0011
0000
0000
1000
0000
2020
0000
3030
0000
0000
0000
0000
0000
,
1000
0000
0000
0001
0020
0000
0000
0000
0030
0100
0010
0000
0001
0000
0100
0000
,
1000
0100
0010
1000
0002
0000
1003
0100
,
0001
0100
0010
0100
1000
0001
0100
0010
,
0200
0000
0000
0000
0000
0310
0000
0010
1000
0000
0002
0000
0000
0013
0000
0010
,
0001
0000
0000
1000
0200
0000
0000
0000
0000
0000
0301
0000
0100
0000
1000
0000
,
0002
0000
0103
1000
0100
0010
0100
0001
,
0020
0100
0000
0000
1000
0000
0000
0000
0031
0000
0010
0000
0001
0000
0100
0000
,
0010
0000
0000
0110
0000
0000
1000
0000
1001
0000
0000
0000
0110
0000
0000
0000
,
1000
0010
0001
0010
0100
0001
0010
1000
,
0020
0000
0130
1000
0001
0100
0010
0100
,
0002
0203
2300
3002
,
0013
0000
0000
0110
0000
0000
0100
0000
0001
0000
1000
0000
0100
0000
0010
0000
,
0200
0000
1000
0000
0310
0001
0100
1000
,
0100
0000
0000
0110
0000
0000
1001
0000
0000
0000
0001
0000
0010
0000
0001
0000
,
1000
0000
0000
1100
0000
0000
0011
0000
0000
0000
0001
0000
0010
0000
0100
0000
,
1000
0000
0000
1010
0000
0000
0101
0000
0000
0000
0001
0000
0100
0000
0010
0000
,
1000
0000
0000
1001
0000
0000
0010
0000
0110
0000
0000
0000
0000
0000
0000
0000
,
1000
0100
0001
0100
0010
0100
0010
0001
,
1000
0010
0001
0010
0100
0010
0100
0001
,
1000
0100
0001
0100
0010
0100
0010
0001
,
1000
0000
0000
1010
0000
0000
0001
0000
0011
0000
0000
0000
1001
0000
0000
0000
,
0001
0100
1000
0100
0010
0100
0010
1000
,
0001
0010
1000
0010
0100
0010
0100
1000
,
0001
0100
1000
0100
0010
0100
0010
1000
,
0001
0000
0000
0011
0000
0000
1000
0000
1010
0000
0000
0000
0110
0000
0000
0000
,
1001
0000
0000
0000
,
1000
0000
0000
1100
0000
0000
0001
0000
0101
0000
0000
0000
2002
0000
0000
0000
,
3003
0000
0000
0000
;

//---------------dance-single - MEGAtive----------------
#NOTEDATA:;
#CHARTNAME:;
#CHARTHASH:2147483647:
#STEPSTYPE:dance-single;
#BANNER:;
#DESCRIPTION:MEGAtive;
#CHARTSTYLE:;
#DIFFICULTY:Hard;
#METER:14;
#METERF:0.000000;
#RADARVALUES:0.597734,0.671441,0.358102,0.508882,0.381661,444.000000,406.000000,38.000000,54.000000,0.000000,0.000000,0.000000,0.000000,0.000000,0.597734,0.671441,0.358102,0.508882,0.381661,444.000000,406.000000,38.000000,54.000000,0.000000,0.000000,0.000000,0.000000,0.000000;
#CREDIT:;
#NOTES:
0000
0000
0000
0000
,
0000
0000
0000
0000
,
0000
0000
0000
0000
,
0000
0000
0000
0000
,
0000
0000
0000
0000
,
1000
0010
0100
0001
0010
0100
0010
0100
,
1000
0100
0010
0001
0100
0010
0100
0010
,
1000
0010
0100
0001
0010
0100
0010
0100
,
1000
0000
1000
0010
0000
0100
0001
0000
2002
0000
0000
0000
3003
0000
0000
0000
,
1000
0000
0100
0020
0000
0000
0130
0000
2000
0000
0000
0000
3020
0000
0000
0000
,
0032
0000
0000
2003
0000
0000
3200
0000
0302
0000
0000
0000
1003
0000
0000
0000
,
1000
0000
0010
0200
0000
0000
0301
0000
0020
0000
0000
0000
2030
0000
3010
0100
,
0020
0100
0001
0230
,
2300
0000
0000
0000
3001
0000
0100
0000
0020
0000
0000
0000
0130
1000
0100
0000
,
0020
0000
1030
0100
0010
0002
0000
0010
,
2003
0000
0000
3200
0000
0000
0302
0000
2003
0000
0000
0000
3010
0000
0001
0000
,
0011
0000
0000
0110
0000
0000
1100
0000
1001
0000
0000
0000
0110
0000
0000
0000
,
1000
0000
0010
0100
0010
0000
0001
0000
0010
0000
1000
0000
0002
0000
0000
0000
,
1003
0000
0100
0010
0100
0000
0001
0000
0200
0000
0000
0000
0310
0000
0001
0000
,
1000
0000
0100
0010
0100
0000
0001
0000
0100
0000
1000
0000
0002
0000
1003
0010
,
0100
0000
0010
0100
0010
0000
0001
0000
0010
0000
1000
0000
0001
0000
0001
0000
,
0101
0000
0100
2000
0000
0000
3100
0000
0001
0000
1000
0000
0100
0010
0100
0000
,
0001
0000
0100
0020
0000
0000
0130
0000
1000
0000
0001
0000
0100
0000
0010
0100
,
0020
0000
0000
0031
0010
0000
0100
0000
0002
0000
0000
0013
0100
0000
1000
0000
,
0100
0000
0010
0100
0000
0000
0001
0000
0100
0000
0010
0000
0001
0000
0100
0000
,
0101
0000
0000
1010
0000
0000
0110
0000
1001
0000
0000
0000
0000
0000
0000
0000
,
1002
0000
0000
1003
0010
0000
0001
0000
0010
0000
0100
0000
0001
0000
0001
0000
,
2000
0000
0000
3001
0010
0000
1000
0000
0010
0000
0100
0000
1000
0000
1000
0000
,
0002
0000
0000
1003
0010
0000
0001
0000
0010
0000
0100
0000
0001
0000
0001
0000
,
0101
0000
0100
0010
0000
1000
0100
0000
2200
0000
3300
0000
0000
0000
0000
0000
,
1000
0000
0001
0010
0200
0000
0010
0000
0000
1300
0001
1000
0020
0000
0031
0000
,
0010
0000
0100
0000
0001
1000
0100
0020
0000
0000
0100
0000
0130
0000
0010
0001
,
0010
0000
0100
1000
0010
0000
0001
0010
0100
0000
0010
1000
0100
0000
0010
0000
,
0200
0000
0000
1300
0000
0001
0100
0010
0100
0000
1000
0000
0100
0000
0010
0100
,
0001
0000
0010
0100
0020
0000
0001
0000
0000
0000
0130
1000
0100
0000
0010
0000
,
0002
0000
0000
0000
1003
0000
0010
0100
0010
0000
0001
0000
1000
0000
0100
0000
,
0010
0100
0010
0000
1000
0001
1000
0000
0100
0000
0010
0000
0001
0000
0100
0000
,
0101
0000
0000
1010
0000
0000
0110
0000
0110
0000
0000
0000
1001
0000
0000
0000
,
0001
0010
0100
0000
1000
0010
0100
0000
0001
0010
0100
0000
1000
0010
0100
0001
,
0020
0000
0000
0000
1030
0010
0100
0010
0001
1000
0001
0000
0100
0010
0100
0000
,
0002
0000
0000
0013
0200
0000
0000
0301
0200
0000
0000
0310
0002
0000
0000
0103
,
0020
0000
0000
0032
0000
0000
0013
0000
0100
0000
0001
1000
0001
0000
0010
0000
,
0110
0000
0100
0002
0000
0000
0103
0000
0010
0000
0100
0000
1000
0000
0010
0000
,
0100
1000
0100
0010
0000
0000
0210
0000
0000
0000
0310
0000
0001
0000
0010
0000
,
1000
0001
0010
0100
0000
0000
0110
0000
0010
0000
0100
1000
0010
0000
0001
0010
,
0100
0000
0001
0020
0000
0000
0130
0000
0001
0000
0100
0000
0010
0000
0100
0000
,
1100
0000
0000
1010
0000
0000
0101
0000
0101
0000
0000
0000
0000
0000
0000
0000
,
0001
0000
0010
0100
0010
0000
1000
0000
0010
0000
0100
0000
1000
0000
0001
0000
,
0100
0000
0010
1000
0010
0000
0001
0000
0010
0000
0100
0000
0010
0000
1000
0000
,
0001
0000
0010
0100
0010
0000
1000
0000
0010
0000
0100
0000
1000
0000
0001
0000
,
0011
0000
0000
1010
0000
0000
0110
0000
1001
0000
0000
0000
0110
0000
0000
0000
,
1000
0000
0010
0100
0010
0000
0001
0000
0010
0000
0100
0000
0001
0000
1000
0000
,
0100
0000
0010
0001
0010
0000
1000
0000
0010
0000
0100
0000
0010
0000
0001
0000
,
1000
0000
0010
0100
0010
0000
0001
0000
0010
0000
0100
0000
0001
0000
1000
0000
,
1010
0000
0010
1000
0000
0100
0010
0000
0110
0000
0000
0000
1001
0000
0000
0000
,
0202
0000
0303
0000
,
0101
0000
0100
0001
0000
0010
0100
0000
0110
0000
0000
0000
2002
0000
0000
0000
,
3003
0000
0000
0000
;
