#VERSION:0.83;
#TITLE:Death to the Feedback Loop;
#SUBTITLE:;
#ARTIST:dj VERTICAI;
#TITLETRANSLIT:;
#SUBTITLETRANSLIT:;
#ARTISTTRANSLIT:;
#GENRE:;
#ORIGIN:;
#CREDIT:;
#BANNER:Death to the Feedback Loop.png;
#BACKGROUND:Death to the Feedback Loop-bg.png;
#PREVIEWVID:;
#JACKET:Death to the Feedback Loop-jacket.png;
#CDIMAGE:;
#DISCIMAGE:;
#LYRICSPATH:;
#CDTITLE:;
#MUSIC:Death to the Feedback Loop.ogg;
#OFFSET:-0.040000;
#SAMPLESTART:28.975033;
#SAMPLELENGTH:15.000000;
#SELECTABLE:YES;
#DISPLAYBPM:149.000000;
#BPMS:0.000=149.000,
64.000=37.250,
64.500=74.500,
65.000=149.000,
202.000=37.250,
202.500=74.500,
203.000=149.000;
#STOPS:64.000=1.611,
202.000=1.611,
276.000=1.611;
#DELAYS:;
#WARPS:;
#TIMESIGNATURES:0.000=4=4;
#TICKCOUNTS:0.000=4;
#COMBOS:0.000=1;
#SPEEDS:0.000=1.000=0.000=0;
#SCROLLS:0.000=1.000;
#FAKES:;
#LABELS:0.000=Song Start;
#BGCHANGES:;
#KEYSOUNDS:;
#ATTACKS:
;

//---------------dance-single - ----------------
#NOTEDATA:;
#CHARTNAME:;
#STEPSTYPE:dance-single;
#DESCRIPTION:;
#CHARTSTYLE:;
#DIFFICULTY:Hard;
#METER:14;
#RADARVALUES:0.650853,0.938018,0.624545,0.352307,0.608531,569.000000,491.000000,78.000000,44.000000,0.000000,0.000000,0.000000,0.000000,0.000000,0.650853,0.938018,0.624545,0.352307,0.608531,569.000000,491.000000,78.000000,44.000000,0.000000,0.000000,0.000000,0.000000,0.000000;
#CREDIT:;
#DISPLAYBPM:149.000000;
#NOTES:
// measure 0
0000
0000
0000
0000
,  // measure 1
0000
0000
0000
0000
,  // measure 2
0000
0000
0000
0000
,  // measure 3
0000
0000
0000
0000
,  // measure 4
1000
0000
0000
0100
0000
0000
0100
0000
0010
0000
0000
0100
0000
0000
0100
0000
,  // measure 5
0001
0000
0000
0100
0000
0000
0100
0000
1000
0000
0000
0001
0000
0001
0100
0000
,  // measure 6
0001
0000
0000
0100
0000
0000
0100
0000
0010
0000
0000
0100
0000
0000
0100
0000
,  // measure 7
1000
0000
0000
0100
0000
0000
0100
0000
0010
0100
0000
0001
0000
0001
1000
0000
,  // measure 8
2100
0000
0000
0100
0000
0000
0001
0000
0010
0000
0000
0010
0000
0000
3001
0000
,  // measure 9
0102
0000
0000
0100
0000
0000
1000
0000
1000
0000
0000
0010
0000
0000
1003
0000
,  // measure 10
1020
0000
0000
1000
0000
0000
0100
0000
0001
0000
0000
0001
0000
0000
0130
0000
,  // measure 11
0210
0000
0000
0310
0000
0000
0010
1000
0001
0000
0000
0010
0000
0000
0100
0000
,  // measure 12
1100
0000
0000
1100
0000
0000
0001
0000
0011
0000
0000
0011
0000
0000
1000
0000
,  // measure 13
1010
0000
0000
1010
0000
0000
0001
0000
0101
0000
0000
1001
0000
1000
0001
0100
,  // measure 14
0001
0000
0000
0110
0000
0000
1000
0000
0001
0000
0000
0110
0000
0000
0001
0000
,  // measure 15
1001
0000
0000
1100
0000
0000
0011
0000
0001
0000
1000
0000
0001
0100
0010
2000
,  // measure 16
0000
3000
1001
1001
,  // measure 17
1100
0001
0011
0000
0101
0000
0100
0010
,  // measure 18
0100
0000
0000
0100
0001
0000
0000
0000
2000
0000
0000
0000
3001
0000
0010
0000
,  // measure 19
0100
0000
0000
0110
0000
0000
0010
0000
0100
1000
0000
1000
0100
0000
1000
0000
,  // measure 20
0002
1003
0002
0000
0103
0000
1010
0000
,  // measure 21
0010
0100
0001
0100
0010
1000
1000
1000
,  // measure 22
0200
0000
1300
0000
0200
0000
0301
0000
0100
0000
0000
0100
0010
0000
0010
0001
,  // measure 23
1000
0000
0000
1000
0010
0000
0100
0000
0001
0000
1000
0000
0100
1000
0000
0100
,  // measure 24
0010
0000
0000
0000
1001
0000
0000
0000
0101
0000
0000
1000
0100
1000
0000
0001
,  // measure 25
0010
0000
0010
0000
0100
0000
0100
0000
0010
0000
0001
0000
0100
0000
0000
0100
,  // measure 26
0010
0000
1000
0000
0001
0000
0000
1000
0100
0000
0010
0000
0110
0000
0100
0000
,  // measure 27
2000
3001
2000
3001
0200
0320
2030
3001
,  // measure 28
0101
0000
2200
3300
2200
3300
0001
0001
,  // measure 29
1000
0010
0000
0010
0100
0000
0001
0000
0010
0000
0020
0000
0130
0000
1000
0000
,  // measure 30
0100
0000
0200
0000
0300
0000
0010
0000
0011
0000
0000
1100
0000
0000
1001
0000
,  // measure 31
0000
0001
0200
0000
0310
1000
0001
0010
,  // measure 32
0100
1000
0100
1000
0001
0100
0001
0100
0001
0000
0000
0100
0020
0000
0000
0000
,  // measure 33
0100
0000
0000
0100
0000
0000
0100
0000
1000
0000
0000
1000
0000
0000
1000
0000
,  // measure 34
0100
0000
0000
0100
0000
0000
1000
0001
0000
0000
0000
0001
0000
0000
0001
0000
,  // measure 35
0100
0000
0000
0100
0000
0000
0100
0000
1000
0000
0000
1000
0000
0000
1000
0000
,  // measure 36
0100
0000
0000
0031
0000
0000
1001
0000
0101
0000
0000
0000
1200
0000
0000
0000
,  // measure 37
0010
0000
0000
0010
0000
0000
0010
0000
1000
0000
0000
1000
0000
0000
1000
0000
,  // measure 38
0010
0000
0000
0010
0000
0000
1000
0001
0000
0000
0000
0001
0000
0000
0001
0000
,  // measure 39
0010
0000
0000
0010
0000
0000
0010
0000
1000
0000
0000
1000
0000
0000
1000
0000
,  // measure 40
0310
0000
0110
0000
0000
1001
0000
0000
0101
0000
0000
0101
0000
0000
0001
0000
,  // measure 41
0010
0000
0110
0000
0000
1001
0000
0000
1100
0000
0000
1100
0000
0000
0100
0010
,  // measure 42
0100
0000
1100
0000
0000
0011
0000
0000
1010
0000
0000
1010
0000
0000
0010
0000
,  // measure 43
0100
0000
0101
0000
0000
1010
0000
0000
0011
0000
0000
0011
0000
0000
0010
0000
,  // measure 44
0001
0100
0000
0010
0000
1000
0000
0100
0010
0000
0000
0110
0000
0000
0100
0000
,  // measure 45
1000
0000
1001
0000
0000
1100
0000
0000
0011
0000
0000
1100
0000
0000
0100
0010
,  // measure 46
0001
0000
1001
0000
0000
0101
0000
0000
1010
0000
0000
0101
0000
0000
0001
0000
,  // measure 47
1000
0000
1010
0000
0000
0011
0000
0000
1001
0000
0000
0110
0000
0000
0001
1000
,  // measure 48
0001
0000
0000
0100
0000
0000
0010
0100
0010
0100
0010
0100
0010
0100
0010
0100
,  // measure 49
0010
0100
0010
0100
0010
0100
0010
0100
0010
0100
0010
0100
0010
0100
0010
0100
,  // measure 50
0010
0100
0010
0100
0010
0100
0010
0100
0020
0000
0000
0000
0030
0000
0000
0000
,  // measure 51
1001
0000
1001
0000
0001
0010
1000
0010
,  // measure 52
0001
0000
0000
0000
0001
0000
1000
0000
0010
0000
0000
1000
0001
0000
0000
1000
,  // measure 53
0100
0000
0000
0000
0100
0000
0000
1000
0000
0010
0000
0000
0101
0000
0100
0000
,  // measure 54
0100
0001
0000
0100
0001
0000
1000
0000
0020
0000
0130
0000
0020
0000
0130
0000
,  // measure 55
1001
0000
1100
0001
0010
0001
0200
0000
,  // measure 56
0301
0001
0001
0001
0100
0010
2000
0000
,  // measure 57
3100
0000
0000
0100
1000
0000
1000
0001
0010
0000
0000
0010
0100
0000
0100
0000
,  // measure 58
0110
0010
0001
2002
3003
0000
1000
0001
,  // measure 59
0101
0000
0000
1000
0100
1000
0000
0001
0200
0000
0300
0000
0100
0010
0100
0010
,  // measure 60
1000
0000
0001
0000
0010
0000
0000
0010
0100
0000
1000
0000
0010
0000
0000
0010
,  // measure 61
0100
0000
0010
0000
1001
0000
0000
0000
0001
0010
0001
0010
0200
0000
0000
0000
,  // measure 62
0320
0030
0002
0003
2000
3000
0010
0000
0110
0000
0000
0000
0202
0000
0303
0000
,  // measure 63
0202
0000
0303
0000
1001
0000
0001
0000
0001
0010
0000
0100
1000
0000
0001
0000
,  // measure 64
0010
0020
0130
1000
0100
0200
0300
0010
,  // measure 65
0001
0000
0000
1000
0010
0000
0100
0000
0001
1000
0000
0001
0020
0000
0000
0000
,  // measure 66
0031
0000
1000
0000
0100
0000
0010
0000
0100
0000
1000
0001
0010
0100
0010
0100
,  // measure 67
0010
0100
0010
0100
0010
0100
0010
0100
0010
0100
0010
0100
0010
0100
0010
0100
,  // measure 68
0010
0100
0010
0100
0010
0100
0010
0100
0010
0100
0010
0100
0010
0100
0010
0100
,  // measure 69
0000
0000
0000
0000
1000
0100
0010
0002
0000
0000
0000
0000
0000
0000
0000
0000
,  // measure 70
0000
0000
0000
0000
,  // measure 71
0003
0000
0000
0000
;

//---------------dance-single - ----------------
#NOTEDATA:;
#CHARTNAME:;
#STEPSTYPE:dance-single;
#DESCRIPTION:;
#CHARTSTYLE:;
#DIFFICULTY:Medium;
#METER:11;
#RADARVALUES:0.422082,0.483221,0.192168,0.344300,0.208182,369.000000,345.000000,24.000000,43.000000,0.000000,0.000000,0.000000,0.000000,0.000000,0.422082,0.483221,0.192168,0.344300,0.208182,369.000000,345.000000,24.000000,43.000000,0.000000,0.000000,0.000000,0.000000,0.000000;
#CREDIT:;
#DISPLAYBPM:149.000000;
#NOTES:
0000
0000
0000
0000
,
0000
0000
0000
0000
,
0000
0000
0000
0000
,
0000
0000
0000
0000
,
1000
0000
0000
0000
0100
0000
0000
0000
1000
0000
0000
0001
0000
0000
0010
0000
,
0001
0000
0000
0000
0100
0000
0000
0000
0001
0000
0000
0010
0000
0000
0001
0000
,
0001
0000
0000
0000
0100
0000
0000
0000
0001
0000
0000
1000
0000
0000
0010
0000
,
1000
0000
0100
0000
0100
1000
0001
0010
,
0002
0000
0000
0000
0100
0000
0000
0000
1000
0000
0000
0010
0000
0000
0010
0000
,
0023
0000
0000
0000
0001
0000
0000
0000
0100
0000
0000
1000
0000
0000
1000
0000
,
0230
0000
0000
0000
0010
0000
0000
0000
0001
0000
0000
0010
0000
0000
0010
0000
,
2300
0000
0000
0000
0100
0000
0000
0000
3001
0000
0000
0001
0000
0000
1000
0000
,
0010
0000
0000
0010
0000
0000
0000
0000
1000
0000
0000
0001
0000
0000
1000
0000
,
0100
0000
0000
0100
0000
0000
0000
0000
1000
0000
0000
0001
0000
0000
1000
0000
,
0010
0000
0000
0010
0000
0000
0000
0000
0100
0000
0000
0100
0000
0000
0000
0000
,
0001
0000
0000
1000
0000
0000
0001
0000
1000
0000
0100
0000
0010
0000
0002
0000
,
0003
0000
1001
1001
,
0001
0100
1000
0000
0110
0000
0010
1000
,
0002
0000
2003
0000
3200
0000
0000
0010
,
0310
0000
0000
0000
1001
0000
0000
0000
0001
0100
0000
0100
0010
0000
0010
0000
,
1000
0100
0010
0000
0110
0000
1001
0000
,
0001
0010
1000
0010
0100
0000
0100
0100
,
0200
0320
0031
1100
,
0010
0000
0000
0000
0101
0000
0000
0000
0001
0000
0100
0000
0010
0000
0000
0010
,
1000
0000
0110
0000
1000
0001
0010
0100
,
0020
0000
0000
0000
0032
0000
0000
0000
1003
0000
0000
0000
0010
0000
0000
0010
,
0100
0000
0000
0000
0001
0000
0000
0001
0010
0000
0100
0000
0010
0000
0000
0000
,
1100
0000
0101
0000
1000
0100
0010
0100
,
0100
0000
2002
3003
2002
3003
0001
0001
,
0100
0000
0000
0001
1000
0000
1000
0000
0100
0000
0000
0000
0100
0000
0000
0000
,
0220
0000
0330
0000
1000
0100
0010
0000
,
0001
0100
0020
0000
1030
0000
1000
0001
,
0100
0000
0001
0000
0100
0000
0001
0000
2000
0000
0000
0000
0100
0000
0000
0001
,
0000
0100
0000
3002
0000
0100
1000
0000
,
0010
0000
0000
0000
1000
0000
0000
0000
0203
0000
0000
0000
0010
0000
0000
0001
,
0000
0001
0000
0320
0000
0100
1030
0000
,
0101
0000
0000
0000
1010
0000
0000
0000
1001
0000
0000
0000
0012
0000
0000
1000
,
0000
0100
0000
2003
0000
0010
0001
0000
,
0100
0000
0000
0000
0001
0000
0000
0000
3200
0000
0000
0000
0010
0000
0000
1000
,
0000
1000
0000
0320
0000
0100
0031
0000
,
0001
0000
1000
0000
0000
1000
0000
0000
0100
0000
0000
0100
0000
0000
0000
0000
,
1000
0000
0001
0000
0000
0001
0000
0000
0100
0000
0000
0100
0000
0000
0000
0000
,
0100
0000
0001
0000
0000
1000
0000
0000
0100
0000
0000
0100
0000
0000
0000
0000
,
0100
0000
0010
0000
0000
0001
0000
0000
0100
0000
0000
0100
0000
0000
0000
0000
,
0000
0001
0000
0100
0000
0010
0000
1000
0001
0000
0000
0001
0000
0000
0000
0000
,
0010
0000
0100
0000
0000
0100
0000
0000
1000
0000
0000
1000
0000
0000
0000
0000
,
1000
0000
0010
0000
0000
0100
0000
0000
0001
0000
0000
0001
0000
0000
0000
0000
,
1000
0000
0010
0000
0000
0100
0000
0000
0001
0000
0000
0001
0000
0000
0000
0000
,
1000
0000
0000
0100
0000
0000
0220
0000
0000
0000
0000
0000
0000
0000
0000
0000
,
0000
0000
0000
0000
,
0000
0000
0330
0000
,
1001
0000
1001
0000
1000
0100
1000
0100
,
0010
0200
2300
0001
,
3001
0000
0000
0000
0001
0000
0100
0000
0020
0000
0000
0030
0000
0000
1000
0000
,
0001
0010
0000
0010
0001
0000
0010
0000
0100
0000
1000
0000
0002
0000
0000
0000
,
0013
0000
1100
0000
0001
1000
0001
0000
,
0100
0000
0100
0100
0010
1000
0020
0000
,
1030
0000
0000
1000
0100
0000
0000
1000
0001
0000
0000
0001
0010
0000
0010
0000
,
0010
0001
1000
0020
0000
0000
0130
0100
,
0001
0000
1000
0000
0010
0100
0020
0000
,
1030
0000
0000
0000
0001
0000
0000
0001
0010
0000
0000
0000
1000
0000
0000
1000
,
0010
0001
0010
0000
0100
1000
0100
0000
,
1000
0001
0100
0100
0010
0000
2002
3003
,
2002
3003
0001
1000
0100
0010
0100
0000
,
0100
1000
0000
1000
0001
0100
0000
0100
,
0010
1000
0100
1000
0001
0100
0020
0000
,
1030
0000
1000
0010
0100
0001
0010
0001
,
0010
0001
0010
0001
0010
0001
0010
0001
,
0010
0001
0010
0001
0010
0001
0010
0001
,
0000
0000
0000
0000
0010
0000
0200
2000
0000
0000
0000
0000
0000
0000
0000
0000
,
0000
0000
0000
0000
,
3300
0000
0000
0000
;

//---------------dance-single - ----------------
#NOTEDATA:;
#CHARTNAME:;
#STEPSTYPE:dance-single;
#DESCRIPTION:;
#CHARTSTYLE:;
#DIFFICULTY:Easy;
#METER:7;
#RADARVALUES:0.272237,0.369522,0.072063,0.360314,0.036031,238.000000,229.000000,9.000000,45.000000,0.000000,0.000000,0.000000,0.000000,0.000000,0.272237,0.369522,0.072063,0.360314,0.036031,238.000000,229.000000,9.000000,45.000000,0.000000,0.000000,0.000000,0.000000,0.000000;
#CREDIT:;
#DISPLAYBPM:149.000000;
#NOTES:
0000
0000
0000
0000
,
0000
0000
0000
0000
,
0000
0000
0000
0000
,
0000
0000
0000
0000
,
1000
0100
1000
0001
,
1000
0010
1000
0001
,
0001
0010
0001
1000
,
0001
0100
0010
1000
,
0002
0000
1000
0100
,
2003
0000
0001
0100
,
3020
0000
0100
1000
,
0230
0000
0010
0001
,
0302
0000
0010
1000
,
0023
0000
0100
0001
,
0230
0000
0001
0010
,
2300
0000
0001
0020
,
3030
0000
1000
0001
,
0100
0001
0010
0010
,
0100
0100
2000
3000
,
0010
1000
0001
0001
,
0100
0010
0100
0000
0001
0000
0100
0000
,
1000
0100
0001
0001
,
0002
0000
2003
0000
3100
0000
0000
0100
,
0010
0000
0000
0010
0100
0000
1000
0000
,
1100
1001
0010
0100
,
0002
0000
0003
0000
0002
0000
0003
0000
1000
0000
0000
0000
0010
0000
0000
0010
,
0100
0001
1000
0100
,
0020
0030
0020
0030
0100
1000
0100
0000
,
1001
0000
0200
0300
0200
0300
0010
0000
,
0010
0000
1001
0000
0001
0100
0000
0001
,
1000
0100
0000
0100
2000
0000
3002
0000
,
0203
0000
0310
0000
0010
0000
0010
0010
,
0020
0030
2000
3001
,
0000
0001
0000
0100
,
0000
0100
0002
1003
,
0000
1000
0000
0100
,
0000
0100
2000
3010
,
0000
0010
0000
1000
,
0000
1000
0002
0013
,
0000
0010
0000
0001
,
0000
1000
0200
0000
,
0300
0000
1000
0000
0000
0001
0000
0000
0200
0000
0000
0000
0000
0000
0000
0000
,
0300
0000
0001
0000
0000
1000
0000
0000
0200
0000
0000
0000
0000
0000
0000
0000
,
0300
0000
1000
0000
0000
0001
0000
0000
0200
0000
0000
0000
0300
0000
0000
0000
,
0010
1001
0020
0000
,
0030
0000
1000
0000
0000
0001
0000
0000
0020
0000
0000
0000
0000
0000
0000
0000
,
0030
0000
0001
0000
0000
1000
0000
0000
0020
0000
0000
0000
0000
0000
0000
0000
,
0030
0000
1000
0000
0000
0001
0000
0000
0020
0000
0000
0000
0030
0000
0000
0000
,
0100
0000
0010
0200
0000
0000
0000
0000
,
0000
0000
0000
0000
,
0000
0000
0300
0000
,
0001
0001
0100
0100
,
1000
0100
0001
0010
,
0100
0100
1001
0000
,
1000
0100
1000
0000
0001
0010
0001
0010
,
0001
0000
1000
0000
0010
0000
0100
0010
,
1000
0000
1000
1000
2000
0000
3001
0000
,
0001
0000
0000
0100
0010
0000
0000
0010
,
0100
0000
0010
2000
0000
0000
3001
0001
,
1000
0010
0001
0010
,
1000
0000
0000
0000
0100
0000
0000
0100
0010
0000
0000
0000
0100
0000
0000
0000
,
1001
0101
2000
3000
,
0010
1000
0010
0000
0110
0000
0002
0003
,
0002
0003
1000
0000
0100
0010
0100
0000
,
1000
0100
0000
1000
0001
0100
0000
0100
,
0002
2003
3200
0310
,
0100
0000
1000
0000
0001
0000
0100
0200
,
0000
0000
0000
0000
,
0000
0000
0000
0000
,
0300
0000
0000
0000
0001
0000
0000
0020
0000
0000
0000
0000
0000
0000
0000
0000
,
0000
0000
0000
0000
,
0030
0000
0000
0000
;

//---------------dance-single - ----------------
#NOTEDATA:;
#CHARTNAME:;
#STEPSTYPE:dance-single;
#DESCRIPTION:;
#CHARTSTYLE:;
#DIFFICULTY:Beginner;
#METER:3;
#RADARVALUES:0.121249,0.166795,0.008007,0.096084,0.004003,106.000000,105.000000,1.000000,12.000000,0.000000,0.000000,0.000000,0.000000,0.000000,0.121249,0.166795,0.008007,0.096084,0.004003,106.000000,105.000000,1.000000,12.000000,0.000000,0.000000,0.000000,0.000000,0.000000;
#CREDIT:;
#DISPLAYBPM:149.000000;
#NOTES:
0000
0000
0000
0000
,
0000
0000
0000
0000
,
0000
0000
0000
0000
,
0000
0000
0000
0000
,
1000
0000
1000
0000
,
0100
0000
0100
0000
,
0001
0000
0001
0000
,
0100
0000
0100
0000
,
2000
0000
0000
3000
,
0002
0000
0000
0003
,
0020
0000
0000
0030
,
0002
0000
0000
0003
,
2000
0000
0000
3000
,
0020
0000
0000
0030
,
0200
0000
0000
0300
,
0002
0000
0000
0000
,
0003
0000
1000
0000
,
1000
0000
0100
0000
,
0100
0000
1000
0000
,
1000
0000
0010
0000
,
0010
0000
0100
0000
,
0100
0000
0001
0000
,
0001
0000
0010
0000
,
0010
0000
0001
0000
,
0001
0000
1000
0000
,
0100
0000
1000
0000
,
0010
0000
0100
0000
,
0001
0000
0010
0000
,
0001
0000
1000
0000
,
0010
0000
0100
0000
,
0010
0000
1000
0000
,
0001
0000
0010
0000
,
0100
0000
2000
0000
,
0000
0000
0000
0000
,
0000
3000
0002
0000
,
0000
0000
0000
0000
,
0000
0003
0020
0000
,
0000
0000
0000
0000
,
0000
0030
0200
0000
,
0000
0000
0000
0000
,
0000
0300
1000
0000
,
0000
1000
0001
0000
,
0000
0001
1000
0000
,
0000
1000
0001
0000
,
0000
0001
0100
0000
,
0000
0100
0010
0000
,
0000
0010
0100
0000
,
0000
0100
0010
0000
,
0010
0000
0010
0010
0000
0000
0000
0000
,
0000
0000
0000
0000
,
0000
0000
0000
0000
,
0001
0000
0001
0000
,
0100
0000
0100
0000
,
0001
0000
0001
0000
,
0010
0000
0010
0000
,
0100
0000
0100
0000
,
1000
0000
1000
0000
,
0010
0000
0010
0000
,
1000
0000
1000
0000
,
0001
0000
0100
0000
,
0001
0000
0010
0000
,
0100
0000
1000
0000
,
0010
0000
1000
0000
,
0001
0000
0010
0000
,
0100
0000
0010
0000
,
0001
0000
1000
0000
,
0010
0000
0000
0000
0100
0000
0100
0100
,
0000
0000
0000
0000
,
0000
0000
0000
0000
,
0000
0000
0000
0000
0000
0000
0000
1001
0000
0000
0000
0000
0000
0000
0000
0000
;
