#VERSION:0.83;
#TITLE:Daddy DJ (Chico & Tonio Mix);
#SUBTITLE:;
#ARTIST:Daddy DJ;
#TITLETRANSLIT:;
#SUBTITLETRANSLIT:;
#ARTISTTRANSLIT:;
#GENRE:Eurohouse;
#CREDIT:;
#MUSIC:Daddy DJ (Chico and Tonio Mix).ogg;
#BANNER:Daddy DJ (Chico and Tonio Mix)-banner.avi;
#BACKGROUND:Daddy DJ (Chico and Tonio Mix)-bg.png;
#CDTITLE:cdtitle.png;
#SAMPLESTART:58.222;
#SAMPLELENGTH:15.000;
#SELECTABLE:YES;
#OFFSET:0.000;
#BPMS:0.000=135.000;
#STOPS:;
#SPEEDS:0.000=1.000=0.000=0;
#SCROLLS:0.000=1.000;
#TICKCOUNTS:0.000=4;
#TIMESIGNATURES:0.000=4=4;
#LABELS:0.000=Song Start;
#COMBOS:0.000=1;
#ORIGIN:France;
#PREVIEWVID:;
#JACKET:Daddy DJ (Chico and Tonio Mix)-jacket.png;
#CDIMAGE:;
#DISCIMAGE:;
#BGCHANGES:3.875=Daddy DJ (Chico and Tonio Mix).avi=1.000=0=0=1,
99999.000=-nosongbg-=1.000=0=0=0=StretchNoLoop====
;
#FGCHANGES:;

//--------------- dance-single - RaverAce ----------------
#NOTEDATA:;
#STEPSTYPE:dance-single;
#DESCRIPTION:RaverAce;
#DIFFICULTY:Beginner;
#METER:4;
#RADARVALUES:0.147128,0.161615,0.174291,0.015845,0,130,108,22,2,0,0,0,0,0,0.147128,0.161615,0.174291,0.015845,0,130,108,22,2,0,0,0,0,0;
#CHARTNAME:;
#CHARTSTYLE:;
#CREDIT:;
#NOTES:
0000
0000
0000
0000
,
0000
0000
0000
0000
,
0000
0000
0000
0000
,
0000
0000
0000
0000
,
0000
0000
0000
0000
,
1001
0000
0001
0000
,
0010
0000
0100
0000
,
1000
0000
0010
0000
,
0220
0000
0000
0330
,
1001
0000
1000
0000
,
0001
0000
1000
0000
,
0010
0000
0100
0000
,
0010
0000
0100
0000
,
0001
0000
1000
0000
,
0001
0000
1000
0000
,
0100
0000
0010
0000
,
0100
0000
0010
0000
,
1001
0000
0001
0000
,
1000
0000
0001
0000
,
0010
0000
0100
0000
,
0010
0000
0100
0000
,
1000
0000
0001
0000
,
1000
0000
0001
0000
,
0100
0000
0010
0000
,
0100
0000
0010
0000
,
1001
0000
0000
0000
,
1001
0000
0000
0000
,
1000
0000
0010
0000
,
0110
0000
0000
0000
,
1001
0000
0000
0000
,
1001
0000
0000
0000
,
0001
0000
0010
0000
,
0110
0000
0000
0000
,
1001
0000
1000
0000
,
0010
0000
0100
0000
,
0001
0000
1000
0000
,
0100
0000
0010
0000
,
1001
0000
0001
0000
,
0010
0000
0100
0000
,
1000
0000
0001
0000
,
0100
0000
0010
0000
,
0110
0000
0100
0000
,
0001
0000
1000
0000
,
0100
0000
0001
0000
,
0100
0000
0010
0000
,
0110
0000
0100
0000
,
1000
0000
0001
0000
,
0100
0000
0010
0000
,
0110
0000
0000
0000
,
1001
0000
0000
0000
,
0010
0000
0000
0000
,
0100
0000
0000
0000
,
0110
0000
0000
0000
,
1001
0000
0000
0000
,
0100
0000
0000
0000
,
0010
0000
0000
0000
,
0110
0000
0000
0000
,
1001
0000
0001
0000
,
0100
0000
0010
0000
,
1000
0000
0100
0000
,
1000
0000
1000
0000
,
1001
0000
1000
0000
,
0100
0000
0010
0000
,
0001
0000
0100
0000
,
0001
0000
0001
0000
,
1001
0000
0000
0000
,
0001
0000
0000
0000
,
1000
0000
0000
0000
,
0110
0000
0000
0000
;

//--------------- dance-single - RaverAce ----------------
#NOTEDATA:;
#STEPSTYPE:dance-single;
#DESCRIPTION:RaverAce;
#DIFFICULTY:Easy;
#METER:8;
#RADARVALUES:0.344054,0.404037,0.221824,0.166368,0.031689,304,276,28,21,0,0,0,0,0,0.344054,0.404037,0.221824,0.166368,0.031689,304,276,28,21,0,0,0,0,0;
#CHARTNAME:;
#CHARTSTYLE:;
#CREDIT:;
#NOTES:
0000
0000
0000
0000
,
0000
0000
0000
0000
,
0000
0000
0000
0000
,
0000
0000
0000
0000
,
0000
0000
0000
0000
,
1001
0001
0100
0010
,
1000
0001
0010
0100
,
1000
0000
0010
0000
0100
0000
0010
0100
,
0220
0000
0000
0330
,
1001
1000
0100
0001
,
0100
0010
0001
0100
,
1000
0100
0010
1000
,
0002
0023
0001
0032
,
1003
0001
0100
1000
,
0100
0010
1000
0100
,
0001
0100
0010
0001
,
2000
0000
3020
0000
1000
0000
1030
0001
,
1001
1000
0100
0001
,
0100
0010
0100
0000
0020
0000
0130
0000
,
0010
0001
0100
0010
,
1010
0000
0101
0000
0001
1000
0001
0000
,
1000
0000
0100
0000
0010
0000
0001
1000
,
0001
1001
1000
0100
,
0001
0000
0100
0000
1000
0000
0010
0100
,
0010
0200
0000
0310
,
1001
0001
1000
0100
,
1100
1000
0010
0100
,
0001
0001
1000
0000
1010
0000
0101
0000
,
1001
0000
1000
0000
0100
0000
0010
0001
,
1001
1000
0001
0100
,
0101
0001
0010
0100
,
1000
0010
0001
0200
,
2000
0000
0000
0000
3300
0000
1000
0001
,
1001
0000
0000
1000
0000
0000
0001
0000
0100
0000
0000
0000
0100
0000
0010
0000
,
1000
0000
0000
0001
0000
0000
0010
0000
0100
0000
0000
0000
0010
0000
0001
0000
,
1000
0010
0001
0010
,
1000
0000
0100
0000
0010
0000
0001
1000
,
1001
0000
0000
0001
0000
0000
1000
0000
0100
0000
0000
0000
0100
0000
0010
0000
,
0001
0000
0000
1000
0000
0000
0010
0000
0100
0000
0000
0000
0010
0000
1000
0000
,
0001
0010
1000
0010
,
0001
0000
0100
0000
0010
0000
1000
0001
,
0101
0000
0000
0100
0000
0000
0010
0000
1000
0000
0000
0000
1000
0000
0100
0000
,
0010
0000
0000
0100
0000
0000
1000
0000
0001
0000
0000
0000
0100
0000
0010
0000
,
0100
0000
0001
0000
0010
0100
0010
0100
,
0010
0000
0001
0000
0100
0000
0001
1000
,
1100
0000
0000
0100
0000
0000
0010
0000
0001
0000
0000
0000
0001
0000
0100
0000
,
0010
0000
0000
0100
0000
0000
0001
0000
1000
0000
0000
0000
0100
0000
0010
0000
,
0100
0000
1000
0000
0010
0100
0010
1000
,
2002
0000
0000
3003
,
0011
0001
1000
0010
,
0100
0001
1000
0100
,
0001
0100
1000
0001
,
2002
0000
0000
3003
,
1010
1000
0001
0010
,
0100
1000
0001
0100
,
1000
0100
0001
1000
,
1001
0000
1001
0000
1001
0000
0001
1000
,
1001
0000
1000
0000
0010
0000
0100
0001
,
0100
0000
0010
0000
1000
0000
0100
1000
,
0100
0000
0010
0000
0001
0000
1000
0001
,
1000
0000
0010
0000
0100
0010
1000
0001
,
1001
0000
0001
0000
0010
0000
0100
1000
,
0100
0000
0010
0000
0001
0000
0100
0001
,
0100
0000
0010
0000
1000
0000
0001
1000
,
0001
0000
0010
0000
0100
0010
0001
1000
,
2001
0000
3200
0000
,
0302
0000
0203
0000
,
2300
0000
0002
3000
,
1003
0000
0000
0000
;

//--------------- dance-single - RaverAce ----------------
#NOTEDATA:;
#STEPSTYPE:dance-single;
#DESCRIPTION:RaverAce;
#DIFFICULTY:Medium;
#METER:11;
#RADARVALUES:0.522872,0.565652,0.364426,0.364426,0.182213,462,416,46,46,0,0,0,0,0,0.522872,0.565652,0.364426,0.364426,0.182213,462,416,46,46,0,0,0,0,0;
#CHARTNAME:;
#CHARTSTYLE:;
#CREDIT:;
#NOTES:
0000
0000
0000
0000
,
0000
0000
0000
0000
,
0000
0000
0000
0000
,
0000
0000
0000
0000
,
0000
0000
0000
0000
,
1001
0000
0000
0000
1000
0000
0010
1000
0000
0010
1000
0000
0001
0000
0100
0001
,
0000
0100
0001
0000
0010
0000
0100
0010
0000
0100
0010
0000
0001
0000
1000
0010
,
0000
1000
0001
0000
0100
0000
0001
0010
0000
0100
1000
0000
0001
0000
0100
0000
,
0220
0000
0000
0000
0300
0000
0000
1030
,
1001
0001
0010
0100
1000
0000
1000
0010
,
0100
0001
0020
0000
0100
0000
0130
0000
,
0010
0001
0100
0010
1000
0000
1000
0010
,
0110
0000
1001
0000
1000
0100
2000
0000
,
3001
1000
0010
0100
0001
0000
0001
0010
,
0100
1000
0020
0000
0100
0000
0130
0000
,
0010
1000
0100
0010
0001
0000
0001
0010
,
0100
1000
0002
0000
0203
0000
0310
0010
,
0110
0100
0001
1000
0100
0000
0010
0100
,
1000
0001
0100
0000
0110
0100
0010
1000
,
0001
0000
1000
0100
0001
0100
1000
0010
,
0100
0000
0001
0000
1000
0001
1000
0200
,
0000
0310
0001
0100
0010
0000
0010
1000
,
0001
0000
1001
0000
1000
0010
0001
0010
,
1000
0000
0100
0010
0001
1000
0010
0100
,
0001
1000
0002
0000
1003
0001
1000
0100
,
1100
2000
0000
3020
0000
1030
0100
0001
,
0100
0020
0000
0032
0000
0103
0010
1000
,
0010
0010
0100
0000
0101
0000
1010
0000
,
1001
2000
0000
3200
0000
0310
0001
0100
,
0101
0002
0000
0023
0000
0031
0100
1000
,
0100
0020
0000
2030
0000
3100
0010
0001
,
0011
1100
1010
0101
,
2002
0000
0000
0000
3003
0000
0001
1000
,
1001
0000
0000
1010
0000
0000
1000
0000
0100
0000
0010
0000
0001
0000
0100
0000
,
0001
0000
0000
0011
0000
0000
0010
0000
0100
0000
1000
0000
0001
0000
0100
0000
,
0110
0000
0010
1000
0100
0010
0001
0010
,
0110
0000
0000
0000
0100
0000
1000
0010
0000
0100
0001
0000
1000
0000
0001
0000
,
1001
0000
0000
0011
0000
0000
0001
0000
0100
0000
0010
0000
1000
0000
0100
0000
,
1000
0000
0000
1010
0000
0000
0010
0000
0100
0000
0001
0000
1000
0000
0100
0000
,
0110
0000
0010
0001
0100
0010
1000
0010
,
0110
0000
0000
0000
0100
0000
0001
0010
0000
0100
1000
0000
0001
0000
1000
0000
,
1010
0000
0000
1100
0000
0000
0100
0000
0010
0000
0001
0000
0100
0000
0001
0000
,
0011
0000
0000
0101
0000
0000
0100
0000
0010
0000
1000
0000
0100
0000
1000
0000
,
1001
0000
0001
0100
1000
0100
0001
1000
,
1001
0000
0001
0010
0100
1000
0001
0100
,
0101
0000
0000
0011
0000
0000
0010
0000
0100
0000
1000
0000
0010
0000
1000
0000
,
1100
0000
0000
1010
0000
0000
0010
0000
0100
0000
0001
0000
0010
0000
0001
0000
,
1001
0000
1000
0100
0001
0100
1000
0001
,
2002
0000
0000
3003
,
1010
0000
0000
0000
1000
0000
0000
0010
0000
0000
0100
0000
0001
0000
0020
0000
,
0000
0000
0130
0000
0020
0000
0000
0032
0000
0000
1003
0000
0010
0000
0200
0000
,
0000
0000
0310
0000
2000
0000
0000
3200
0000
0000
0310
0000
0001
0000
1000
0000
,
2002
0000
0000
3003
,
0011
0000
0000
0000
0001
0000
0000
0010
0000
0000
0100
0000
1000
0000
0020
0000
,
0000
0000
0130
0000
0020
0000
0000
2030
0000
0000
3001
0000
0010
0000
0200
0000
,
0000
0000
0310
0000
0001
0000
0100
0002
0000
0000
0013
0000
0100
0000
1000
0000
,
0001
0100
1000
0100
0001
0010
0100
1000
,
1001
0000
0001
0000
0100
0000
0010
0100
0000
0001
0100
0000
0010
0000
2000
0000
,
0000
0000
3100
0000
1000
0000
0010
0100
0000
0001
0010
0000
0100
0000
0020
0000
,
0000
0000
0031
0000
0100
0000
0010
1000
0000
0100
0010
0000
0001
0000
2000
0000
,
0000
0000
3010
0000
0100
0000
0001
0010
0000
0010
0100
0000
1000
0000
0001
0000
,
1001
0000
1000
0000
0100
0000
0010
0100
0000
1000
0100
0000
0010
0000
0002
0000
,
0000
0000
0103
0000
0001
0000
0010
0100
0000
1000
0010
0000
0100
0000
0020
0000
,
0000
0000
1030
0000
0100
0000
0010
0001
0000
0100
0010
0000
1000
0000
0002
0000
,
0000
0000
0013
0000
0100
0000
1000
0010
0000
0010
0100
0000
0001
0000
1000
0000
,
1002
0000
0000
0023
0000
0000
0130
0000
0010
0000
0001
0000
0100
0000
0001
0000
,
2000
0000
0000
3020
0000
0000
0130
0000
0010
0000
1000
0000
0100
0000
1000
0000
,
0002
0000
0103
0001
0010
0100
1000
0001
,
1000
0000
0000
0000
;

//--------------- dance-single - RaverAce ----------------
#NOTEDATA:;
#STEPSTYPE:dance-single;
#DESCRIPTION:RaverAce;
#DIFFICULTY:Hard;
#METER:13;
#RADARVALUES:0.595304,0.619524,0.364426,0.269358,0.297086,526,480,46,34,0,0,0,0,0,0.595304,0.619524,0.364426,0.269358,0.297086,526,480,46,34,0,0,0,0,0;
#CHARTNAME:;
#CHARTSTYLE:;
#CREDIT:RaverAce;
#NOTES:
0000
0000
0000
0000
,
0000
0000
0000
0000
,
0000
0000
0000
0000
,
0000
0000
0000
0000
,
0000
0000
0000
0000
,
1000
0001
0010
0000
0100
0000
1000
0010
0000
0100
0001
0000
0010
0000
0100
0010
,
0000
0001
0100
0000
0010
0000
1000
0001
0000
0010
0100
0000
1000
0000
0001
0100
,
0000
0010
0100
0000
0001
0000
1000
0100
0000
0010
0100
0000
1000
0000
0010
0000
,
0220
0000
0000
0000
0000
0000
0030
0301
,
1001
1000
0100
0001
0200
0000
0310
0001
,
0100
0020
1000
0000
1000
0000
1030
0001
,
0100
1000
0100
0010
2000
0000
3001
1000
,
1100
0000
0011
0000
0001
1000
1200
0000
,
1300
0001
0100
1000
0200
0000
0310
1000
,
0100
0020
0001
0000
0001
0000
0031
1000
,
0100
0001
0100
0010
0002
0000
0013
0100
,
1000
0001
0102
0000
2003
0000
3100
1000
,
1001
0001
0100
1000
0002
0000
0013
1000
,
1001
0001
0010
0000
0011
0001
0100
0010
,
2000
0000
3001
0010
1000
0001
0100
1000
,
1001
0000
1020
0000
1030
0100
0001
0200
,
0000
0310
0001
0100
0002
0000
1003
0100
,
1100
0000
0021
0000
0031
0100
1000
0200
,
0000
0301
1000
0010
0001
1000
0100
0001
,
0010
0000
0100
0000
0020
0000
0000
0000
0031
0000
0010
0100
1000
0000
0001
0000
,
0101
0100
0010
1000
0100
0001
0100
1000
,
1010
0010
0100
0001
0010
1000
0010
0100
,
1000
1000
0001
0000
0101
0000
0011
0000
,
1100
1000
0010
0001
0010
0100
0001
1000
,
1100
0100
0010
0001
0100
1000
0100
0001
,
0011
0010
0100
1000
0010
0001
0010
0100
,
0101
0011
1010
1100
,
0202
0000
0000
0000
0303
0000
0001
1000
,
1100
0000
0000
0021
0000
0000
0031
0000
0100
0000
1000
0000
0100
0000
0010
0000
,
1010
0000
0000
0201
0000
0000
0301
0000
0010
0000
1000
0000
0001
0000
0100
0000
,
0110
0000
0010
0001
0100
1000
0100
0010
,
0110
0000
0000
0000
0100
0000
0001
0010
0000
0010
0100
0000
1000
0000
0001
0000
,
0101
0000
0000
1020
0000
0000
1030
0000
0100
0000
0001
0000
0100
0000
0010
0000
,
0011
0000
0000
1200
0000
0000
1300
0000
0010
0000
0001
0000
1000
0000
0100
0000
,
0110
0000
0010
1000
0100
0001
0100
0010
,
0110
0000
0000
0000
0100
0000
1000
0010
0000
0010
0100
0000
0001
0000
1000
0000
,
1001
0000
0001
0010
0100
0000
1000
0000
0100
0000
0001
0100
0010
0000
0001
0000
,
0100
0000
1000
0100
0010
0000
1000
0000
0001
0000
1000
0010
0100
0000
0001
0000
,
1000
0000
0100
0001
0100
0000
0010
0000
0001
0000
0100
1000
0100
0000
0010
0000
,
1000
0000
0001
1000
0100
0000
0001
0000
0100
0000
1000
0000
1001
0000
0001
0000
,
1001
0000
1000
0010
0100
0000
0001
0000
0100
0000
1000
0100
0010
0000
1000
0000
,
0100
0000
0001
0100
0010
0000
0001
0000
1000
0000
0001
0010
0100
0000
1000
0000
,
0001
0000
0100
1000
0100
0000
0010
0000
1000
0000
0100
0001
0100
0000
0010
0000
,
0220
0000
0000
0330
,
1001
0000
0000
0000
2000
0000
0000
3020
0000
0000
0031
0000
0010
0000
0200
0000
,
0000
0301
1000
0000
0100
0000
0010
0100
0000
1000
0001
0000
0100
0000
0020
0000
,
0000
1030
0001
0000
0010
0000
0100
1000
0000
0010
0100
0000
0001
0000
1000
0000
,
2002
0000
0000
3003
,
1100
0000
1000
0000
0010
0000
0100
0001
0000
1000
0100
0000
0010
0000
0002
0000
,
0000
0103
0001
0000
0010
0000
0100
1000
0000
0001
0100
0000
0010
0000
2000
0000
,
0000
3100
1000
0000
0010
0000
0100
0001
0000
0001
0010
0000
0100
0000
1000
0000
,
1010
0000
0010
0000
0001
0000
0010
0000
1000
0100
0010
0001
0100
0000
0001
0000
,
0011
0000
0010
0000
0001
0000
0100
1000
0000
0100
0010
0000
1000
0000
0001
0000
,
0010
0100
1000
0000
0100
0000
0001
0100
0000
0100
0010
0000
0001
0000
1000
0000
,
0010
0100
1000
0000
0100
0000
0001
0010
0000
0100
1000
0000
0001
0000
0100
0000
,
0001
0010
0100
0000
1000
0000
0010
1000
0000
0100
0010
0000
0001
0000
1000
0000
,
1010
0000
0010
0000
1000
0000
0100
0001
0000
0100
0010
0000
0001
0000
1000
0000
,
0010
0100
0001
0000
0100
0000
1000
0100
0000
0100
0010
0000
1000
0000
0001
0000
,
0010
0100
0001
0000
0100
0000
1000
0010
0000
0100
0001
0000
1000
0000
0100
0000
,
1000
0010
0100
0000
0001
0000
0010
0100
0000
0100
0010
0001
0100
0000
0001
0000
,
2001
0000
0000
3200
0000
0000
1300
0000
0010
0000
0100
0000
0001
0000
0010
0000
,
0002
0000
0000
0203
0000
0000
0301
0000
0010
0000
0100
0000
1000
0000
0010
0000
,
2000
0000
3100
0001
0100
0010
0001
1000
,
0001
0000
0000
0000
;

//--------------- dance-double - ----------------
#NOTEDATA:;
#STEPSTYPE:dance-double;
#DESCRIPTION:;
#DIFFICULTY:Easy;
#METER:7;
#RADARVALUES:0.299916,0.404037,0.245591,0.095068,0,265,234,31,12,0,0,0,0,0,0.299916,0.404037,0.245591,0.095068,0,265,234,31,12,0,0,0,0,0;
#CHARTNAME:;
#CHARTSTYLE:;
#CREDIT:;
#NOTES:
00000000
00000000
00000000
00000000
,
00000000
00000000
00000000
00000000
,
00000000
00000000
00000000
00000000
,
00000000
00000000
00000000
00000000
,
00000000
00000000
00000000
00000000
,
00000001
00000000
00001000
00000000
,
00000100
00000000
00010000
00000000
,
00001000
00000000
00100000
00000000
,
01100000
00000000
00000000
00000000
,
10010000
00000000
10000000
00000000
,
00100000
01000000
00010000
00000000
,
10000000
00000000
01000000
00000000
,
00100000
00001000
00010000
00000100
,
00000010
00000000
00000001
00000000
,
00000010
00000100
00001000
00000000
,
00000001
00000000
00000100
00000000
,
00000010
00010000
00001000
00010000
,
00011000
00001000
00100000
00010000
,
01000000
00001000
00010000
00000000
,
00010000
00000100
00001000
00000100
,
00000010
00000001
00000100
00000100
,
00000001
00001000
00000010
00001000
,
00000100
00010000
00001000
00000000
,
00001000
01000000
00010000
01000000
,
00100000
01000000
00001000
00010000
,
00011000
00001000
00010000
00000100
,
00000110
00000010
00000001
00000100
,
00000010
00001000
00001100
00010100
,
00011000
00001000
00100000
01000000
,
01100000
00100000
00010000
01000000
,
01100000
00100000
10000000
01000000
,
00100000
00010000
01010000
01001000
,
00022000
00000000
00000000
00033000
,
00001100
00000100
00000010
00000001
,
00001000
00000010
00010000
00001000
,
00011000
00010000
00001000
00100000
,
01100000
01000000
10000000
00010000
,
01010000
01000000
00100000
10000000
,
00010000
00100000
00001000
00010000
,
00011000
00001000
00010000
00000010
,
00000110
00000000
00000100
00000000
00000010
00000000
00010000
00001000
,
00101000
00000000
00100000
00000000
01000000
00000000
10000000
00100000
,
01000000
00000000
00010000
00000000
10000000
00000000
01000000
00100000
,
00010000
00000000
00001000
00000000
00000100
00000000
00000010
00001000
,
00000001
00000000
00001000
00000000
00000100
00000000
00010000
00000010
,
00010010
00000000
00000010
00000000
00000100
00000000
00000001
00000010
,
00000100
00000000
00001000
00000000
00000001
00000000
00000100
00000010
,
00001000
00000000
00010000
00000000
01000000
00000000
00100000
00010000
,
02020000
00000000
00000000
03030000
,
00011000
00001000
00100000
01000000
,
10000000
00100000
01000000
00001000
,
00010000
00000100
00000010
00000100
,
00002200
00000000
00000000
00003300
,
00011000
00010000
00000010
00000100
,
00000001
00000010
00000100
00010000
,
00001000
01000000
00100000
01000000
,
01010000
00000000
00011000
00000000
00010100
00000000
00010000
00001000
,
01001000
00000000
01000000
00000000
00100000
00000000
10000000
01000000
,
00100000
00000000
00010000
00000000
01000000
00000000
00001000
00010000
,
00000100
00000000
00001000
00000000
00000010
00000000
00000100
00000001
,
00000010
00000000
00000100
00000000
00001000
00000000
00000100
00010000
,
00010100
00000000
00000100
00000000
00000010
00000000
00000001
00000100
,
00000010
00000000
00001000
00000000
00000100
00000000
00010000
00001000
,
01000000
00000000
00010000
00000000
00100000
00000000
01000000
10000000
,
00100000
00000000
01000000
00000000
00010000
00000000
01000000
00001000
,
00021000
00000000
00030200
00000000
,
00002300
00000000
00003020
00000000
,
00020030
00000000
00032000
00000000
,
01003000
00000000
00000000
00000000
;

//--------------- dance-double - ----------------
#NOTEDATA:;
#STEPSTYPE:dance-double;
#DESCRIPTION:;
#DIFFICULTY:Medium;
#METER:11;
#RADARVALUES:0,0,0,0,0;
#NOTES:
00000000
00000000
00000000
00000000
,
00000000
00000000
00000000
00000000
,
00000000
00000000
00000000
00000000
,
00000000
00000000
00000000
00000000
,
00000000
00000000
00000000
00000000
,
10010000
00000000
10000000
00000000
01000000
00000000
00100000
00010000
,
01000000
00000000
00001000
00000000
00010000
00000000
00000100
00000010
,
00000001
00000000
00001000
00000000
00000100
00000000
00010000
00001000
,
00022000
00000000
00000000
00000000
00000000
00000000
00003000
00030100
,
00001100
00000000
00001000
00000000
00000020
00000000
00000130
00000001
,
00000010
00000100
00002000
00000000
00000001
00000000
00003001
00000000
,
00001000
00000000
00000001
00000010
00000110
00000000
00000100
00000000
,
00001100
00000000
00011000
00000000
00001000
01000000
01010000
00000000
,
01000000
00000000
00010000
00000000
00200000
00000000
01300000
10000000
,
00100000
01000000
00020000
00000000
10000000
00000000
10030000
00000000
,
00010000
00000000
10000000
00100000
01100000
00000000
01000000
00010000
,
01000000
00001000
00010000
00000000
00001000
00000000
00100000
00010000
,
00110000
00000000
00100000
00000000
01000000
00000000
10000000
00010000
,
01000000
00010000
01000000
00000000
01010000
00000000
01000000
00001000
,
00010000
00000000
00000100
00000000
00001000
00000000
00000010
00000100
,
00000110
00000000
00001010
00000000
00001000
00000001
00000010
00000100
,
00001000
00000000
00000100
00010000
00001000
00000000
00100000
00000000
,
01100000
11000000
10000000
00010000
,
01000000
00000000
00001000
00000000
00010000
00000100
00001000
00000010
,
00000100
00000002
00000020
00000000
00000000
00000000
00000033
00000010
,
00000011
00000000
00000001
00000000
00001000
00000000
00000100
00010000
,
00001000
00000000
00100000
00000000
01000000
00000000
10000000
00010000
,
01000000
01000000
00001000
00000000
00011000
00000000
00001100
00000000
,
00011000
00000000
00001000
00000000
00010000
00100000
01000000
10000000
,
10100000
00000000
10000000
00000000
00010000
00000000
01000000
00001000
,
00010000
00000000
00000010
00000000
00000100
00000000
00000001
00001000
,
00001100
00011000
00110000
00011000
,
00002200
00000000
00000000
00000000
00003000
00000000
00001300
00000100
,
00000120
00000000
00000000
00000032
00000000
00000000
00000013
00000000
00000100
00000000
00010000
00000000
00001000
00000000
01000000
00000000
,
00200000
00000000
00000000
20300000
00000000
00000000
31000000
00000000
00100000
00000000
00001000
00000000
00010000
00000000
00000100
00000000
,
00001100
00000000
00001000
00000001
00000100
00000010
00010000
00000100
,
00020000
00000000
00032000
00000000
02003000
00000000
03010000
01000000
,
01200000
00000000
00000000
20300000
00000000
00000000
30100000
00000000
01000000
00000000
00001000
00000000
00010000
00000000
00000100
00000000
,
00000020
00000000
00000000
00000032
00000000
00000000
00000103
00000000
00000010
00000000
00010000
00000000
00001000
00000000
01000000
00000000
,
01010000
00000000
00010000
10000000
01000000
00100000
00001000
01000000
,
00002000
00000000
00023000
00000000
00030200
00000000
00010300
00001000
,
00101000
00000000
00000000
00110000
00000000
00000000
00010000
00000000
10000000
00000000
00010000
00000000
01000000
00000000
00001000
00000000
,
01001000
00000000
00000000
00011000
00000000
00000000
00010000
00000000
00000100
00000000
00001000
00000000
00000010
00000000
00000100
00000000
,
00000001
00000000
00000001
00001000
00000100
00010000
00001000
00100000
,
02000000
00000000
03200000
00000000
00302000
00000000
00013000
00000100
,
00010010
00000000
00000000
00001010
00000000
00000000
00001000
00000000
00000001
00000000
00001000
00000000
00000100
00000000
00010000
00000000
,
00010100
00000000
00000000
00011000
00000000
00000000
00001000
00000000
01000000
00000000
00010000
00000000
00100000
00000000
01000000
00000000
,
10000000
00000000
10000000
00010000
01000000
00001000
00010000
00001000
,
00022000
00000000
00000000
00033000
,
00110000
00000000
00100000
00000000
01000000
00000000
10000000
00010000
,
01000000
00000000
00001000
00000000
00010000
00000000
00001000
00010000
,
00000100
00000000
00001000
00000000
00000010
00000000
00000100
00000001
,
00000202
00000000
00000000
00000303
,
00001010
00000000
00000010
00000000
00000100
00000000
00000001
00001000
,
00000100
00000000
00010000
00000000
00001000
00000000
00010000
00001000
,
01000000
00000000
00010000
00000000
00100000
00000000
01000000
10000000
,
11000000
00000000
10100000
00000000
01010000
00000000
01000000
00001000
,
00011000
00010000
00000100
00001000
00000010
00000100
00000001
00001000
,
00000100
00010000
00001000
00100000
01000000
10000000
00100000
01000000
,
00010000
00100000
00001000
00010000
00000100
00000010
00000001
00000100
,
00000010
00001000
00000100
00010000
00001000
00100000
00001000
00010000
,
00011000
00001000
01000000
00010000
00100000
01000000
10000000
00010000
,
01000000
00001000
00010000
00000010
00000100
00000001
00000010
00000100
,
00001000
00000010
00010000
00001000
01000000
00100000
10000000
01000000
,
00100000
00010000
01000000
00001000
00010000
00000010
00010000
00001000
,
00012000
00000000
00000000
00203000
00000000
00000000
01300000
00000000
10000000
00000000
00010000
00000000
01000000
00000000
00001000
00000000
,
00020000
00000000
00000000
00030020
00000000
00000000
00000130
00000000
00000001
00000000
00001000
00000000
00000100
00000000
00010000
00000000
,
00002000
00000000
00013000
00000100
00010000
00001000
00100000
00001000
,
00010000
00000000
00000000
00000000
;

//--------------- dance-double - ----------------
#NOTEDATA:;
#STEPSTYPE:dance-double;
#DESCRIPTION:;
#DIFFICULTY:Hard;
#METER:13;
#RADARVALUES:0,0,0,0,0;
#NOTES:
00000000
00000000
00000000
00000000
,
00000000
00000000
00000000
00000000
,
00000000
00000000
00000000
00000000
,
00000000
00000000
00000000
00000000
,
00000000
00000000
00000000
00000000
,
00000001
00000100
00000001
00000000
00000010
00000000
00000100
00010000
00000000
00001000
00100000
00000000
00010000
00000000
00100000
01000000
,
00000000
01000000
10000000
00000000
00010000
00000000
01000000
00001000
00000000
00010000
00000100
00000000
00000010
00000000
00000001
00001000
,
00000000
00001000
00000100
00000000
00010000
00000000
00001000
01000000
00000000
00100000
10000000
00000000
01000000
00000000
10000000
00000000
,
20200000
00000000
00000000
00000000
00000000
00000000
00300000
30010000
,
10010000
10000000
01000000
00100000
00020000
00000000
00130000
00001000
,
00010000
00000100
00002000
00000000
00000001
00000000
00000001
00000000
,
00003001
00001000
00000010
00010000
00002000
00000000
00103000
00001000
,
00101000
00000000
00011000
00000000
00010000
00000100
00001100
00000000
,
00001000
00000001
00000100
00000010
00002000
00000000
00003010
00010000
,
00001000
01000000
00020000
00000000
10000000
00000000
10000000
00000000
,
10030000
00010000
00100000
00001000
00020000
00000000
00030010
00001000
,
00000010
00010000
00011000
00000000
00002000
00000000
00013000
00000100
,
00010100
00010000
00000100
00000010
00000002
00000000
00000103
00000010
,
00001000
00000100
00010000
00000000
00011000
00001000
00100000
01000000
,
20000000
00000000
30100000
01000000
00010000
01000000
00001000
00010000
,
00011000
00000000
00101000
00000000
00100000
01000000
10000000
00200000
,
00000000
01300000
00001000
00010000
00000200
00000000
00001300
00000010
,
00000110
00000000
00000101
00000000
00000001
00000010
00000100
00002000
,
00000000
00003100
00010000
00001000
01000000
00100000
01000000
00001000
,
00010000
00000000
00000100
00000000
00002000
00000000
00000000
00000000
00003100
00000000
00000010
00000001
00001000
00000000
00000100
00000000
,
00010100
00010000
00001000
00100000
01000000
10000000
00100000
01000000
,
01010000
00010000
00100000
00001000
00010000
00000100
00000010
00000001
,
00000100
00000100
00000001
00000000
00001001
00000000
00010100
00000000
,
00011000
00010000
00001000
00100000
01000000
00100000
00010000
01000000
,
01001000
00001000
00010000
00000010
00000100
00000001
00000010
00000100
,
00001100
00001000
00000010
00010000
00001000
01000000
00100000
10000000
,
11000000
00110000
00011000
00001100
,
00022000
00000000
00000000
00000000
00000000
00033000
00001000
00100000
,
00101000
00000000
00000000
01100000
00000000
00000000
01000000
00000000
10000000
00000000
00100000
00000000
01000000
00000000
00001000
00000000
,
01001000
00000000
00000000
00011000
00000000
00000000
00010000
00000000
00000100
00000000
00000010
00000000
00000001
00000000
00001000
00000000
,
00001010
00000000
00000010
00000100
00000001
00000010
00000100
00010000
,
00011000
00000000
00000000
00000000
00001000
00000000
00100000
00001000
00000000
00010000
00001000
00000000
00010000
00000000
00000010
00000000
,
00010010
00000000
00000000
00000110
00000000
00000000
00000100
00000000
00000001
00000000
00000010
00000000
00000100
00000000
00010000
00000000
,
00010100
00000000
00000000
00011000
00000000
00000000
00001000
00000000
01000000
00000000
00100000
00000000
10000000
00000000
00010000
00000000
,
00110000
00000000
00100000
01000000
10000000
00100000
01000000
00001000
,
00011000
00000000
00000000
00000000
00010000
00000000
00000010
00010000
00000000
00001000
00010000
00000000
00000100
00000000
00010000
00000000
,
00011000
00000000
00001000
00100000
00001000
00000000
00100000
00000000
01000000
00000000
10000000
00100000
10000000
00000000
01000000
00000000
,
00100000
00000000
00010000
00100000
00010000
00000000
01000000
00000000
00001000
00000000
00010000
00001000
00010000
00000000
00000100
00000000
,
00000010
00000000
00000001
00000100
00000001
00000000
00001000
00000000
00000100
00000000
00010000
00001000
00010000
00000000
00001000
00000000
,
00100000
00000000
01000000
10000000
01000000
00000000
00100000
00000000
00001000
00000000
00010000
00000000
00011000
00000000
00001000
00000000
,
00011000
00000000
00010000
00000010
00010000
00000000
00000010
00000000
00000100
00000000
00000001
00000010
00000001
00000000
00000100
00000000
,
00000010
00000000
00001000
00000010
00001000
00000000
00000100
00000000
00010000
00000000
00001000
00010000
00001000
00000000
01000000
00000000
,
00100000
00000000
10000000
01000000
10000000
00000000
00010000
00000000
01000000
00000000
00001000
00010000
00001000
00000000
00010000
00000000
,
00020200
00000000
00000000
00030300
,
00001010
00000000
00000000
00000000
00000020
00000000
00000000
00020030
00000000
00000000
00031000
00000000
00100000
00000000
02000000
00000000
,
00000000
03100000
00010000
00000000
01000000
00000000
00001000
00010000
00000000
00000100
00010000
00000000
00001000
00000000
00020000
00000000
,
00000000
00030010
00001000
00000000
00000100
00000000
00010000
00001000
00000000
01000000
00001000
00000000
00010000
00000000
00001000
00000000
,
00022000
00000000
00000000
00033000
,
00110000
00000000
00100000
00000000
01000000
00000000
10000000
00100000
00000000
01000000
00010000
00000000
00100000
00000000
00001000
00000000
,
00010000
00000000
00000100
00000000
00000010
00000000
00000001
00000100
00000000
00000010
00001000
00000000
00000100
00000000
00010000
00000000
,
00001000
00000000
00100000
00000000
01000000
00000000
10000000
00100000
00000000
01000000
00010000
00000000
00100000
00000000
00001000
00000000
,
00011000
00010000
01000000
00010000
00001000
00010000
00000010
00001000
,
00000010
00000100
00000001
00000000
00000100
00000000
00000001
00000010
00000000
00000100
00001000
00000000
00000100
00000000
00010000
00000000
,
00001000
00100000
01000000
00000000
10000000
00000000
00100000
01000000
00000000
00010000
10000000
00000000
00100000
00000000
01000000
00000000
,
00010000
00100000
00001000
00000000
00010000
00000000
00000100
00001000
00000000
00000010
00001000
00000000
00000001
00000000
00000010
00000000
,
00000100
00000010
00000001
00000000
00000100
00000000
00000010
00001000
00000000
00001000
00000100
00000000
00010000
00000000
00001000
00000000
,
00100000
01000000
10000000
00000000
01000000
00000000
10000000
00100000
00000000
01000000
00010000
00000000
01000000
00000000
00001000
00000000
,
00010000
00000010
00000100
00000000
00000001
00000000
00000010
00000100
00000000
00001000
00000001
00000000
00000010
00000000
00000100
00000000
,
00001000
00000010
00010000
00000000
00001000
00000000
01000000
00010000
00000000
00100000
00010000
00000000
10000000
00000000
00100000
00000000
,
01000000
00100000
10000000
00000000
01000000
00000000
00100000
00010000
00000000
00010000
01000000
00000000
00001000
00000000
00010000
00000000
,
00010200
00000000
00000000
00002300
00000000
00000000
00003001
00000000
00000100
00000000
00000010
00000000
00010000
00000000
00001000
00000000
,
02000000
00000000
00000000
03020000
00000000
00000000
10030000
00000000
01000000
00000000
00100000
00000000
00001000
00000000
00010000
00000000
,
00011000
00000000
00001000
00100000
00001000
00010000
00000010
00010000
,
00001000
00000000
00000000
00000000
;
