#TITLE:DJ Is Playing My Song;
#SUBTITLE:;
#ARTIST:Eurofunk;
#TITLETRANSLIT:;
#SUBTITLETRANSLIT:;
#ARTISTTRANSLIT:;
#GENRE:SUPER EUROBEAT;
#CREDIT:;
#BANNER:DJ is Playing My Song.png;
#BACKGROUND:DJ is Playing My Song-bg.png;
#LYRICSPATH:;
#CDTITLE:;
#MUSIC:DJ Is Playing My Song.ogg;
#OFFSET:0.000000;
#SAMPLESTART:45.535000;
#SAMPLELENGTH:12.040001;
#SELECTABLE:YES;
#BPMS:0.000000=158.000000
,279.000000=110.000000
;
#STOPS:
;
#BGCHANGES:;
#KEYSOUNDS:;
#ATTACKS:;

//---------------dance-single - Classic 10 | Modern 15----------------
#NOTES:
     dance-single:
     :
     Challenge:
     15:
     0.708032,0.904766,0.409311,0.338126,0.498292,557.000000,511.000000,46.000000,38.000000,13.000000,0.000000,0.708032,0.904766,0.409311,0.338126,0.498292,557.000000,511.000000,46.000000,38.000000,13.000000,0.000000:
// measure 0
0000
0000
0000
0000
,  // measure 1
0000
0000
0000
0000
,  // measure 2
0000
0000
0000
0000
,  // measure 3
0000
0000
0000
0000
,  // measure 4
0000
0000
0000
0000
,  // measure 5
0000
0000
0000
0000
,  // measure 6
0000
0000
0000
0000
,  // measure 7
0000
0000
0000
0000
,  // measure 8
0110
0000
0010
0000
1000
0001
0100
0000
200M
0000
3010
0000
M002
0000
0103
0000
,  // measure 9
1000
0100
0010
0000
0001
0010
0100
0000
0001
0000
0010
0001
0000
1000
0100
0000
,  // measure 10
2000
0000
0000
0000
3010
0000
1000
0000
0001
0100
0010
0000
0100
0001
1000
0000
,  // measure 11
0100
1000
0010
0000
0100
0000
0010
1000
0001
0000
0010
0000
0100
0010
0001
0000
,  // measure 12
0010
0001
1000
0000
0010
1000
0001
0000
2000
0000
3010
0000
M002
0000
0103
0000
,  // measure 13
1000
0001
0100
0000
0001
1000
0100
0000
1000
0000
0010
1000
0000
0001
0100
0000
,  // measure 14
0002
0000
0000
0000
1003
0000
1000
0000
0001
0100
0001
0000
0001
0100
0001
1000
,  // measure 15
0100
1000
0001
0100
0010
1000
0100
1000
0010
0100
0001
0100
0010
1000
0000
0000
,  // measure 16
0100
0000
0010
0100
0020
0000
0000
0000
0031
0000
0001
0000
0000
0000
1002
0000
,  // measure 17
0000
1003
1000
0200
0001
0301
0000
0101
,  // measure 18
0100
0000
1000
0001
1000
0000
0010
0000
0010
0000
0100
0000
0000
0000
0101
0000
,  // measure 19
0000
1001
0010
1020
0000
1000
2030
0000
,  // measure 20
3001
0000
1000
0010
1000
0000
0000
0000
0010
0000
0100
0000
0000
0000
0120
0000
,  // measure 21
0000
0100
0100
0230
0001
0301
0000
0011
,  // measure 22
0001
0000
0010
0001
0010
0000
0100
0000
1000
0000
0001
0000
0000
0000
1001
0000
,  // measure 23
0001
0100
0010
1000
0000
1000
0100
1000
,  // measure 24
0001
0100
0001
0100
0001
0000
1000
0010
1000
0000
0001
0100
0001
0000
1000
0001
,  // measure 25
0000
0000
1000
0100
0000
0000
1000
0001
0000
0000
0100
0001
0000
0000
0001
1000
,  // measure 26
0100
1000
0100
1000
0001
0000
0001
1000
0000
0000
0001
0100
0000
0000
0001
0010
,  // measure 27
0000
0000
0001
1000
0000
0000
0001
0100
0000
0000
0010
0000
1000
0000
0001
0000
,  // measure 28
0011
0000
1010
0001
0000
0101
0000
1000
,  // measure 29
0000
1100
0000
1001
0000
0011
0000
0000
,  // measure 30
0110
0010
1001
0100
0010
0001
1001
0100
,  // measure 31
000M
1000
1010
0010
0100
0001
0101
0001
,  // measure 32
1000
0100
0110
0100
1000
0001
0011
0001
,  // measure 33
M000
0010
0011
0001
1000
0010
1010
1001
,  // measure 34
0011
0100
1100
1000
0001
1000
1010
1000
,  // measure 35
0M00
1000
1001
0001
1000
0100
0110
0010
,  // measure 36
0001
0000
0100
0000
1000
0000
0001
0000
0010
1000
0001
0000
0010
0000
0100
0000
,  // measure 37
0110
0000
1001
1100
0000
1001
0000
0101
,  // measure 38
1000
0001
0100
0000
0001
1000
0010
0000
M002
0000
0103
0000
200M
0000
3010
0000
,  // measure 39
0001
0010
0100
0000
1000
0100
0010
0000
1000
0000
0100
1000
0000
0001
0010
0000
,  // measure 40
0002
0000
0000
0000
0103
0000
0001
0000
1000
0010
0100
0000
0010
1000
0001
0000
,  // measure 41
0010
0001
0100
0000
0010
0000
0100
0001
1000
0000
0100
0000
0010
0100
1000
0000
,  // measure 42
0100
1000
0001
0000
0100
0001
1000
0000
0002
0000
0103
0000
200M
0000
3010
0000
,  // measure 43
0001
1000
0010
0000
1000
0001
0010
0000
0001
0000
0100
0001
0000
1000
0010
0000
,  // measure 44
2000
0000
0000
0000
3001
0000
0001
0000
1000
0010
1000
0000
1000
0010
1000
0100
,  // measure 45
1000
0010
0100
0001
1000
0001
0010
0001
0100
0010
1000
0100
1000
0001
0000
0000
,  // measure 46
1000
0000
0001
0000
0021
0000
0000
0031
1000
0000
0000
1000
0010
0000
0000
0010
,  // measure 47
0001
0010
1000
0100
0001
0100
1000
0100
,  // measure 48
00MM
0000
0100
0000
0001
0000
0010
0000
0001
0000
1000
0000
0010
0000
1000
0100
,  // measure 49
1000
0010
0100
0001
0100
0010
1000
0001
0010
0001
1000
0100
1000
0000
M01M
0000
,  // measure 50
0010
0000
0001
0010
0002
0000
0103
0010
0100
0001
1000
0010
0100
0010
1000
0001
,  // measure 51
1000
0100
0010
0000
0100
0010
0000
0001
0010
0000
0100
0010
0000
1000
0010
0000
,  // measure 52
0001
0010
0100
0000
1000
0000
0001
1000
0010
0000
1000
0010
0000
0100
0010
0000
,  // measure 53
2000
0000
0001
0100
0000
3001
0000
0100
,  // measure 54
1001
0100
0010
0001
0100
0010
1000
0000
,  // measure 55
0001
0010
0100
1000
0010
0100
0001
0001
,  // measure 56
2000
0000
3100
0000
0000
0000
1000
0000
0001
1000
0010
0000
0000
0000
1010
0000
,  // measure 57
0001
1000
0010
0110
0000
1010
0100
0100
,  // measure 58
1002
0000
0000
0000
0103
0000
0001
0010
0001
0000
1000
0000
0100
0000
1000
0010
,  // measure 59
2000
0000
0000
0000
3001
0000
0100
0010
0100
0001
1000
0000
0100
0000
0010
0000
,  // measure 60
0120
0000
0031
0100
0010
1000
0001
0000
,  // measure 61
2002
0000
0000
3003
,  // measure 62
0120
0000
0000
1030
0000
0000
0002
0000
,  // measure 63
0010
0000
0100
0000
1003
0010
0100
0010
,  // measure 64
2000
0000
0010
0000
3001
0100
0000
0002
,  // measure 65
1003
0001
0100
0000
0000
0000
0001
0000
0100
0000
1000
0000
0100
0000
0001
1000
,  // measure 66
0002
0000
0100
0000
1003
0001
1000
0200
,  // measure 67
0001
0000
1000
0000
0301
0100
1000
0001
,  // measure 68
1002
0000
0000
0000
,  // measure 69
1003
0100
1000
0100
1000
0100
1000
0100
1000
0020
0000
0000
0000
0030
0000
2002
,  // measure 70
0000
3003
0000
0000
0000
0000
0000
0000
;

//---------------dance-single - Classic 8 | Modern 12----------------
#NOTES:
     dance-single:
     :
     Hard:
     12:
     0.518630,0.530380,0.240248,0.329228,0.071185,408.000000,381.000000,27.000000,37.000000,0.000000,0.000000,0.518630,0.530380,0.240248,0.329228,0.071185,408.000000,381.000000,27.000000,37.000000,0.000000,0.000000:
// measure 0
0000
0000
0000
0000
,  // measure 1
0000
0000
0000
0000
,  // measure 2
0000
0000
0000
0000
,  // measure 3
0000
0000
0000
0000
,  // measure 4
0000
0000
0000
0000
,  // measure 5
0000
0000
0000
0000
,  // measure 6
0000
0000
0000
0000
,  // measure 7
0000
0000
0000
0000
,  // measure 8
1001
0001
1000
0010
0001
0010
1000
0001
,  // measure 9
1000
0000
0100
0000
0010
0000
0001
0000
0100
0000
0000
0010
0000
0000
1000
0000
,  // measure 10
0002
1000
0100
1000
,  // measure 11
0103
0010
1000
0001
0010
0100
0000
0110
,  // measure 12
0001
1000
0010
1000
0001
0100
1000
0100
,  // measure 13
0010
0000
1000
0000
0100
0000
1000
0000
0010
0000
0000
0100
0000
0000
0001
0000
,  // measure 14
2000
0000
0100
0000
0001
0000
3100
1000
,  // measure 15
0001
0000
0100
0000
0010
1000
0010
0000
0100
0000
0001
0000
0010
0001
0000
0000
,  // measure 16
1000
0010
2000
0000
0001
3001
0000
0102
,  // measure 17
0000
0100
0100
0203
0000
0310
1000
0000
,  // measure 18
0001
0010
0002
0000
1003
0100
0000
0210
,  // measure 19
0000
1000
1000
2300
0000
0010
3020
0000
,  // measure 20
0130
0010
1000
0000
0001
0010
0000
0210
,  // measure 21
0000
1300
1000
0020
0000
0100
0130
0000
,  // measure 22
0010
1000
0001
0000
1000
0010
0000
2010
,  // measure 23
0000
0000
3100
0200
0000
0310
0001
1000
,  // measure 24
1001
0100
0010
0000
0010
0001
0100
0000
,  // measure 25
0010
1000
0100
0001
0100
1000
0001
0000
,  // measure 26
0100
0001
0010
0000
0100
1000
0010
0000
,  // measure 27
0100
0001
0010
1000
0010
0001
0100
0010
,  // measure 28
0120
0000
1000
2030
0000
3002
0000
0203
,  // measure 29
0000
0001
0000
0310
2000
0000
3001
2000
,  // measure 30
0100
3100
0001
0100
1000
0010
0001
0010
,  // measure 31
1000
0100
0010
0001
0100
0010
1000
1000
,  // measure 32
0001
0100
1000
0100
0001
0010
1000
0010
,  // measure 33
0001
0100
0010
1000
0100
0010
0001
0001
,  // measure 34
1000
0010
1000
0001
1000
0010
0100
0100
,  // measure 35
0001
0010
0001
1000
0001
0100
0010
0010
,  // measure 36
1000
0100
1000
0010
0100
0001
0010
0000
,  // measure 37
0001
0100
0001
0010
0000
0110
0000
1001
,  // measure 38
1000
0010
1000
0001
1000
0010
0001
0010
,  // measure 39
1000
0000
0001
0000
1000
0000
0100
0000
0010
0000
0000
0001
0000
0000
0100
0000
,  // measure 40
0020
1000
0100
0001
,  // measure 41
0130
0001
1000
0100
0010
0100
0000
0110
,  // measure 42
0001
0100
0001
1000
0001
0010
1000
0010
,  // measure 43
0001
0000
0100
0000
0010
0000
1000
0000
0001
0000
0000
0010
0000
0000
0100
0000
,  // measure 44
2000
0000
0010
0000
0001
0000
3100
1000
,  // measure 45
0001
0000
0100
0000
0010
1000
0010
0000
0100
0000
0001
0000
0010
0001
0000
0000
,  // measure 46
1000
0000
0000
0000
2010
0000
0000
0000
3002
0000
0000
2003
0100
0000
0000
3100
,  // measure 47
0010
0100
1000
0010
0001
0010
1000
0100
,  // measure 48
0000
0010
0001
0100
0010
1000
0100
1000
,  // measure 49
0010
1000
0001
0100
0010
0100
0001
0001
,  // measure 50
0100
0001
1000
0010
1000
0001
0100
0001
,  // measure 51
0010
0000
0001
0000
0000
0001
0000
0000
0100
0000
0000
0100
0000
0000
0100
0000
,  // measure 52
0010
1000
0000
0000
0001
0000
0000
0001
1000
0000
0000
0100
0000
0000
0010
0000
,  // measure 53
0002
0000
0100
0100
0000
1000
1003
0000
,  // measure 54
0010
0001
0010
1000
0001
1000
0100
0000
,  // measure 55
0010
1000
0010
0001
1000
0001
0100
0000
,  // measure 56
0010
1000
0000
0001
1000
0100
0000
0110
,  // measure 57
0000
0011
0000
0101
0000
1000
0100
0010
,  // measure 58
0002
1000
0100
1000
,  // measure 59
0203
0000
0010
0000
1300
0100
0001
0000
,  // measure 60
0012
0000
1003
0001
0100
0010
1000
0000
,  // measure 61
2002
0000
0000
3003
,  // measure 62
0100
0011
0100
1001
,  // measure 63
0100
0000
1010
0000
1000
0001
0100
0020
,  // measure 64
1000
0030
1010
0000
0100
0000
0011
0000
,  // measure 65
1000
0000
0101
0000
0010
1000
0001
0020
,  // measure 66
0001
0030
1100
0000
0010
0000
1002
0000
,  // measure 67
1003
0000
1010
0000
0100
0001
0010
0100
,  // measure 68
2000
0000
0000
0000
,  // measure 69
3002
0000
0000
0000
0000
0000
0000
0000
0000
0000
0000
0000
0000
0003
0000
2002
,  // measure 70
0000
3003
0000
0000
0000
0000
0000
0000
;

//---------------dance-single - Classic 6 | Modern 9----------------
#NOTES:
     dance-single:
     :
     Medium:
     9:
     0.437276,0.499181,0.249146,0.293636,0.031143,344.000000,316.000000,28.000000,33.000000,0.000000,0.000000,0.437276,0.499181,0.249146,0.293636,0.031143,344.000000,316.000000,28.000000,33.000000,0.000000,0.000000:
// measure 0
0000
0000
0000
0000
,  // measure 1
0000
0000
0000
0000
,  // measure 2
0000
0000
0000
0000
,  // measure 3
0000
0000
0000
0000
,  // measure 4
0000
0000
0000
0000
,  // measure 5
0000
0000
0000
0000
,  // measure 6
0000
0000
0000
0000
,  // measure 7
0000
0000
0000
0000
,  // measure 8
2000
0000
0010
0000
3010
1000
0001
0100
,  // measure 9
0002
0000
0000
0000
1000
0000
0000
0000
1003
0000
0000
0100
0000
0000
0010
0000
,  // measure 10
0002
0000
1000
1000
0000
0100
0000
1000
,  // measure 11
0003
1000
0010
0000
0010
0100
0000
0100
,  // measure 12
0020
0000
1000
0000
0130
0001
1000
0100
,  // measure 13
0020
0000
0000
0000
0001
0000
0000
0000
0130
0000
0000
1000
0000
0000
1000
0000
,  // measure 14
0002
0000
1000
0000
0100
0000
1003
0010
,  // measure 15
0000
0110
0000
1001
0000
0110
0000
0000
,  // measure 16
1000
0100
1000
0000
0010
0100
0010
0000
,  // measure 17
0100
0001
0010
0100
2000
0000
3000
0000
,  // measure 18
0100
0010
0001
0000
0010
0100
1000
0000
,  // measure 19
0100
1000
0010
0100
0002
0000
0003
0000
,  // measure 20
0100
0010
0100
0000
0010
1000
0010
0000
,  // measure 21
1000
0100
1000
0010
0200
0000
0300
0000
,  // measure 22
0010
0100
0001
0000
0100
0010
1000
0000
,  // measure 23
0001
0100
0001
0020
0000
0000
0130
0000
,  // measure 24
1000
0000
1100
0000
0001
0100
0010
1000
,  // measure 25
0001
0000
0101
0000
0010
1000
0100
0000
,  // measure 26
1000
0000
1010
0000
0001
0100
0010
1000
,  // measure 27
0001
0000
0011
0000
0001
1000
1000
0001
,  // measure 28
2000
0000
0010
0010
0000
0100
0000
3001
,  // measure 29
0000
0101
0000
1100
0000
1001
0000
0000
,  // measure 30
1000
0010
1000
0000
0001
0010
0001
0000
,  // measure 31
1000
0010
1000
0001
0010
0001
0100
0000
,  // measure 32
0001
0100
0001
0000
1000
0100
1000
0000
,  // measure 33
0001
0100
0001
1000
0100
1000
0001
0000
,  // measure 34
0010
0100
0010
0000
0001
1000
0001
0000
,  // measure 35
0010
0100
0010
0001
1000
0001
0100
0000
,  // measure 36
0010
1000
0100
0000
0010
0001
0100
0000
,  // measure 37
2001
0000
0100
3100
0000
0110
0000
0001
,  // measure 38
0002
0000
0100
0000
0103
0001
1000
0010
,  // measure 39
2000
0000
0000
0000
0001
0000
0000
0000
3001
0000
0000
0010
0000
0000
0100
0000
,  // measure 40
2000
0000
0001
0001
0000
0010
0000
0001
,  // measure 41
3000
0001
0100
0000
0100
0010
0000
0010
,  // measure 42
0200
0000
0001
0000
0310
1000
0001
0010
,  // measure 43
0200
0000
0000
0000
1000
0000
0000
0000
0310
0000
0000
0001
0000
0000
0001
0000
,  // measure 44
2000
0000
0001
0000
0010
0000
3001
0100
,  // measure 45
0000
0110
0000
1001
0000
0110
0000
0000
,  // measure 46
1000
1100
0101
1100
,  // measure 47
0001
0011
1010
0011
,  // measure 48
1000
0010
1000
0000
0010
0100
0010
0000
,  // measure 49
0100
0001
0100
0001
1000
0001
1000
1000
,  // measure 50
0020
0100
0001
1000
,  // measure 51
0130
0000
0000
0000
0001
0000
0000
0000
1000
0000
0000
0100
0000
0000
0010
0000
,  // measure 52
0001
0000
0000
0000
1000
0000
0000
0000
0001
0000
0000
0010
0000
0000
0100
0000
,  // measure 53
2000
0000
0001
3001
0000
0100
0000
0010
,  // measure 54
1000
0100
1000
0000
0001
0010
0001
0000
,  // measure 55
1000
0100
1000
0001
0010
0001
1000
0000
,  // measure 56
0001
0000
0101
0000
0001
0010
0000
0110
,  // measure 57
0000
1001
0000
0110
0000
1000
0100
0000
,  // measure 58
1002
0100
1000
0103
,  // measure 59
2000
0000
0100
0000
3001
1000
0100
0000
,  // measure 60
0020
0000
0031
1000
0000
0010
0100
0000
,  // measure 61
0220
0000
0000
0330
,  // measure 62
2000
0001
0001
0100
,  // measure 63
0100
0000
0010
0000
3010
1000
0001
0100
,  // measure 64
0002
1000
1000
0010
,  // measure 65
0010
0000
0100
0000
0103
0001
1000
0100
,  // measure 66
2000
0010
0001
3010
,  // measure 67
0002
0000
1000
0000
1003
0001
0100
0010
,  // measure 68
2000
0000
0000
0000
,  // measure 69
0002
0000
0000
0000
0000
0000
0000
0000
0000
0000
0000
0000
3003
0000
0000
2002
,  // measure 70
0000
3003
0000
0000
0000
0000
0000
0000
;

//---------------dance-single - Classic 1 | Modern 2----------------
#NOTES:
     dance-single:
     :
     Beginner:
     2:
     0.171606,0.217224,0.044490,0.186859,0.000000,135.000000,130.000000,5.000000,21.000000,0.000000,0.000000,0.171606,0.217224,0.044490,0.186859,0.000000,135.000000,130.000000,5.000000,21.000000,0.000000,0.000000:
// measure 0
0000
0000
0000
0000
,  // measure 1
0000
0000
0000
0000
,  // measure 2
0000
0000
0000
0000
,  // measure 3
0000
0000
0000
0000
,  // measure 4
0000
0000
0000
0000
,  // measure 5
0000
0000
0000
0000
,  // measure 6
0000
0000
0000
0000
,  // measure 7
0000
0000
0000
0000
,  // measure 8
1001
0000
1000
0000
,  // measure 9
0001
0000
0001
0000
,  // measure 10
0100
0100
0100
0000
,  // measure 11
0010
0010
0010
0000
,  // measure 12
0100
0000
0100
0000
,  // measure 13
0001
0000
0001
0000
,  // measure 14
1000
1000
1000
0000
,  // measure 15
0010
0010
0010
0000
,  // measure 16
2000
0000
3000
0000
,  // measure 17
0200
0000
0300
0000
,  // measure 18
2000
0000
3000
0000
,  // measure 19
0002
0000
0003
0000
,  // measure 20
0100
0100
0100
0000
,  // measure 21
0010
0010
0010
0000
,  // measure 22
0100
0100
0100
0000
,  // measure 23
0010
0010
0010
0000
,  // measure 24
2000
0000
3000
0000
,  // measure 25
0002
0000
0003
0000
,  // measure 26
2000
0000
3000
0000
,  // measure 27
0001
0001
0001
0000
,  // measure 28
2002
0000
0000
0000
,  // measure 29
3003
0000
0000
0000
,  // measure 30
1000
1000
1000
0000
,  // measure 31
0100
0100
0100
0000
,  // measure 32
0010
0010
0010
0000
,  // measure 33
0001
0001
0001
0000
,  // measure 34
1000
1000
0000
0001
,  // measure 35
0000
1000
0000
0001
,  // measure 36
0001
0000
0100
0000
,  // measure 37
0220
0000
0330
0000
,  // measure 38
0100
0100
0100
0000
,  // measure 39
0010
0010
0010
0000
,  // measure 40
1000
0000
0001
0000
,  // measure 41
1000
0000
0001
0000
,  // measure 42
0010
0010
0010
0000
,  // measure 43
0100
0100
0100
0000
,  // measure 44
0010
0000
0001
0000
,  // measure 45
2002
0000
3003
0000
,  // measure 46
1000
1000
0000
1000
,  // measure 47
0000
0001
0000
0001
,  // measure 48
0000
0010
0000
0100
,  // measure 49
0000
0010
0000
0001
,  // measure 50
0001
0001
0000
1000
,  // measure 51
0000
0001
0000
0100
,  // measure 52
0000
0100
0000
0001
,  // measure 53
0002
0000
0003
0000
,  // measure 54
0100
0100
0100
0000
,  // measure 55
0010
0010
0010
0000
,  // measure 56
1000
0000
0001
0000
,  // measure 57
1000
1000
0000
0001
,  // measure 58
0002
0000
0003
0000
,  // measure 59
2000
0000
3000
0000
,  // measure 60
0020
0000
0030
0000
,  // measure 61
0220
0000
0330
0000
,  // measure 62
1000
1000
0000
0010
,  // measure 63
0000
0100
0000
0001
,  // measure 64
0000
1000
0000
0010
,  // measure 65
0000
1000
1000
1000
,  // measure 66
0000
0001
0000
0100
,  // measure 67
0000
0001
0000
0010
,  // measure 68
0020
0000
0030
0000
,  // measure 69
0200
0000
0000
0300
;

//---------------dance-single - Classic 3 | Modern 5----------------
#NOTES:
     dance-single:
     :
     Easy:
     5:
     0.279653,0.310320,0.071185,0.177961,0.000000,220.000000,212.000000,8.000000,20.000000,0.000000,0.000000,0.279653,0.310320,0.071185,0.177961,0.000000,220.000000,212.000000,8.000000,20.000000,0.000000,0.000000:
// measure 0
0000
0000
0000
0000
,  // measure 1
0000
0000
0000
0000
,  // measure 2
0000
0000
0000
0000
,  // measure 3
0000
0000
0000
0000
,  // measure 4
0000
0000
0000
0000
,  // measure 5
0000
0000
0000
0000
,  // measure 6
0000
0000
0000
0000
,  // measure 7
0000
0000
0000
0000
,  // measure 8
2000
0010
0100
3100
,  // measure 9
0002
0010
0100
0103
,  // measure 10
0001
0010
0100
1000
,  // measure 11
0010
1000
0100
0010
,  // measure 12
0002
1000
0010
0013
,  // measure 13
2000
0001
0010
3010
,  // measure 14
0001
0100
0010
1000
,  // measure 15
0000
0010
0000
0010
0000
0010
0000
0000
,  // measure 16
1000
1000
0100
0100
,  // measure 17
0010
0001
0200
0300
,  // measure 18
0001
0001
0010
0010
,  // measure 19
0100
1000
0020
0030
,  // measure 20
1000
1000
0001
0001
,  // measure 21
0100
0010
2000
3000
,  // measure 22
0001
0001
1000
1000
,  // measure 23
0010
0100
0000
0110
,  // measure 24
0010
0100
0010
0000
,  // measure 25
1000
0001
1000
0000
,  // measure 26
0100
0010
0100
0000
,  // measure 27
1000
0001
1000
0001
,  // measure 28
1001
0000
1001
0000
0000
0010
0000
0000
,  // measure 29
0000
0100
0000
0100
0000
0100
0000
0000
,  // measure 30
0001
0010
0001
0100
,  // measure 31
0010
1000
0100
0100
,  // measure 32
0010
0001
0010
0100
,  // measure 33
1000
0010
1000
1000
,  // measure 34
0001
0100
0010
1000
,  // measure 35
0100
0010
0100
0100
,  // measure 36
1000
0010
0100
0001
,  // measure 37
2002
0000
0000
3003
,  // measure 38
1000
0001
1000
1000
,  // measure 39
0001
1000
0001
0001
,  // measure 40
0100
0010
1000
0001
,  // measure 41
1000
0010
0100
0001
,  // measure 42
0010
0100
0010
0010
,  // measure 43
0100
0010
0100
0100
,  // measure 44
1000
0010
1000
0100
,  // measure 45
0010
0001
0000
0001
0000
0001
0000
0000
,  // measure 46
1000
1000
0001
0100
,  // measure 47
0010
0100
0001
1000
,  // measure 48
0000
0001
0100
0010
,  // measure 49
1000
0100
0010
0001
,  // measure 50
0000
1000
0010
0100
,  // measure 51
0001
0010
0100
1000
,  // measure 52
0000
0010
0100
0010
,  // measure 53
2000
0001
0000
3001
,  // measure 54
1000
0100
0001
0100
,  // measure 55
1000
0010
0001
0010
,  // measure 56
1000
0100
0010
0001
,  // measure 57
0100
0110
0000
1001
,  // measure 58
2000
0010
0000
3010
,  // measure 59
0002
0100
0000
0103
,  // measure 60
0010
0000
0000
1000
0000
0000
0001
0000
,  // measure 61
2002
0000
0000
3003
,  // measure 62
0002
0010
0000
0100
,  // measure 63
0000
1000
1000
1000
,  // measure 64
2003
0010
0000
0100
,  // measure 65
0000
0001
0001
0001
,  // measure 66
3002
0100
0000
1000
,  // measure 67
0000
0010
0010
0013
,  // measure 68
0220
0000
0000
0330
,  // measure 69
2000
0000
0000
3000
;
