#TITLE:DIG IT DIG OUT;
#SUBTITLE:;
#ARTIST:Stack;
#TITLETRANSLIT:;
#SUBTITLETRANSLIT:;
#ARTISTTRANSLIT:;
#GENRE:;
#CREDIT:;
#BANNER:DIG IT DIG OUT.png;
#BACKGROUND:DIG IT DIG OUT-bg.png;
#LYRICSPATH:;
#CDTITLE:;
#MUSIC:DIG IT DIG OUT.ogg;
#OFFSET:-0.013000;
#SAMPLESTART:57.109001;
#SAMPLELENGTH:20.952999;
#SELECTABLE:YES;
#BPMS:0.000000=181.000000
;
#STOPS:
;
#BGCHANGES:0.000=dig it dig out.avi=1.000=0=0=1=====,
99999=-nosongbg-=1.000=0=0=0 // don't automatically add -songbackground-
;
#KEYSOUNDS:;
#ATTACKS:;

//---------------dance-single - ----------------
#NOTES:
     dance-single:
     :
     Beginner:
     5:
     0.208444,0.330503,0.068549,0.000000,0.000000,149.000000,142.000000,7.000000,0.000000,0.000000,0.000000,0.208444,0.330503,0.068549,0.000000,0.000000,149.000000,142.000000,7.000000,0.000000,0.000000,0.000000:
// measure 0
0000
0000
0000
0000
,  // measure 1
0001
0000
0001
0000
,  // measure 2
1000
0000
0000
0000
,  // measure 3
1000
0000
1000
0000
,  // measure 4
0001
0000
0000
0000
,  // measure 5
0100
0000
0100
0000
,  // measure 6
0010
0000
0000
0000
,  // measure 7
0100
0000
0010
0000
,  // measure 8
1000
0000
0001
0000
,  // measure 9
0110
0000
0000
0000
,  // measure 10
0000
0000
0000
0000
,  // measure 11
0001
0000
0000
0000
,  // measure 12
1000
0000
0001
0000
,  // measure 13
0100
0000
0000
0000
,  // measure 14
0010
0000
0000
0000
,  // measure 15
1000
0000
1000
0000
,  // measure 16
1000
1000
1000
0000
,  // measure 17
0001
0000
0000
0000
,  // measure 18
0010
0000
0000
0000
,  // measure 19
0100
0000
0000
0000
,  // measure 20
0010
0000
0001
0000
,  // measure 21
1000
0000
0000
0000
,  // measure 22
0010
0000
0000
0000
,  // measure 23
0100
0000
0000
0000
,  // measure 24
0010
0000
1000
0000
,  // measure 25
0001
0000
1000
1000
,  // measure 26
1000
0000
0001
0001
,  // measure 27
0001
0000
0100
0100
,  // measure 28
0100
0000
0010
0000
,  // measure 29
1000
0000
0001
0001
,  // measure 30
0001
0000
1000
1000
,  // measure 31
1000
0000
0010
0010
,  // measure 32
0010
0000
0100
0000
,  // measure 33
0001
0000
0000
0000
,  // measure 34
0010
0000
0000
0000
,  // measure 35
0001
0000
0000
0000
,  // measure 36
1000
0000
0000
0000
,  // measure 37
0010
0000
0000
0000
,  // measure 38
0100
0000
0000
0000
,  // measure 39
0010
0000
0010
0000
,  // measure 40
0100
0000
0100
0000
,  // measure 41
0001
0000
1000
0000
,  // measure 42
0110
0000
0000
0000
,  // measure 43
0001
0000
0000
0000
,  // measure 44
1000
0000
0000
0010
,  // measure 45
0000
1000
0000
0000
,  // measure 46
0100
0000
0000
0000
,  // measure 47
0000
0010
0000
0000
,  // measure 48
0100
0000
0000
1000
,  // measure 49
0000
0001
0000
0000
,  // measure 50
0100
0100
0000
0010
,  // measure 51
0000
0100
0000
0000
,  // measure 52
0010
0000
0000
1000
,  // measure 53
0000
0001
0000
0000
,  // measure 54
0010
0000
0000
0001
,  // measure 55
0000
0100
0000
0000
,  // measure 56
0010
0000
0000
1000
,  // measure 57
0000
0001
0001
1000
,  // measure 58
0010
0000
0000
1001
0000
0000
0000
0000
,  // measure 59
0001
0001
0001
0001
,  // measure 60
1000
0000
0000
0000
,  // measure 61
0100
0100
0100
0100
,  // measure 62
0010
0000
0000
0000
,  // measure 63
0001
0001
0001
0001
,  // measure 64
0100
0000
0000
0000
,  // measure 65
0010
1000
0010
1000
,  // measure 66
0010
0000
1000
0000
,  // measure 67
0001
0001
0001
0001
,  // measure 68
1000
0100
0010
0000
,  // measure 69
0100
0100
0100
0100
,  // measure 70
0010
0001
0100
0000
,  // measure 71
0010
0010
0010
0010
,  // measure 72
0100
0001
1000
0000
,  // measure 73
1001
0000
0110
0000
,  // measure 74
1001
0000
0110
0000
,  // measure 75
1000
0000
0000
0000
;

//---------------dance-single - ----------------
#NOTES:
     dance-single:
     :
     Easy:
     8:
     0.397303,0.550839,0.421086,0.215439,0.000000,284.000000,241.000000,43.000000,22.000000,0.000000,0.000000,0.397303,0.550839,0.421086,0.215439,0.000000,284.000000,241.000000,43.000000,22.000000,0.000000,0.000000:
// measure 0
0000
0000
0000
0000
,  // measure 1
1000
1000
0001
0001
,  // measure 2
1000
0001
1000
0001
,  // measure 3
1000
1000
0001
0001
,  // measure 4
1000
0100
0010
0001
,  // measure 5
0001
0001
1000
1000
,  // measure 6
0001
0100
0010
1000
,  // measure 7
1001
1000
1001
0001
,  // measure 8
1001
0000
0110
0000
0010
1000
0100
0000
,  // measure 9
0021
0000
0000
0000
,  // measure 10
0130
1000
0002
0000
,  // measure 11
0103
0010
2000
0000
,  // measure 12
3001
0100
1000
0100
,  // measure 13
0010
1000
0002
0000
,  // measure 14
0013
0100
2000
0000
,  // measure 15
3001
0000
0110
0000
,  // measure 16
1001
0110
1001
0000
,  // measure 17
1000
0000
0001
0010
,  // measure 18
0100
0000
0010
0010
,  // measure 19
0001
0000
0100
0100
,  // measure 20
0110
0000
1001
0000
0001
0001
0000
0000
,  // measure 21
1000
0000
0001
1000
,  // measure 22
0100
0000
0010
0100
,  // measure 23
0010
0000
0100
1000
,  // measure 24
0001
0000
0001
0000
1000
0010
1000
0000
,  // measure 25
0101
0000
0011
0000
,  // measure 26
0110
0000
1100
0000
,  // measure 27
1001
0000
1010
0000
,  // measure 28
0001
0100
0001
1000
,  // measure 29
1100
0000
1001
0000
,  // measure 30
1010
0000
0101
0000
,  // measure 31
0011
0000
0110
0000
,  // measure 32
0100
0010
0001
1000
,  // measure 33
0002
0000
0000
0200
0000
0000
0303
0000
,  // measure 34
0020
0000
0000
2000
0000
0000
3030
0000
,  // measure 35
0002
0000
0000
0200
0000
0000
0303
0000
,  // measure 36
0020
0000
0000
2030
0000
0000
3001
0000
,  // measure 37
2000
0000
0000
0200
0000
0000
3300
0000
,  // measure 38
0020
0000
0000
0002
0000
0000
0033
0000
,  // measure 39
1000
0001
1000
0001
,  // measure 40
1000
0001
1000
0001
,  // measure 41
1000
0100
0010
0001
,  // measure 42
0220
0000
0000
0330
,  // measure 43
1001
0000
0001
0000
0000
0100
0000
0000
,  // measure 44
0001
0000
0000
1000
0000
0000
0100
0000
,  // measure 45
0000
0010
0100
1000
,  // measure 46
0010
1000
0000
0001
,  // measure 47
0000
0000
1000
0000
0000
1000
0000
0000
,  // measure 48
0001
0000
0000
0001
0000
0000
0010
0000
,  // measure 49
0000
0100
0010
0001
,  // measure 50
1001
0000
0110
0000
0000
1000
0001
1000
,  // measure 51
0000
0000
0001
0000
0000
0100
0000
0000
,  // measure 52
0001
0000
0000
1000
0000
0000
0100
0000
,  // measure 53
0000
0010
0100
1000
,  // measure 54
0010
0100
0000
0010
,  // measure 55
0000
0000
0100
0000
0000
0001
0000
0000
,  // measure 56
0010
0000
0000
0100
0000
0000
1000
0000
,  // measure 57
0000
0100
0010
0001
,  // measure 58
2000
0000
3001
0200
0000
0000
0000
0000
,  // measure 59
0301
0001
0001
0001
,  // measure 60
1000
0010
0100
0001
,  // measure 61
1000
1000
1000
1000
,  // measure 62
0001
0010
0100
0010
,  // measure 63
0100
0100
0100
0100
,  // measure 64
1000
0001
1000
0001
,  // measure 65
0010
0010
0100
0100
,  // measure 66
0010
0000
0100
0000
0010
0100
1000
0000
,  // measure 67
0101
0101
1100
1100
,  // measure 68
0001
1000
0010
1000
,  // measure 69
1100
1100
0101
0101
,  // measure 70
0001
1000
0010
1000
,  // measure 71
0011
0011
1010
1010
,  // measure 72
0001
1000
0100
0010
,  // measure 73
0011
0001
1010
1000
,  // measure 74
1001
0000
0110
0000
1000
0001
0020
0000
,  // measure 75
0030
0000
0000
0000
;

//---------------dance-single - ----------------
#NOTES:
     dance-single:
     :
     Medium:
     12:
     0.521810,0.587561,0.244817,0.166476,0.000000,373.000000,348.000000,25.000000,17.000000,0.000000,0.000000,0.521810,0.587561,0.244817,0.166476,0.000000,373.000000,348.000000,25.000000,17.000000,0.000000,0.000000:
// measure 0
0000
0000
0000
0000
,  // measure 1
0001
0001
1000
1000
,  // measure 2
0001
0100
0001
0000
1000
0100
1000
0000
,  // measure 3
0010
0010
0100
0100
,  // measure 4
0001
1000
0100
0010
0001
0100
1000
0010
,  // measure 5
1000
1000
0001
0001
,  // measure 6
0100
0010
0100
0000
0001
1000
0001
0000
,  // measure 7
0010
0100
1000
0100
0010
0100
1000
0100
,  // measure 8
0010
0000
0001
0000
0100
0010
1000
0000
,  // measure 9
0202
0000
0000
0303
,  // measure 10
0001
0000
1000
0001
0200
0000
0000
0000
,  // measure 11
0310
0000
1000
0001
0020
0000
0000
0000
,  // measure 12
0130
0000
0110
0000
0100
1000
0010
0000
,  // measure 13
0200
0000
0301
0010
0001
0000
0100
0000
,  // measure 14
0010
0000
0100
0010
2000
0000
3000
0000
,  // measure 15
1001
0000
0110
0000
,  // measure 16
1001
0110
1001
0000
,  // measure 17
0001
0000
0000
0000
0100
0010
0100
0000
,  // measure 18
0001
0000
0000
0000
0010
0100
1000
0000
,  // measure 19
0010
0000
0000
0000
0100
0010
1000
0000
,  // measure 20
0001
0000
1000
0000
0010
0010
0000
0000
,  // measure 21
0100
0000
0000
0000
0010
1000
0100
0000
,  // measure 22
0011
0000
0000
0000
0001
0010
0100
0000
,  // measure 23
1100
0000
0000
0000
0100
1000
0010
0000
,  // measure 24
1000
0000
0100
0000
0010
0100
1000
0000
,  // measure 25
0101
0000
0000
0000
0001
0100
0010
0000
,  // measure 26
1001
0000
0000
0000
1000
0100
0010
0001
,  // measure 27
1000
0000
0000
0000
0001
0010
0100
1000
,  // measure 28
0001
0000
1000
0000
0010
0010
0100
0000
,  // measure 29
1001
0000
0000
0000
0001
1000
0100
0000
,  // measure 30
0011
0000
0000
0000
0010
0001
1000
0100
,  // measure 31
1000
0000
0000
0000
0100
1000
0001
0100
,  // measure 32
0001
0010
0100
1000
,  // measure 33
2001
0000
0000
3010
0000
0000
0000
0000
,  // measure 34
1002
0000
0000
0013
0000
0000
0000
0000
,  // measure 35
2001
0000
0000
3100
0000
0000
0000
0000
,  // measure 36
1002
0000
0000
0103
0000
0000
0010
0000
,  // measure 37
1020
0000
0000
0130
0000
0000
0000
0000
,  // measure 38
1200
0000
0000
0310
0000
0000
0000
0000
,  // measure 39
1002
1000
1000
1000
,  // measure 40
1000
1000
1000
1000
,  // measure 41
1003
0001
0100
0010
1000
0001
0100
0010
,  // measure 42
2000
0000
0000
3000
,  // measure 43
0110
0000
1000
0000
1000
0100
0000
0000
,  // measure 44
1000
0000
1000
0100
0000
1000
0010
1000
,  // measure 45
0000
0001
0010
0000
0100
0000
0010
0000
,  // measure 46
0001
0100
0010
1000
0000
0100
0010
0001
,  // measure 47
0000
0000
1001
0000
0001
0100
0000
0000
,  // measure 48
0001
0000
0001
0100
0000
0100
0010
1000
,  // measure 49
0000
0001
1000
0000
0100
0000
0010
0000
,  // measure 50
0001
0010
0100
1000
0000
0010
0100
1001
,  // measure 51
0000
0000
0001
0000
0001
0100
0000
0000
,  // measure 52
0001
0000
0001
0100
0000
0001
0100
0010
,  // measure 53
0000
0100
0010
0000
1000
0000
0001
0000
,  // measure 54
0010
0000
0100
0000
0000
0010
0001
1000
,  // measure 55
0000
1000
0100
0000
0100
1000
0000
0100
,  // measure 56
0010
0000
0100
1000
0000
0100
0010
0001
,  // measure 57
0000
1000
0001
0100
,  // measure 58
0110
0000
0000
2002
0000
0000
3003
0000
,  // measure 59
0001
0100
0001
0100
0010
1000
0010
1000
,  // measure 60
0001
0001
1000
1000
,  // measure 61
0100
1000
0100
1000
0001
0010
0001
0010
,  // measure 62
0100
1000
0010
0100
,  // measure 63
0001
0100
0001
0100
0010
1000
0010
1000
,  // measure 64
0001
0010
0100
1000
,  // measure 65
0001
1000
0001
0000
1000
0001
1000
0000
,  // measure 66
0001
0010
0100
1000
0100
0010
0001
0000
,  // measure 67
1000
0010
0100
0001
1000
0010
0100
0001
,  // measure 68
1000
0100
0010
0001
,  // measure 69
0010
0001
1000
0100
0010
0001
1000
0100
,  // measure 70
0010
0100
1000
0010
,  // measure 71
0100
0010
1000
0001
0100
0010
1000
0001
,  // measure 72
1000
0001
0010
0100
,  // measure 73
1000
1000
0100
0010
0001
0001
0010
0100
,  // measure 74
1000
0001
0100
1000
0100
0001
2000
0000
,  // measure 75
3000
0000
0000
0000
;

//---------------dance-single - ----------------
#NOTES:
     dance-single:
     :
     Hard:
     14:
     0.665903,0.697729,0.323159,0.107720,0.000000,476.000000,443.000000,33.000000,11.000000,6.000000,0.000000,0.665903,0.697729,0.323159,0.107720,0.000000,476.000000,443.000000,33.000000,11.000000,6.000000,0.000000:
// measure 0
0000
0000
0000
0000
,  // measure 1
0001
0001
1000
1000
,  // measure 2
0001
0100
0010
1000
0001
0010
0100
1000
,  // measure 3
0001
0001
1000
1000
,  // measure 4
0100
1000
0010
0100
0001
0010
0001
1000
,  // measure 5
0001
0001
1000
1000
,  // measure 6
0001
1000
0100
1000
0001
0010
0100
1000
,  // measure 7
0001
0100
0001
0100
0010
1000
0010
1000
,  // measure 8
0001
0010
0100
0010
0001
1000
0010
0000
,  // measure 9
2002
0000
0000
3003
,  // measure 10
1000
0000
0001
0100
0020
0000
1030
0000
,  // measure 11
0100
0000
0010
0100
2000
0000
3010
0000
,  // measure 12
0110
0000
0101
0000
0001
0001
0100
0000
,  // measure 13
0010
0000
0100
0001
0020
0000
0130
0000
,  // measure 14
0010
0000
0100
1000
0002
0000
0013
0000
,  // measure 15
1001
0000
0110
0000
,  // measure 16
1001
0110
1001
0000
,  // measure 17
0001
0000
1010
0000
1000
0001
0010
0000
,  // measure 18
0100
0000
1100
0000
0100
1000
0010
0000
,  // measure 19
0100
0000
0101
0000
0001
1000
0100
0010
,  // measure 20
0012
0000
0100
0000
0010
0013
0000
0000
,  // measure 21
0001
0000
0011
0000
0001
0100
0010
0000
,  // measure 22
1000
0000
1001
0000
1000
0100
0010
0100
,  // measure 23
1000
0000
0011
0000
0001
0100
0001
1000
,  // measure 24
0100
0000
0010
0000
0001
0100
1000
0000
,  // measure 25
0100
0000
0101
0000
0001
0001
0010
0000
,  // measure 26
1100
0000
0001
0000
0100
0100
0010
1000
,  // measure 27
1010
0000
1000
0000
0001
0100
0001
1000
,  // measure 28
0100
0000
0010
0000
0100
1000
0010
0000
,  // measure 29
0100
0000
0101
0000
0001
0001
0010
0000
,  // measure 30
0100
0000
0011
0000
0001
0010
0100
0010
,  // measure 31
0001
0000
1001
0000
1000
0100
0010
0100
,  // measure 32
1000
0000
0100
0000
1000
0001
0100
0000
,  // measure 33
0001
0000
0001
0010
000M
0010
1000
0000
,  // measure 34
1001
0000
1000
0100
M000
0100
0001
0000
,  // measure 35
1001
0000
0001
0010
000M
0010
1000
0000
,  // measure 36
1001
0000
1000
0100
M000
0100
0001
0000
,  // measure 37
1001
0000
0001
0100
000M
0100
1000
0000
,  // measure 38
1001
0000
1000
0010
M000
0010
0001
0000
,  // measure 39
1000
0001
1000
0001
1000
0001
1000
0001
,  // measure 40
0100
0010
0100
0010
0100
0010
0100
0010
,  // measure 41
0100
1000
0100
0001
0100
0010
1000
0100
,  // measure 42
0020
0000
0000
0030
,  // measure 43
1001
0000
0101
0000
0001
0100
0000
0001
,  // measure 44
1000
0000
0001
0010
0000
0001
1000
0001
,  // measure 45
0000
1000
0100
0010
0001
0010
0001
0100
,  // measure 46
0010
1000
0100
0010
0000
0010
0100
1000
,  // measure 47
0000
0000
1001
0000
1000
0010
0000
1000
,  // measure 48
0001
0000
1000
0100
0000
1000
0001
1000
,  // measure 49
0000
0001
0100
0001
0010
0001
1000
0100
,  // measure 50
0010
0010
0100
0100
0000
0100
0010
1001
,  // measure 51
0000
0000
0001
0000
0001
0100
0000
0010
,  // measure 52
1000
0000
0100
0010
0000
0100
1000
0001
,  // measure 53
0000
1000
0100
0010
0001
0010
0100
0010
,  // measure 54
0001
1000
0010
0100
0000
0100
0001
1000
,  // measure 55
0000
0001
1000
0000
1000
0010
0000
0010
,  // measure 56
0100
0000
0100
0010
0000
0010
0100
0001
,  // measure 57
0000
1000
0100
0010
0001
1000
0010
0100
,  // measure 58
0002
0000
1000
2000
0000
0000
3003
0000
,  // measure 59
0001
0001
1000
1000
0001
0001
1000
1000
,  // measure 60
0001
0100
0010
1000
0001
0100
0010
1000
,  // measure 61
0100
0100
0010
0010
0100
0100
0010
0010
,  // measure 62
0100
1000
0100
0001
0100
1000
0010
0100
,  // measure 63
0001
0001
1000
1000
0001
0001
1000
1000
,  // measure 64
0001
0100
0010
1000
0001
0100
0010
1000
,  // measure 65
0001
0100
1000
0100
0001
0010
1000
0010
,  // measure 66
0001
0100
0010
1000
0001
0010
1001
0000
,  // measure 67
0001
0001
0001
0001
1000
1000
1000
1000
,  // measure 68
0001
1000
0001
0010
0001
0100
0001
1000
,  // measure 69
0001
0001
0001
0001
1000
1000
1000
1000
,  // measure 70
0001
1000
0001
0010
0001
1000
0100
0010
,  // measure 71
0001
0001
0001
0001
1000
1000
1000
1000
,  // measure 72
0001
1000
0001
0010
0100
1000
0001
1000
,  // measure 73
1001
0001
0001
0001
1001
1000
1000
1000
,  // measure 74
0100
0010
0001
0100
0001
1000
0020
0000
,  // measure 75
0030
0000
0000
0000
;
