#VERSION:0.83;
#TITLE:Crossing Delta;
#SUBTITLE:;
#ARTIST:ginkiha×Hommarju×t+pazolite;
#TITLETRANSLIT:;
#SUBTITLETRANSLIT:;
#ARTISTTRANSLIT:;
#GENRE:;
#CREDIT:;
#MUSIC:Crossing Delta.ogg;
#BANNER:Crossing Delta-bn.png;
#BACKGROUND:Crossing Delta-bg.png;
#CDTITLE:;
#SAMPLESTART:42.670;
#SAMPLELENGTH:15.000;
#SELECTABLE:YES;
#OFFSET:1.330;
#BPMS:0.000=180.000;
#STOPS:;
#LASTSECONDHINT:111.623;
#BGCHANGES:;
#FGCHANGES:;

//--------------- dance-single - ----------------
#NOTEDATA:;
#STEPSTYPE:dance-single;
#DESCRIPTION:;
#DIFFICULTY:Beginner;
#METER:4;
#RADARVALUES:0,0,0,0,0;
#CREDIT:Talkion;
#NOTES:
0000
0000
0000
0000
,
0000
0000
0000
0000
,
0000
0000
0000
0000
,
0000
0000
0000
0000
,
0000
0000
0000
0000
,
0000
0000
0000
0000
,
0000
0000
0000
0000
,
0000
0000
0000
0000
,
0000
0000
0000
0000
,
1000
0000
1000
0000
,
0001
0000
0001
0000
,
0100
0000
0100
0000
,
0010
0000
0010
0000
,
1000
1000
1000
0000
,
0001
0001
0001
0000
,
0020
0000
0000
0030
,
0010
0010
0010
0000
,
1002
0000
0000
0003
,
0100
0000
0000
0100
0000
0000
0100
0000
,
0010
0000
0000
0010
0000
0000
0000
0000
,
0000
0000
0000
0000
,
2001
0000
0000
3000
,
0100
0000
0000
0100
0000
0000
0100
0000
,
0010
0000
0000
0010
0000
0000
0000
0000
,
0000
0000
0000
0000
,
0001
0000
0001
0000
,
1000
0000
1000
0000
,
0010
0000
0010
0000
,
0100
0000
0100
0000
,
0001
0001
0001
0000
,
1000
1000
1000
0000
,
0200
0000
0000
0000
,
0300
0000
0000
0000
,
1000
0001
0001
0001
,
0001
0001
0001
0000
,
0001
1000
1000
1000
,
1000
1000
1000
0000
,
0001
0000
0100
0000
,
0010
0000
1000
0000
,
0001
0001
0001
0001
,
0000
0000
0000
0000
,
2000
0000
0000
3000
,
0200
0000
0000
0300
,
0020
0000
0000
0030
,
0002
0000
0000
0003
,
1000
1000
1000
0000
,
0001
0001
0001
0000
,
0200
0000
0000
0300
,
0100
0100
0100
0000
,
0001
0000
1000
1000
,
0100
0000
0000
0100
0000
0000
0100
0000
,
1000
0000
0001
0001
,
0100
0000
0010
0000
,
1000
0000
0001
0001
,
0010
0000
0000
0010
0000
0000
0010
0000
,
0001
0000
1000
1000
,
0010
0000
0100
0000
,
0001
0000
0010
0010
,
0100
0000
0000
0100
0000
0000
0100
0000
,
1000
0000
0010
0010
,
0100
0000
0001
0000
,
1000
0000
0100
0100
,
0010
0000
0000
0010
0000
0000
0010
0000
,
0002
0000
0000
0003
,
0100
0000
0010
0000
,
1000
0000
0001
0010
,
0010
0000
1000
0010
,
0010
0000
0001
0010
,
0010
0000
1000
0010
,
0010
0000
0001
0001
,
0001
0000
1000
1000
,
2000
0000
0000
3000
,
0010
0000
0100
0000
,
0000
1001
0000
0001
,
0000
0001
0000
0001
,
0000
1001
0000
1000
,
0000
1000
0000
1000
,
0000
1001
0000
0001
,
0000
0001
0000
0001
,
0000
1001
0000
1000
,
0000
0000
0000
0000
,
0100
0000
0000
0000
;

//--------------- dance-single - ----------------
#NOTEDATA:;
#STEPSTYPE:dance-single;
#DESCRIPTION:;
#DIFFICULTY:Easy;
#METER:8;
#RADARVALUES:0,0,0,0,0;
#CREDIT:Talkion;
#NOTES:
0000
0000
0000
0000
,
0000
0000
0000
0000
,
0000
0000
0000
0000
,
0000
0000
0000
0000
,
0000
0000
0000
0000
,
0000
0000
0000
0000
,
0000
0000
0000
0000
,
0000
0000
0000
0000
,
0000
0000
0000
0000
,
1000
0000
1000
0100
,
0010
0000
0010
0001
,
1000
0000
1000
0010
,
0100
0000
0100
0001
,
1000
0100
1000
0100
,
0010
0001
0010
0001
,
1000
0010
0100
0010
,
0002
0023
0230
0300
,
2001
0000
0000
0000
,
3200
0000
0320
0032
,
0203
0000
0000
0320
0000
1030
0000
0000
,
2001
0000
0000
3200
0000
0000
1300
0000
,
2001
0000
0000
0000
,
3020
0000
0230
0320
,
0032
0000
0000
0023
0000
0230
0000
0000
,
0301
0000
1000
0100
1000
0000
0001
0000
,
0010
0010
0100
0100
,
1000
1000
0001
0001
,
0100
0100
0010
0010
,
1000
1000
0001
0001
,
0020
0100
0100
0130
,
1000
0100
1000
0000
0001
0100
0001
0000
,
2000
3200
0320
0032
,
0003
0000
0000
0000
,
1002
0100
1000
0100
,
1000
0100
1000
0103
,
2001
0100
0001
0100
,
0001
0100
0001
3100
,
1000
0000
0001
0200
0300
0000
1000
0020
,
0030
0000
0001
0200
0300
0000
1000
0020
,
0030
0002
0003
0200
0300
2000
3000
0020
,
0030
0000
0000
0000
,
0002
0000
0000
2003
0000
0000
0000
0000
,
3200
0000
0000
0320
0000
0000
0000
0000
,
0032
0000
0000
2003
0000
0000
0000
0000
,
3020
0230
0320
2030
,
3001
0001
0010
0010
,
0100
0100
1000
1000
,
0001
0100
0001
0000
0100
0010
0100
0000
,
2000
3200
0320
0030
,
2000
0000
3001
0001
,
0010
0000
0100
0010
0000
0100
0010
0000
,
0001
0001
0001
1000
,
1010
0000
0011
0000
,
0001
0001
1000
1000
,
0010
0000
0100
0010
0000
0100
0010
0000
,
1000
0001
0010
0100
,
1100
0000
0101
0000
,
0100
0100
0010
0010
,
1000
0000
0001
0010
0000
0010
0100
0000
,
1000
1000
1000
0001
,
0101
0000
1100
0000
,
0100
0100
0010
0010
,
0001
0000
1000
0010
0000
0010
0100
0000
,
0001
1000
0100
0010
,
0011
0000
1010
0000
,
1000
0001
0010
1000
,
0010
0001
0100
1000
,
0100
0001
0010
1000
,
0010
0001
0100
0010
,
1000
1000
0001
0001
,
0010
0010
0100
0100
,
1000
0001
0100
0010
,
0002
0023
0230
0300
,
0000
1001
1000
0100
,
0010
0010
0020
0030
,
0000
1001
0001
0100
,
0010
0010
0020
0030
,
1000
1000
0001
0001
,
0010
0010
0100
0100
,
1000
0001
1000
0000
0010
0100
0010
0000
,
2000
0000
0000
3000
,
0001
0000
0000
0000
;

//--------------- dance-single - ----------------
#NOTEDATA:;
#STEPSTYPE:dance-single;
#DESCRIPTION:;
#DIFFICULTY:Medium;
#METER:12;
#RADARVALUES:0,0,0,0,0;
#CREDIT:Talkion;
#NOTES:
0000
0000
0000
0000
,
0000
0000
0000
0000
,
0000
0000
0000
0000
,
0000
0000
0000
0000
,
0000
0000
0000
0000
,
0000
0000
0000
0000
,
0000
0000
0000
0000
,
0000
0000
0000
0000
,
0000
0000
0000
0000
,
1000
1000
0100
0100
,
0010
0000
0010
0000
0001
0000
1000
0010
,
0100
0100
0001
0001
,
1000
0000
1000
0000
0100
0010
0001
1000
,
0001
0000
0100
0000
0010
1000
0010
0100
,
0001
0000
1000
0000
0100
0010
0001
1000
,
0002
0203
0320
0230
,
1300
0000
0001
0000
0010
0010
1000
0000
,
2001
0000
0000
0000
,
3200
0000
0320
0032
,
0203
0000
0000
0320
0000
1030
0001
1000
,
0200
0000
0000
0010
0000
0000
1300
0000
,
2001
0000
0000
0000
,
3020
0000
0230
0320
,
0032
0000
0000
0023
0000
0130
0010
0100
,
0001
0000
1000
0000
0100
0100
0010
0000
,
0001
0010
0001
0000
1000
0010
1000
0000
,
0001
0010
0100
1000
0000
1000
0001
0000
,
1000
0010
1000
0000
0001
0010
0001
0000
,
1000
0010
0100
0001
0000
0001
1000
0000
,
0100
0010
0001
0000
0001
0100
0010
0000
,
0100
0010
1000
0000
1000
0100
0010
0000
,
0001
1000
0001
1000
0001
1000
0001
1000
,
0010
0000
0000
0000
,
1001
0101
1100
0101
,
1100
0000
0101
0000
1000
1000
0100
0000
,
1001
0011
1010
0011
,
1010
0011
1010
1001
,
0001
0010
0100
0001
0000
0100
0010
0001
,
0000
0100
0010
0001
0000
0010
0100
0001
,
1000
0100
0010
0001
1000
0100
0010
0001
,
2000
3000
0020
0030
0200
0300
0101
0000
,
0002
0000
0000
2003
0000
0000
0000
0000
,
3200
0000
0000
0320
0000
0000
0000
0000
,
0032
0000
0000
2003
0000
0000
0000
0000
,
3020
0230
0320
2030
,
3001
0010
0001
0000
1000
0010
1000
0000
,
0001
0100
0001
0000
1000
0100
1000
0000
,
0001
0010
0001
0010
0100
0010
0100
0010
,
1000
0000
0001
0000
0100
0100
1000
0000
,
0001
0100
0001
0100
0020
0000
1030
0000
,
1002
0000
0013
2000
0000
3010
0001
0000
,
1000
0001
1000
0001
1000
0000
0010
0000
,
0110
1000
0110
0001
,
1000
0100
1000
0100
0020
0000
0031
0000
,
2001
0000
3010
0002
0000
0013
1000
0000
,
0001
1000
0001
1000
0001
0000
0010
0000
,
0110
0001
0110
1000
,
0001
0100
0010
0000
1000
0100
0010
0000
,
0210
0000
0301
0200
0000
0310
0001
0000
,
1000
0010
0100
0000
0001
0010
0100
0000
,
1100
0010
1100
0001
,
1000
0100
0010
0000
0001
0100
0010
0000
,
0210
0000
1300
0200
0000
0310
1000
0000
,
0002
0023
0230
2300
,
3010
0000
1000
0000
0001
0100
0001
0100
,
0010
0000
1001
0000
1000
0100
1000
0100
,
0001
0000
0110
0000
0001
0100
0001
0100
,
1000
0000
0110
0000
1000
0100
1000
0100
,
0002
0000
0103
0020
0000
0130
1000
0000
,
0001
0100
0010
0000
1000
0010
1000
0000
,
0001
0010
0100
0000
1000
0100
1000
0000
,
0001
0100
0001
0100
0010
0100
0010
0100
,
1000
0000
0001
0000
0010
0100
0010
0100
,
0001
0000
0000
0000
1002
0000
0000
0000
0010
0000
0000
0010
0000
0000
0010
0000
,
0010
1000
0010
1003
,
0001
0000
0000
0000
2001
0000
0000
0000
0010
0000
0000
0010
0000
0000
0010
0000
,
0010
0001
0010
3001
,
1000
0000
0100
0000
0020
0000
0000
0000
0001
0000
0000
0001
0000
0000
0001
0000
,
0031
1000
0100
1000
0001
0000
1001
0000
,
1000
0000
0010
0000
0200
0000
0000
0000
0001
0000
0000
0001
0000
0000
0301
0000
,
2000
3000
0200
0300
0020
0030
0001
0001
,
1000
0000
0000
0000
;

//--------------- dance-single - ----------------
#NOTEDATA:;
#STEPSTYPE:dance-single;
#DESCRIPTION:;
#DIFFICULTY:Hard;
#METER:14;
#RADARVALUES:0,0,0,0,0;
#CREDIT:Talkion;
#NOTES:
0000
0000
0000
0000
,
0000
0000
0000
0000
,
0000
0000
0000
0000
,
0000
0000
0000
0000
,
0000
0000
0000
0000
,
0000
0000
0000
0000
,
0000
0000
0000
0000
,
0000
0000
0000
0000
,
0000
0000
0000
0000
,
1000
0000
1100
0000
0100
0010
0100
0002
,
0000
0203
0000
0320
0000
0032
0000
1003
,
0001
0000
0101
0000
0100
0010
1000
0000
,
0001
0000
0011
0000
0010
0100
1000
0001
,
0100
0010
0100
0001
0010
0100
0010
1000
,
0010
0100
1000
0001
0100
0010
0100
1000
,
0001
0010
0100
0010
1000
0001
0010
0100
,
0002
0000
0003
0000
2000
0000
3000
0000
0010
0000
0001
1000
0001
0000
0000
0000
,
1002
0000
0000
0000
0000
0103
0010
0010
,
1000
0100
1000
0001
0100
0001
1000
0100
,
0020
0000
0031
2000
0000
3001
0100
0010
,
0001
0010
0100
0001
0000
0001
1000
0000
,
2001
0000
0000
0000
0000
3100
0010
0010
,
0001
0100
0001
1000
0100
1000
0001
0100
,
2000
0000
0000
3200
0000
0301
1000
0100
,
0001
0100
0010
0001
1000
1000
0010
0000
,
0100
0001
1000
0001
0010
0010
0100
0100
,
1000
0010
1000
0001
0010
0001
1000
0010
,
0100
0010
1000
0001
1000
0100
0010
0100
,
0001
0100
0010
0001
1000
1000
0010
0000
,
0100
0001
0010
0001
0100
0001
0010
0001
,
0100
0010
1000
0100
0010
0001
0100
0010
,
1000
0100
0001
1000
0010
0001
0100
0010
,
1000
0000
0000
0000
,
1001
0000
0001
0010
1000
0010
0001
0010
,
1000
0010
0001
0010
1000
0010
0001
0000
,
1001
0000
1000
0010
0001
0010
1000
0010
,
0001
0010
1000
0010
0001
0010
1000
0000
,
0001
0010
0001
0000
2000
0000
3010
0000
0100
0010
0100
0000
0002
0000
1003
0000
,
0100
1000
0100
0000
0020
0000
0031
0000
1000
0001
1000
0000
0020
0000
0130
0000
,
0001
0010
0100
0010
1000
0010
0100
0010
,
0001
1000
0001
1000
0001
0000
0100
0000
0010
0000
0100
0000
0001
0000
0000
0000
,
1000
0100
1000
0002
0000
0100
0103
0000
,
0010
1000
0010
0200
0000
0001
0301
0000
,
1000
0100
1000
0002
0000
0100
0103
0000
,
0020
2030
3002
0023
,
0130
1000
0001
1000
0010
0100
0010
1000
,
0001
0010
0100
0010
0001
1000
0100
1000
,
0001
0100
1000
0100
0001
0010
1000
0010
,
0001
0000
0000
0000
0001
0000
0000
0000
0001
0000
0100
0010
0100
0000
0000
0000
,
0002
0010
0010
0013
0001
1000
0100
1000
,
0001
0100
0100
1000
0100
0100
0001
0100
,
0010
0010
1000
1000
0001
0001
0010
0100
,
0002
0003
1100
0000
0001
1000
0001
1000
,
0010
0010
0010
0010
1000
0001
0100
0001
,
1000
0100
0100
0001
0100
0100
1000
0100
,
0010
0010
0001
0001
1000
1000
0010
0100
,
2000
3000
0101
0000
2000
3000
0001
0010
,
0100
0100
0100
0100
1000
0001
0010
0001
,
1000
0000
0010
0100
0010
0000
1000
0000
0001
0010
0001
0000
1000
0000
0010
0000
,
0100
0100
0001
0001
1000
1000
0100
0010
,
2000
3000
0011
0000
1000
0001
1000
0001
,
0100
0100
0100
0100
0001
1000
0010
1000
,
0001
0000
0010
0100
0010
0000
0001
0000
1000
0010
1000
0000
0001
0000
0010
0000
,
0200
1300
0002
0103
0020
1030
0002
0013
,
1000
0000
0011
0000
1000
0001
1000
0001
,
0100
0010
1000
0001
0010
0100
0001
1000
,
0010
0100
1000
0001
0100
0010
0001
1000
,
0100
0010
1000
0001
0010
0100
0010
1000
,
0001
0100
0010
0100
1000
0001
0100
0010
,
1000
0001
0010
0001
1000
0010
0100
0010
,
1000
0001
0010
0100
1000
0001
0100
0010
,
1000
0100
0010
0001
0100
0010
1000
0100
,
0002
0000
0003
0000
2000
0000
3000
0000
0010
0000
0001
1000
0001
1000
0001
0000
,
0100
0000
0000
0000
0110
0000
0000
0000
1010
0000
0000
1010
0000
0000
1010
0000
,
1001
1001
1002
0013
,
0100
0000
0000
0000
0110
0000
0000
0000
1100
0000
0000
1100
0000
0000
1100
0000
,
1001
1001
1002
0103
,
0001
0000
1000
0000
0100
0000
1000
0000
0001
0000
0100
0010
0100
0000
0001
0000
,
1000
0100
0010
0100
1000
0010
0001
0001
,
0010
0000
1000
0000
0100
0000
0010
0000
0100
0000
1000
0001
1000
0000
0010
0000
,
0100
0001
0100
0001
0100
0000
0010
0000
1000
0000
0001
0000
0010
0000
0100
0000
,
1000
0000
0000
0000
;

//--------------- dance-single - ----------------
#NOTEDATA:;
#STEPSTYPE:dance-single;
#DESCRIPTION:;
#DIFFICULTY:Challenge;
#METER:18;
#RADARVALUES:0,0,0,0,0;
#CREDIT:Talkion;
#NOTES:
0000
0000
0000
0000
,
0000
0000
0000
0000
,
0000
0000
0000
0000
,
0000
0000
0000
0000
,
0000
0000
0000
0000
,
0000
0000
0000
0000
,
0000
0000
0000
0000
,
0000
0000
0000
0000
,
0000
0000
0000
0000
0000
0000
0000
0000
0000
0000
0000
0000
0001
1000
0001
1000
,
0100
0000
0000
0100
0010
0000
0001
0000
1000
0000
0000
1000
0010
0000
0100
0000
,
0001
0000
0000
0001
1000
0000
0100
0010
0100
0000
1000
0000
0001
0100
0010
1000
,
0001
0000
0000
0001
0010
0000
0100
0000
1000
0000
0000
1000
0001
0000
0100
0000
,
0010
1000
0000
0010
0100
0000
0001
1000
0100
1000
0001
0000
0010
0000
0100
0000
,
1000
0000
1000
0000
0001
0000
0100
0010
1000
0010
0100
0000
0001
0000
1000
0000
,
0100
0000
0100
0000
0010
0000
0001
1000
0100
1000
0001
0000
0100
0000
0010
0100
,
0001
1000
0001
0010
0100
1000
0001
1000
0010
0100
0001
0100
0010
1000
0001
0010
,
0200
0000
0300
0000
2001
0000
3000
0000
0001
0000
0100
0100
0010
0000
0000
0000
,
1002
0000
0000
0000
0000
0000
0000
0000
0000
0000
0013
0000
0100
1000
0100
1000
,
0001
0000
0100
0010
0100
0000
0001
0000
0010
0100
0010
0000
0001
0000
1000
0010
,
0200
0000
0000
0000
0301
0000
2000
0000
0000
0000
3001
0000
0010
0100
1000
0001
,
0100
0000
0010
1000
0010
0000
0100
0000
0001
0000
0001
0000
0010
0000
0000
0000
,
2001
0000
0000
0000
0000
0000
0000
0000
0000
0000
3010
0000
0100
0001
0100
0001
,
1000
0000
0100
0010
0100
0000
1000
0000
0010
0100
0010
0000
1000
0000
0100
0000
,
0002
0000
0000
0000
0000
0000
0203
0000
0000
0000
1300
0000
0001
1000
0010
0100
,
0001
0000
1000
0100
1000
0100
0010
0000
0001
0000
0001
0000
1000
0000
0000
0000
,
1010
0000
0010
0000
0100
0000
0010
0000
1000
0000
1000
0000
0001
0010
0100
0010
,
0001
0000
0100
0010
0100
0000
0001
0000
0010
0100
0010
0000
0001
0000
0100
0000
,
0010
0000
1000
0000
0100
0000
1000
0000
0001
0000
0001
0000
0100
0010
1000
0010
,
0100
0000
0001
0010
0001
0000
0100
0000
0010
0000
0010
0000
1000
0000
0000
0000
,
1001
0000
0001
0000
0010
0000
0001
0000
1000
0000
1000
0000
0010
0100
0001
0100
,
0010
0010
1000
1000
0001
0001
0010
0010
,
0100
0010
0001
1000
0001
0100
0010
1000
0100
0010
0001
1000
0001
0100
0010
1000
,
0100
0000
0100
0000
0010
0001
0100
0000
0100
0000
0010
1000
0100
0000
0100
0000
,
1001
0000
0201
0310
0102
0013
0201
0310
,
0102
0000
0013
0000
0201
0000
0310
0000
1000
0001
1000
0001
0010
0000
0000
0000
,
1001
0000
1020
0130
2010
3100
1020
0130
,
2010
3100
1020
0130
2010
3100
0010
0000
,
0001
1000
0010
1000
0002
0000
0010
0000
1003
0010
0100
0010
2000
0000
0001
0000
,
3100
0010
0001
0010
0200
0000
1000
0000
0310
0001
1000
0001
0200
0000
0010
0000
,
0301
1000
0100
0000
0100
0010
0001
0000
0001
1000
0010
0000
0010
0100
0001
0000
,
1000
0100
1000
0100
0010
0000
0001
0100
0010
0000
1000
0100
0010
0000
0000
0000
,
0001
1000
0100
1000
0001
0000
0200
0000
0000
0000
0010
0000
0310
0000
0000
0000
,
1000
0010
0100
0010
1000
0000
0002
0000
0000
0000
0010
0000
0013
0000
0000
0000
,
0001
1000
0100
1000
0001
0000
0200
0000
0000
0000
0010
0000
0310
0000
1000
0000
,
0002
0000
0010
0000
2003
0000
0010
0000
3002
0000
0010
0000
1003
0010
1000
0010
,
0100
0000
0001
1000
0001
0000
0010
0000
0100
0000
1000
0100
0010
0000
0001
0000
,
1000
0000
0010
0100
0010
0000
1000
0000
0001
0000
0010
0100
1000
0000
0100
0010
,
0001
1000
0001
0100
0010
1000
0001
1000
0100
0010
0001
0010
0100
1000
0001
0100
,
0020
0000
0030
0000
2001
0000
3000
0000
0001
0000
0010
0010
0100
0000
0000
0000
,
2000
0000
0010
0000
0010
0000
3010
0000
0100
0000
0100
0000
1000
0100
1000
0100
,
0010
0000
1000
0100
1000
0100
0010
0000
1000
0010
1000
0010
0100
0000
2000
0000
,
0001
0000
0001
0000
0001
0000
0001
0000
3001
0000
0010
0100
0010
0100
0010
0100
,
2000
3000
0010
0100
0001
1000
1000
1000
,
0100
0000
0100
0000
0100
0000
0100
0000
0010
0000
0010
0000
1000
0010
1000
0010
,
0100
0000
1000
0010
1000
0010
0100
0000
1000
0100
1000
0100
0010
0000
1000
0000
,
0001
0000
0001
0000
0010
0000
0010
0000
0100
0000
1000
0001
1000
0001
1000
0001
,
0200
0000
0300
0000
2001
0000
3000
0000
0020
0000
0030
0000
1000
0001
1000
0001
,
0010
0000
0010
0100
0010
0000
0010
0000
0001
0000
0001
1000
0010
1000
0001
0100
,
0010
0000
0001
0010
0100
0010
1000
0000
0001
0010
0100
0010
1000
0000
0010
0000
,
0100
0000
0100
1000
0100
0000
0100
0000
0100
0000
0010
0001
1000
0001
0100
0010
,
2000
0000
3000
0001
1000
0000
0100
0000
0010
0000
0001
0000
0001
0000
0001
0000
,
0100
0000
0100
0010
0100
0000
0100
0000
0001
0000
0001
1000
0100
1000
0001
0010
,
0100
0000
0001
0100
0010
0100
1000
0000
0001
0100
0010
0100
1000
0000
0100
0010
,
1000
0000
0001
0100
0001
0000
1000
0100
1000
0000
0001
0100
0010
1000
0001
0010
,
0200
0300
1002
0003
0010
0010
0010
0010
,
0001
0010
0100
1000
0001
0000
0010
0001
1000
0001
0100
0000
0010
0100
1000
0000
,
0100
0010
0100
0001
1000
0000
0001
0010
0100
1000
0001
0000
0100
0010
0001
0000
,
0010
0100
0010
1000
0001
0000
1000
0100
0010
0001
1000
0000
0010
0100
1000
0000
,
0100
0010
0100
0001
1000
0000
0100
0010
0100
1000
0001
0000
0100
0010
1000
0000
,
0001
0001
0010
0010
0100
0100
1000
1000
,
0001
0000
0001
0000
0100
0000
0100
0000
0010
0000
0010
0000
1000
0000
1000
0001
,
0010
0100
0010
0001
1000
0001
0100
0010
1000
0010
0100
0001
1000
0100
0010
0001
,
2000
0000
3000
0000
0120
0000
0030
0000
0001
1000
0001
1000
0001
1000
0100
0000
,
0001
0000
0000
0000
0202
0000
0303
0000
1100
0000
0000
1100
0000
0000
1001
0000
,
0202
0303
0202
0303
1020
0000
0130
0000
,
0001
0000
0000
0000
2002
0000
3003
0000
0011
0000
0000
0011
0000
0000
1001
0000
,
2020
3030
2020
3030
0201
0000
0310
0000
,
1000
0001
0010
0001
1000
0000
0010
0100
0001
0100
0010
1000
0001
0010
0100
0000
,
1000
0001
0010
0001
1000
0000
0010
0100
0001
1000
0100
0010
1000
0000
1000
0000
,
0010
0100
1000
0001
0100
0010
0100
0001
0010
0100
0010
0001
0100
0010
1000
0000
,
0001
0010
0001
0010
0100
0000
1000
0010
0100
0000
0001
0010
0100
0000
1000
0000
,
1001
0000
0000
0000
;
