#TITLE:Circulator;
#ARTIST:Reaper;
#BACKGROUND:Circulator-jacket.png;
#JACKET:Circulator-jacket.png;
#CDTITLE:./CDTITLES/SOUND VOLTEX.PNG;
#MUSIC:Circulator.ogg;
#SAMPLESTART:29.091;
#SAMPLELENGTH:15;
#BPMS:0=165;

//---------------dance-single - t7r----------------
#NOTES:
     dance-single:
     t7r:
     Beginner:
     5:
     :
0000
0000
0000
0000
,
0000
0000
0000
0000
,
0000
0000
0000
0000
,
0000
0000
0000
0000
,
0001
0000
0000
0000
,
0000
0000
0000
0000
,
1000
0000
0000
0000
,
0000
0000
0000
0000
,
0010
0000
0000
0000
,
0000
0000
0000
0000
,
0100
0000
0000
0000
,
0000
0000
0000
0000
,
0001
0000
0001
0000
,
1000
0000
1000
0000
,
0010
0000
0010
0000
,
0100
0000
0100
0000
,
0001
0001
0001
0000
,
1000
1000
1000
0000
,
0100
0100
0100
0100
,
0100
0000
0000
0000
,
0010
0000
0010
0000
,
0010
0000
0010
0000
,
0001
0000
0001
0000
,
0001
0000
0001
0000
,
1000
0000
1000
0000
,
1000
0000
1000
0000
,
0010
0000
0010
0000
,
0010
0010
0010
0010
,
0010
0000
0000
0000
,
0100
0000
0100
0000
,
0001
0000
0000
0000
,
1000
0000
1000
0000
,
0100
0000
0100
0000
,
0010
0000
0010
0000
,
0001
0001
0001
0001
,
0001
0000
0000
0000
,
1000
0000
0000
0000
,
0000
0000
0000
0000
,
0010
0000
0000
0000
,
0000
0000
0000
0000
,
0100
0000
0000
0000
,
0000
0000
0000
0000
,
0001
0000
0000
0000
,
0000
0000
0000
0000
,
1000
1000
1000
0000
,
0001
0001
0001
0000
,
0010
0010
0010
0000
,
0100
0100
0100
0000
,
1000
0000
1000
0000
,
0001
0000
0001
0000
,
0100
0100
0100
0100
,
0100
0000
0000
0000
,
0010
0000
0010
0000
,
1000
0000
1000
0000
,
0001
0000
0001
0000
,
0010
0000
0010
0000
,
0001
0000
0001
0000
,
1000
0000
1000
0000
,
0010
0000
0010
0000
,
0100
0100
0100
0100
,
0100
0000
0000
0000
,
0010
0000
0010
0000
,
1000
1000
1000
0000
,
0001
0000
0001
0000
,
0010
0010
0010
0000
,
0001
0000
0001
0000
,
1000
0000
1000
0000
,
0010
0010
0010
0010
,
0010
0000
0000
0000
,
1001
0000
0000
0000
;

//---------------dance-single - t7r----------------
#NOTES:
     dance-single:
     t7r:
     Easy:
     9:
     :
0000
0000
0000
0000
,
0000
0000
0000
0000
,
0000
0000
0000
0000
,
0000
0000
0000
0000
,
0001
0000
0001
0000
,
0100
0100
0100
0000
,
0010
0000
0010
0000
,
1000
1000
1000
0000
,
0100
0100
0000
0000
0100
0000
0000
0000
,
0010
0010
0010
0000
,
0001
0000
0001
0000
,
1000
1000
1000
0000
,
0010
0100
0110
0000
,
0001
1000
1001
0000
,
1000
0100
1100
0000
,
0001
0010
0011
0000
,
0001
0100
0001
0000
1000
0000
1000
0000
,
0001
0010
0001
0000
0100
0000
0100
0000
,
0001
1000
0010
0000
1000
0001
0010
0000
,
0001
0100
0010
0010
,
2000
0000
3002
0000
0003
1000
0100
0000
,
0000
1000
0100
0000
0000
1000
1000
0000
,
0002
0000
2003
0000
3000
0001
0100
0000
,
0000
0001
0100
0000
0000
0001
0001
0000
,
2001
0000
3200
0000
0300
0010
0001
0000
,
0000
0010
0001
0000
0000
1000
0001
0000
,
0100
0100
0010
0010
,
1000
0100
0010
0001
,
1000
0000
0110
0000
0000
0001
0100
0000
,
0001
0010
0001
0000
1000
0001
1000
0000
,
0001
0000
0110
0000
0000
1000
0100
0000
,
1000
0010
1000
0000
0001
1000
0001
0000
,
1000
0100
0110
0010
,
0001
0100
0110
0010
,
1000
0001
1000
0000
0010
0100
0010
0000
,
2000
0000
0000
0000
,
3001
0000
0000
0000
,
0010
0000
0010
0000
,
0100
0000
0100
0000
,
1000
0000
1000
0000
,
0001
0001
0000
0000
0100
0000
0000
0000
,
0010
0010
1000
0000
,
0100
0000
0010
0000
,
0001
0000
0001
0000
0001
0000
1000
0001
,
1000
0000
0010
0000
1010
0000
0001
1000
,
0001
0000
0010
0000
0011
0000
1000
0001
,
1000
0000
0100
0000
1100
0000
0001
1000
,
0001
0000
0100
0000
0101
0000
0001
0010
,
0001
0110
1000
0001
,
1000
0110
0001
1000
,
0001
0010
0001
0000
1000
0010
1000
0000
,
0010
0100
2002
3003
,
1000
0000
0100
0000
0000
1000
0010
1000
,
0000
0001
1000
0001
0000
1000
0010
0000
,
1000
0000
1000
0000
0000
0001
0010
0001
,
0000
1000
0001
1000
0000
0001
0010
0000
,
0001
0000
0100
0000
0000
0010
1000
0010
,
0000
1000
0001
1000
0000
0010
1000
0000
,
0100
0000
0100
0000
0000
0010
0001
0000
,
1000
0010
0100
0001
,
0120
0000
0000
0000
,
1030
0000
1001
0000
1000
0001
0100
0000
,
0001
0000
0010
0000
0001
1000
0100
0000
,
1000
0000
1001
0000
0001
1000
0010
0000
,
1000
0000
0100
0000
1000
0001
0010
0000
,
0001
0100
0001
0000
1000
0000
0001
0000
,
1000
0100
1000
0000
0001
0000
1000
0000
,
0001
0010
0001
0000
1000
0010
1000
0000
,
0002
0203
0320
1030
,
0220
0000
0000
0000
,
0000
0000
0000
0000
,
0330
0000
0000
0000
;

//---------------dance-single - t7r----------------
#NOTES:
     dance-single:
     t7r:
     Medium:
     13:
     :
0000
0000
0000
0000
,
0000
0000
0000
0000
,
0000
0000
0000
0000
,
0000
0000
0000
0000
,
1000
0001
0100
0001
1000
0001
0010
0000
,
0001
0000
0000
0100
0001
0000
0000
0100
0010
0000
0100
0000
0001
0000
1000
0000
,
0001
0010
0001
1000
0001
0100
0001
0000
,
1000
0000
0000
0100
1000
0000
0000
0001
1000
0000
0010
0000
1000
0000
0001
0000
,
1000
1000
0100
0010
0100
1000
0001
0000
,
0100
0000
0000
0010
0100
0000
0000
0001
0100
0000
0010
0000
1000
0000
1000
0000
,
0001
0010
0100
0000
1000
0010
0100
0000
,
0010
0000
0000
0100
0001
0000
0000
1000
0100
0000
0010
0000
0001
0000
1000
0000
,
0001
0010
0100
0010
0001
0000
1002
0000
,
1003
0100
0010
0100
1000
0000
2001
0000
,
3001
0100
0010
0100
0001
0000
1020
0000
,
1030
0001
0010
0001
1000
0100
0010
0010
,
0001
0100
0010
0000
1000
0100
0010
0010
,
0001
1000
0010
0000
1000
0001
0100
0100
,
0001
0010
0100
1000
0100
0010
0001
1000
,
0010
0100
0001
0001
0010
0100
2000
0000
,
3002
0000
1003
0100
0010
0100
0100
0000
,
0001
0100
0100
0000
1000
0100
0100
1000
,
0010
0100
0010
0100
0001
0100
0100
0000
,
1000
0100
0100
0000
0010
0100
0001
1000
,
0200
0000
0320
0000
1030
0010
0010
0000
,
0001
0010
0010
0000
0100
0000
1001
0000
,
0001
0100
0001
0100
1000
0100
0001
0001
,
1000
0100
0010
0001
,
1001
0000
1000
0100
0010
0100
1000
0000
,
0001
0100
0010
0100
1000
0100
0001
0000
,
1000
0000
1100
0000
0001
0010
0100
0000
,
1000
0010
0100
0010
0001
0010
0100
0000
,
0010
1000
0001
0001
0010
0001
1000
0000
,
0001
1000
0100
0100
1000
0001
0100
0000
,
0001
0010
0100
1000
0100
0010
0001
1000
,
0020
0000
0000
0130
,
1001
0000
0000
0000
,
1000
0000
1000
0000
0100
0010
0001
1000
,
1001
0000
0000
0000
,
0001
0000
0001
0000
0100
0010
1000
0001
,
1001
1000
0100
0000
1000
0010
1000
0000
,
0001
0000
0000
0100
0001
0000
0000
1000
0100
0000
0010
0000
0001
0000
0000
0000
,
1000
0001
0100
0000
0010
1000
0100
0000
,
0010
0000
0000
0001
0100
0000
0000
0010
0100
0000
0001
0000
1000
0001
1000
0000
,
0001
0000
0010
0000
0100
0000
0000
0000
1001
0000
0000
0000
0001
1000
0001
0000
,
1000
0000
0010
0000
0100
0000
0000
0000
1001
0000
0000
0000
1000
0001
1000
0000
,
0001
0000
0100
0000
0010
0000
0000
0000
1010
0000
0000
0000
0001
0010
0001
0000
,
1000
0000
0100
0000
0010
0000
0000
0000
0011
0000
0000
0000
1000
0010
1000
0000
,
0001
0010
0100
0100
1000
0010
0100
0000
,
0001
1000
0010
0010
1000
0001
0010
0000
,
0001
0100
0001
0000
1000
0000
0001
0000
1000
0100
1000
0000
0001
0000
1000
0000
,
0010
0100
0210
0310
,
2000
0000
3100
0001
0100
1000
0100
0100
,
0010
0100
0001
0001
0100
0010
0100
0100
,
1000
0001
0100
0000
1000
0100
0010
0010
,
0100
0001
0100
0100
0010
0100
1000
1000
,
0200
0000
0301
0010
1000
0010
0100
0100
,
0001
0100
0010
0010
0001
0100
0010
0010
,
0001
0010
1000
0000
0001
0010
0100
0000
,
1000
0010
0100
0001
,
0220
0000
0000
0330
,
1001
0001
0100
0000
0001
0010
0001
0000
,
1000
0000
0100
0000
0010
0000
0100
1000
0001
0000
1000
0000
0010
0000
0000
0000
,
0100
0001
0010
0000
0100
1000
0010
0000
,
0100
0000
0001
0000
1000
0000
0001
1000
0100
0000
0010
0000
0100
0000
0000
0000
,
1000
0010
0100
0100
0001
0010
0100
1000
,
0001
0010
0100
0100
1000
0010
0100
0001
,
1000
0100
1000
0000
0001
0100
0001
0000
1000
0010
1000
0000
0001
0010
0001
0000
,
2000
0000
3020
0000
0230
0000
0000
0000
0302
0000
0000
0000
1003
0001
0100
0000
,
2002
0000
0000
0000
,
0000
0000
0000
0000
,
3003
0000
0000
0000
;

//---------------dance-single - t7r----------------
#NOTES:
     dance-single:
     t7r:
     Hard:
     16:
     :
0000
0000
0000
0000
,
0000
0000
0000
0000
,
0000
0000
0000
0000
,
0000
0000
0000
0000
,
0010
0000
0100
0001
0000
0100
0001
0000
1000
0000
0100
0000
0010
0000
0001
0000
,
0100
0000
0000
0010
1000
0000
0000
0001
1000
0000
0001
0000
0010
0000
0001
0000
,
1000
0000
0100
0000
0010
0000
0001
1000
0000
0001
1000
0000
0010
0000
0100
0000
,
0001
0000
0000
0010
0100
0000
0000
1000
0010
0000
0100
0000
0010
0000
1000
0000
,
0001
0010
0011
0000
0101
0000
1001
0000
,
1100
0000
0000
0000
0110
0000
0100
1000
0000
0001
1000
0000
0010
0000
0100
0000
,
0001
1000
1100
0000
0011
0000
1001
0000
,
0110
0000
0000
0000
0101
0000
0001
0010
0000
0001
1000
0000
0010
0100
0010
0100
,
0001
0000
0010
0000
0100
0000
0010
0000
0001
0000
0001
0000
1000
0001
1000
0001
,
1000
0000
0100
0000
0010
0000
0100
0000
1000
0000
1000
0000
0001
1000
0001
1000
,
0010
0000
0100
0000
0001
0000
0100
0000
0010
0000
0010
0000
1000
0001
1000
0001
,
0010
0000
0100
0000
1000
0000
0100
0000
0010
0000
0010
0000
0001
1000
0001
1000
,
0001
0100
0010
0010
1000
0100
0010
0010
,
0001
0010
1000
1000
0001
0100
1000
1000
,
0001
0100
0001
0100
0001
0100
0001
0100
0010
1000
0010
1000
0010
1000
0010
1000
,
0001
0000
0001
0000
0010
0100
1000
0100
0010
0000
0010
0000
0001
1000
0100
1000
,
0002
0000
0000
0000
0103
1000
0100
0000
0001
0000
1000
0000
1100
0000
1000
0000
,
0001
0000
1000
0000
1100
0000
1000
0000
0001
0000
1000
0001
1000
0000
1000
0000
,
0001
0010
0100
1000
0001
0010
0100
1000
0010
0000
0100
0000
0101
0000
0100
0000
,
0010
1000
1100
0100
0010
0001
0001
0001
,
1002
0000
0000
0000
0013
1000
0010
0000
0001
0000
1000
0000
1010
0000
1000
0000
,
0001
1000
1010
1000
0001
1000
0120
0000
,
1030
0100
0010
0001
1000
0100
0010
0001
0100
0000
1000
0100
0010
0000
1000
0100
,
0010
0000
0001
0100
0010
0000
0001
0010
1000
0000
0001
0010
0100
0000
0010
0000
,
1001
0000
0000
0000
1100
0000
0100
0000
0001
0000
0100
0010
0001
0000
0100
1000
,
0100
0000
0010
1000
0001
0000
0010
0001
1000
0000
0001
0010
0100
0000
0010
0000
,
0001
0100
0010
1000
0001
0100
0010
1000
0100
0000
0010
0001
1000
0000
0010
1000
,
0001
0000
0010
0100
0001
0000
0100
0010
0001
0000
0100
0010
1000
0000
0100
0010
,
0001
0100
0010
0001
1000
0100
0010
1000
,
0001
0010
0100
0001
1000
0010
0100
1000
,
0001
0100
0001
0100
0010
1000
0001
0010
0001
1000
0001
1000
0100
0010
0001
1000
,
0020
0000
0000
0000
0000
0000
0000
0000
0000
0000
0000
0000
0130
0010
1000
0001
,
1000
0000
0000
0000
,
0100
0000
0000
0000
0100
0000
0000
0000
0010
0000
0001
0100
0001
0000
1000
0000
,
1001
0000
0001
0001
,
0100
0000
0010
1000
0001
0000
0010
0001
0000
1000
0001
0000
0100
0000
0010
0000
,
1000
0000
0010
0000
1010
0000
1000
0000
0100
0000
0010
0001
1000
0000
0010
0000
,
0100
0000
0001
0010
0100
0000
1000
0010
0000
0100
0001
0000
1000
0000
0001
0000
,
0010
0000
0001
0000
0101
0000
0001
0000
0010
0000
0100
1000
0001
0000
0100
0000
,
0010
0000
1000
0100
0010
0000
0001
0100
0000
0010
1000
0000
0001
1000
0001
1000
,
0100
0000
0001
0000
0100
0000
1000
0000
0100
0000
0010
0000
0001
0100
0010
1000
,
0010
0000
0001
0000
0010
0000
1000
0000
0010
0000
0100
0000
0001
0010
0100
1000
,
0100
0000
0001
0000
1000
0000
0010
0000
0001
0000
0100
0000
0001
1000
0100
0010
,
0001
0000
0100
0000
1000
0000
0001
0000
0010
0000
0100
0000
0001
0010
0100
1000
,
0001
0010
0100
0001
1000
0010
0100
1000
,
0001
1000
0010
0010
0001
1000
0100
0100
,
0001
0010
0001
0010
0100
1000
0100
1000
0001
0100
0010
1000
0010
0100
0001
0100
,
0010
1000
0100
0000
0010
0001
0100
0010
1000
0100
0010
0001
1000
0000
0001
0000
,
2000
0000
0000
0000
3001
0010
0100
0010
0001
0000
1000
0010
0100
0010
1000
0000
,
0001
0000
1000
0100
0010
0100
1000
0000
0001
0000
1000
0010
0100
0010
1000
0000
,
0001
0000
0100
1000
0100
0000
0001
0010
0001
0000
1000
0100
0010
0001
0100
0000
,
0001
0000
1000
0010
0100
0001
0010
0000
0001
0000
1000
0000
1000
0000
1000
0000
,
1002
0000
0000
0000
1003
0000
0100
0010
1000
0000
0010
0100
1000
0010
1000
0010
,
0100
0000
0001
0100
0001
0100
0010
0001
0010
0000
1000
0100
1000
0000
0001
0000
,
0100
0000
1000
0100
0001
0000
1000
0100
0010
0000
0001
0010
0100
0000
0001
0100
,
1000
0010
1001
0001
0100
0010
1001
1000
,
0200
0000
0000
0000
,
0301
0000
0100
0000
1000
0000
0001
0000
0100
0000
0010
0001
0010
0000
1000
0100
,
0010
0000
0001
0000
1001
0000
1000
0010
0100
0000
0010
0000
1001
0000
1000
0000
,
0100
0000
0010
0100
1000
0000
0010
0100
1000
0000
0100
0001
1000
0000
0001
0000
,
1000
0000
0100
0000
1100
0000
1000
0001
0100
0000
0010
0000
1001
0000
0001
1000
,
0001
0100
0010
0001
1000
0100
0010
1000
,
0001
1000
0100
0100
0001
1000
0010
0010
,
0001
0010
0100
0000
1000
0010
0100
0001
1000
0100
0010
0001
1000
0001
0100
0010
,
0002
0000
0023
0000
2030
0000
3200
0000
0302
0000
2003
0000
3010
0001
0100
0010
,
2000
0000
0000
0000
,
0000
0000
0000
0000
,
3000
0000
0000
0000
;
