#VERSION:0.83;
#TITLE:Cheater Slick;
#SUBTITLE:;
#ARTIST:Pistel;
#TITLETRANSLIT:;
#SUBTITLETRANSLIT:;
#ARTISTTRANSLIT:;
#GENRE:Mixture;
#CREDIT:From Hot Wheels Turbo Racing;
#MUSIC:Cheater Slick.ogg;
#BANNER:Cheater Slick-bn.png;
#BACKGROUND:Cheater Slick-bg.png;
#CDTITLE:cdtitle.png;
#SAMPLESTART:52.800;
#SAMPLELENGTH:15.000;
#SELECTABLE:YES;
#OFFSET:0.000;
#BPMS:0.000=150.000;
#STOPS:;
#SPEEDS:0.000=1.000=0.000=0;
#SCROLLS:0.000=1.000;
#TICKCOUNTS:0.000=4;
#TIMESIGNATURES:0.000=4=4;
#LABELS:0.000=Song Start;
#COMBOS:0.000=1;
#ORIGIN:USA;
#PREVIEWVID:;
#JACKET:Cheater Slick-jacket.png;
#CDIMAGE:;
#DISCIMAGE:;
#BGCHANGES:3.875=Cheater Slick.avi=1.000=0=0=1,
99999.000=-nosongbg-=1.000=0=0=0=StretchNoLoop====
;
#FGCHANGES:;

//--------------- dance-single - RaverAce ----------------
#NOTEDATA:;
#STEPSTYPE:dance-single;
#DESCRIPTION:RaverAce;
#DIFFICULTY:Beginner;
#METER:5;
#RADARVALUES:0.12429,0.183842,0.098351,0,0,115,102,13,0,0,0,0,0,0,0.12429,0.183842,0.098351,0,0,115,102,13,0,0,0,0,0,0;
#CHARTNAME:;
#CHARTSTYLE:;
#CREDIT:RaverAce;
#NOTES:
0000
0000
0000
0000
,
0000
0000
0000
0000
,
0000
0000
0000
0000
,
0000
0000
0000
0000
,
0000
0000
0000
0000
,
0001
0000
0000
0000
,
0001
0000
0000
0000
,
1000
0000
0000
0000
,
1000
0000
0000
0000
,
1001
0000
0000
0000
,
1001
0000
0000
0000
,
0010
0000
0000
0000
,
0010
0000
0000
0000
,
1001
0000
0000
0000
,
1001
0000
0000
0000
,
0100
0000
0000
0000
,
0100
0000
0000
0000
,
1001
0000
0000
0000
,
0001
0000
0000
0000
,
1000
0000
0000
0000
,
0001
0000
0000
0000
,
1000
0000
0000
0000
,
0010
0000
0000
0000
,
0100
0000
0000
0000
,
0001
0000
0000
0000
,
1001
0000
0000
0000
,
1000
0000
0000
0000
,
0100
0000
0000
0000
,
0010
0000
0000
0000
,
1001
0000
0000
0000
,
0001
0000
0000
0000
,
0100
0000
0000
0000
,
0010
0000
0000
0000
,
1001
0000
0000
0000
,
1000
0000
0000
0000
,
0001
0000
0000
0000
,
1000
0000
0000
0000
,
0100
0000
0000
0000
,
0010
0000
0000
0000
,
0100
0000
0000
0000
,
0010
0000
0000
0000
,
1001
0000
0000
0000
,
0001
0000
0000
0000
,
1000
0000
0000
0000
,
0001
0000
0000
0000
,
0100
0000
0000
0000
,
0010
0000
0000
0000
,
0100
0000
0000
0000
,
0010
0000
0000
0000
,
1001
0000
0001
0000
,
1000
0000
0100
0000
,
0010
0000
0001
0000
,
0100
0000
0010
0000
,
1000
0000
0001
0000
,
0010
0000
0100
0000
,
1000
0000
0001
0000
,
0100
0000
0010
0000
,
1001
0000
1000
0000
,
0001
0000
0100
0000
,
0010
0000
1000
0000
,
0100
0000
0010
0000
,
0001
0000
1000
0000
,
0010
0000
0100
0000
,
0001
0000
1000
0000
,
0100
0000
0010
0000
,
1001
0000
0000
0000
,
0000
0000
0000
0000
,
0000
0000
0000
0000
,
0000
0000
0000
0000
,
1000
0000
1000
0000
,
0010
0000
0010
0000
,
0100
0000
0100
0000
,
0001
0000
0001
0000
,
0010
0000
0100
0000
,
1000
0000
0001
0000
,
0100
0000
0010
0000
,
1000
0000
0100
0000
,
0010
0000
0001
0000
,
0100
0000
0010
0000
,
1000
0000
1000
0000
,
0001
0000
0001
0000
,
1001
0000
0000
0000
;

//--------------- dance-single - RaverAce ----------------
#NOTEDATA:;
#STEPSTYPE:dance-single;
#DESCRIPTION:RaverAce;
#DIFFICULTY:Easy;
#METER:9;
#RADARVALUES:0.376113,0.428964,0.355578,0.105917,0,348,301,47,14,0,0,0,0,0,0.376113,0.428964,0.355578,0.105917,0,348,301,47,14,0,0,0,0,0;
#CHARTNAME:;
#CHARTSTYLE:;
#CREDIT:RaverAce;
#NOTES:
0000
0000
0000
0000
,
0000
0000
0000
0000
,
0000
0000
0000
0000
,
0000
0000
0000
0000
,
0000
0000
0000
0000
,
2000
0000
0000
0000
,
3002
0000
0000
0000
,
0203
0000
0000
0000
,
2300
0000
3200
0000
,
0310
1000
0100
1000
,
0010
0100
0001
0010
,
0100
0100
0010
0001
,
0100
0110
1001
0011
,
0010
0001
0100
0001
,
0010
0100
1000
0010
,
0100
0100
0010
1000
,
0100
0110
1001
1010
,
1001
0001
0010
1000
,
0010
0001
0100
1000
,
0100
0010
1000
0100
,
0001
0101
0100
1100
,
1001
1000
0010
0001
,
0010
1000
0100
0001
,
0100
0010
0001
0100
,
1000
1100
0100
0101
,
1001
1000
0100
0010
,
0001
0100
0010
1000
,
0001
0010
1000
0010
,
0001
0101
0100
0120
,
1030
0010
0001
0010
,
1000
0100
0001
0100
,
1000
0010
0100
0001
,
0010
0011
1001
1010
,
1001
0001
0100
1000
,
0100
0010
1000
0100
,
0101
0001
0100
0010
,
0001
1000
0010
0100
,
1001
1000
0100
0001
,
0100
0010
0001
0100
,
1100
1000
0100
0010
,
1000
1001
0001
0011
,
0101
0100
0010
1000
,
0100
0001
0100
0010
,
0001
1000
0010
0001
,
0010
0110
0010
1010
,
1100
0100
0010
0001
,
0100
1000
0100
0010
,
2000
0000
0002
3003
,
1002
0000
0000
0203
0000
0000
0310
0000
,
1001
1000
0000
0100
0000
0010
0001
0000
,
1000
1000
0000
0010
0000
0100
0001
0000
,
0010
0010
0000
0100
0000
1000
0001
0000
,
0100
0100
0000
0010
0000
1000
0001
0000
,
0010
0010
0000
0100
0000
1000
0100
0000
,
0010
0010
0000
0001
0000
0100
0010
0000
,
1000
1000
0000
0010
0000
0100
0001
0000
,
1000
1100
0100
0110
,
1001
0001
0000
0100
0000
0010
1000
0000
,
0001
0001
0000
0010
0000
0100
1000
0000
,
0010
0010
0000
0100
0000
0001
1000
0000
,
0100
0100
0000
0010
0000
0001
1000
0000
,
0010
0010
0000
0100
0000
0001
0100
0000
,
0010
0010
0000
1000
0000
0100
0010
0000
,
0001
0001
0000
0010
0000
0100
1000
0000
,
0001
0101
0100
0110
,
1002
0000
0000
0000
,
0023
0000
0000
0000
,
2030
0000
0000
0000
,
3020
0000
0000
0000
,
0031
0000
1000
0000
0010
0000
0100
0010
,
0100
0001
1000
0100
,
0010
0000
0001
0000
1000
0000
0010
0100
,
0010
0110
0100
0101
,
1010
1000
0000
0100
0000
0010
0001
0000
,
1000
1000
0000
0010
0000
0100
0001
0000
,
0010
0010
0000
0100
0000
1000
0001
0000
,
0100
0110
1010
0101
,
0011
0001
0000
0100
0000
0010
1000
0000
,
0001
0001
0000
0010
0000
0100
1000
0000
,
0010
0010
0000
0100
0000
0001
1000
0000
,
0100
0110
0011
1100
,
1001
0000
0000
0000
;

//--------------- dance-single - RaverAce ----------------
#NOTEDATA:;
#STEPSTYPE:dance-single;
#DESCRIPTION:RaverAce;
#DIFFICULTY:Medium;
#METER:13;
#RADARVALUES:0.648471,0.612805,0.370709,0.295054,0.226965,600,551,49,39,0,0,0,0,0,0.648471,0.612805,0.370709,0.295054,0.226965,600,551,49,39,0,0,0,0,0;
#CHARTNAME:;
#CHARTSTYLE:;
#CREDIT:RaverAce;
#NOTES:
0000
0000
0000
0000
,
0000
0000
0000
0000
,
0000
0000
0000
0000
,
0000
0000
0000
0000
,
0000
0000
0000
0000
,
1000
2000
0000
3200
0000
0302
0000
0000
,
0103
0200
0000
0320
0000
0032
0000
0103
,
0001
0002
0000
0203
0000
2300
0000
3100
,
0010
0000
0010
0000
1000
0000
0000
0000
1010
0000
0000
1000
0001
0000
0000
0000
,
0011
0000
0010
0000
0100
0000
1000
0000
0000
1000
0100
0000
0010
0000
0001
0000
,
0011
0000
0010
0000
0100
0000
1000
0000
0000
0100
1000
0000
0100
0000
0010
0000
,
0001
0000
0100
0010
0000
0000
1000
0000
0100
0010
0000
0000
0001
0000
1000
0000
,
0010
0000
0010
0000
0110
0000
0000
0000
0101
0000
0000
0001
1000
0000
0000
0000
,
1010
0000
0010
0000
0100
0000
0001
0000
0000
0001
0100
0000
0010
0000
1000
0000
,
1010
0000
0010
0000
0100
0000
0001
0000
0000
0100
0001
0000
0100
0000
0010
0000
,
1000
0000
0100
0010
0000
0000
0001
0000
0100
0010
0000
0000
1000
0000
0001
0000
,
0010
0000
0010
0000
0110
0000
0000
0000
1100
0000
0000
1000
0001
0000
0000
0000
,
1001
0000
1000
0000
0010
0000
0100
0000
0000
0010
0100
0000
0001
0000
1000
0000
,
0100
0000
0001
0000
0100
0000
0010
0000
0000
0001
0010
0000
0100
0000
1000
0000
,
0001
0000
0100
0000
1000
0000
0100
0000
0000
0010
1000
0000
0001
0000
1000
0000
,
0100
0000
0010
0000
0011
0000
0000
0000
1100
0000
0000
1000
0020
0000
0000
0000
,
1030
0000
0001
0000
0010
0000
0100
0000
0000
0010
0100
0000
1000
0000
0001
0000
,
0100
0000
1000
0000
0100
0000
0010
0000
0000
1000
0010
0000
0100
0000
0001
0000
,
1000
0000
0100
0000
0001
0000
0100
0000
0000
0010
0001
0000
1000
0000
0001
0000
,
0100
0000
0010
0000
1010
0000
0000
0000
0101
0000
0000
0001
0010
0000
0000
0000
,
1001
0000
0001
0000
0100
0000
0010
0000
0000
0000
0010
0000
1000
0001
0010
0000
,
0100
0000
1000
0000
0100
0000
0010
0000
0000
0000
0010
0000
0001
1000
0010
0000
,
1000
0100
0010
0001
0000
0001
0100
1000
,
0000
0000
1000
0000
1100
0000
0000
0000
0110
0000
0000
0010
2000
0000
0000
0000
,
3001
0100
1000
0100
0000
0100
0001
0010
,
0000
0000
0010
0000
0100
0000
1000
0000
0000
0000
1000
0000
0010
0100
0001
0000
,
1000
0100
0001
0100
0000
0100
1000
0010
,
0100
0000
0001
0000
0101
0000
0000
0000
1010
0000
0000
1000
0001
0000
0000
0000
,
0011
0001
0100
1000
0100
0010
1000
0100
,
0001
0100
0010
0001
1000
0010
1000
0000
,
1100
0100
0001
0100
0010
0001
0100
0010
,
1000
0100
0001
0100
0010
0001
1000
0000
,
1010
1000
0100
0001
0100
0010
0001
0100
,
1000
0100
0010
1000
0001
0010
0001
0000
,
0101
0100
1000
0100
0010
1000
0100
0010
,
0001
0000
0100
0000
0110
0000
0000
0000
1001
0000
0000
0001
1000
0000
0000
0000
,
1100
0000
0100
0000
0010
0000
0002
0000
0000
0103
0001
0000
0010
0000
0100
0000
,
1000
0000
0010
0000
0100
0000
0020
0000
0000
0130
0001
0000
1000
0000
0100
0000
,
0010
0000
0001
0000
0100
0000
0020
0000
0000
1030
0100
0000
0001
0000
0100
0000
,
0010
0000
0010
0000
0110
0000
0000
0000
1001
0000
0000
0001
0020
0000
0000
0000
,
0031
0000
0100
0000
0010
0000
2000
0000
0000
3100
1000
0000
0010
0000
0100
0000
,
0001
0000
0010
0000
0100
0000
0020
0000
0000
0130
1000
0000
0001
0000
0100
0000
,
0002
0000
0013
2000
0000
3020
0000
0130
,
2000
0000
0000
3002
0000
0000
0023
0000
0000
0031
0000
1000
0010
0000
0100
0000
,
0110
0010
1000
0100
0001
0100
0010
0001
,
0100
1000
0100
0010
1000
0001
0010
0000
,
0011
0001
0100
1000
0100
0010
1000
0001
,
0010
0100
1000
0010
0100
0001
0010
0100
,
0110
0010
0001
0100
1000
0100
0010
1000
,
0100
0001
0100
0010
0001
1000
0010
0000
,
1010
1000
0100
0001
0100
0010
0001
1000
,
0010
0000
1000
0000
1100
0000
0000
0000
0011
0000
0000
0001
0100
0000
0000
0000
,
1001
1000
0100
0001
0100
0010
0001
0100
,
1000
0000
0100
0000
0010
0000
1000
0000
0100
0000
0010
0000
0100
1000
0001
0000
,
0101
0100
0010
1000
0100
1000
0001
0100
,
1000
0100
0010
1000
0001
0010
0100
1000
,
1001
0001
0100
1000
0100
0010
1000
0100
,
0001
0000
0100
0000
0010
0000
0001
0000
0100
0000
0010
0000
0100
0001
1000
0000
,
1100
0100
0010
0001
0100
0001
1000
0100
,
0001
0000
0100
0000
0110
0000
0000
0000
1100
0000
0000
0100
0010
0000
0001
0000
,
0101
0200
0000
2300
0000
3200
0000
0000
,
0310
0020
0000
2030
0000
3200
0000
0000
,
0310
0020
0000
2030
0000
3020
0000
0000
,
0130
0200
0000
2300
0000
0002
0000
3003
,
1001
0000
0001
0000
0010
0000
0100
0000
1000
0000
0010
1000
0000
0001
1000
0000
,
0100
0000
0010
0000
0001
0000
0100
0020
0000
0000
0130
0010
0100
0010
0000
1000
,
0100
0000
0100
0000
0001
0000
0100
0000
1000
0000
0010
0100
0000
0001
1000
0000
,
0100
0000
0010
0000
0011
0000
0000
0000
1001
0000
0000
0001
0100
0000
0010
0000
,
1000
0100
0000
0000
0010
0001
0000
0000
0100
0000
0010
1000
0000
0010
0100
0000
,
0001
0000
0001
0000
0010
0000
0100
0020
0000
0000
0130
0000
1000
0001
1000
0000
,
0001
0010
0000
0000
0100
1000
0000
0000
0010
0000
0100
0001
0000
1000
0001
0000
,
0010
0000
0100
0000
1100
0000
0000
0000
0011
0000
0000
0001
1000
0000
0010
0000
,
1000
0100
0000
0000
0010
0001
0000
0000
0100
0000
0010
1000
0000
1000
0100
0000
,
1000
0000
1000
0000
0010
0000
0100
0020
0000
0000
1030
0000
0001
1000
0001
0000
,
0010
0001
0000
0000
0001
0100
0000
0000
0100
0000
0010
1000
0000
0001
0010
0000
,
0100
0000
1000
0000
1001
0000
0001
1000
0100
0000
1000
0001
0100
0000
0010
0000
,
0110
0000
0000
0000
;

//--------------- dance-single - RaverAce ----------------
#NOTEDATA:;
#STEPSTYPE:dance-single;
#DESCRIPTION:RaverAce;
#DIFFICULTY:Hard;
#METER:16;
#RADARVALUES:0.79762,0.796647,0.204268,0.30262,0.801943,738,711,27,40,0,0,0,0,0,0.79762,0.796647,0.204268,0.30262,0.801943,738,711,27,40,0,0,0,0,0;
#CHARTNAME:;
#CHARTSTYLE:;
#CREDIT:RaverAce;
#NOTES:
0000
0000
0000
0000
,
0000
0000
0000
0000
,
0000
0000
0000
0000
,
0000
0000
0000
0000
,
0000
0000
0000
0000
,
0001
0002
0000
0023
0000
2030
0000
0000
,
3010
0020
0000
0230
0000
2300
0000
3001
,
1000
2000
0000
3020
0000
0032
0000
0013
,
0100
0000
0100
0000
0010
0000
0000
0000
1001
0000
0000
0001
0010
0000
0000
0000
,
1100
0000
0100
0000
0010
0000
0001
0000
0000
1000
0001
0000
0100
0000
1000
0000
,
0100
0000
0010
0000
1000
0000
0001
0000
0000
0010
0001
0000
1000
0000
0010
0000
,
0100
0000
0001
1000
0100
0000
0010
0000
0001
1000
0100
0000
0010
0000
0001
0000
,
1000
0000
1000
0000
1001
0000
0001
0010
0100
0000
1000
0010
0100
0000
0001
0000
,
0100
0000
0100
0000
0010
0000
1000
0000
0000
0001
1000
0000
0100
0000
0001
0000
,
0100
0000
0010
0000
0001
0000
1000
0000
0000
0010
1000
0000
0001
0000
0010
0000
,
0100
0000
1000
0001
0100
0000
0010
0000
1000
0001
0100
0000
0010
0000
1000
0000
,
0001
0000
0001
0000
1001
0000
1000
0010
0100
0000
0001
0010
0100
0000
1000
0000
,
1001
0000
0001
0100
0000
0010
0200
0000
0000
0000
0301
1000
0100
0000
0010
0000
,
0100
0000
1000
0010
0000
0100
0002
0000
0000
0000
1003
0100
0010
0000
0001
0000
,
1000
0000
0010
0100
0000
0001
2000
0000
0000
0000
3100
1000
0001
0000
0100
0000
,
0010
0000
0010
0000
1010
0000
1000
0001
0010
0000
0001
1000
0010
0000
0100
0000
,
0001
0000
1000
0100
0000
0010
0200
0000
0000
0000
1300
0001
0100
0000
0010
0000
,
0100
0000
0001
0010
0000
0100
2000
0000
0000
0000
3001
0100
0010
0000
1000
0000
,
0001
0000
0010
0100
0000
1000
0002
0000
0000
0000
0103
0001
1000
0000
0100
0000
,
0010
0000
0010
0000
0011
0000
0001
1000
0010
0000
1000
0001
0010
0000
0100
0000
,
0110
0000
0010
0000
0100
0000
2000
0000
0000
0000
3001
0000
1000
0010
0001
0010
,
0100
0000
0001
0000
0010
0000
0002
0000
0000
0000
1003
0000
0001
0010
1000
0010
,
0100
0000
1000
0001
0100
0000
0010
0000
1000
0000
0001
0100
0010
0000
1000
0000
,
0100
0000
1000
0000
1010
0000
0010
0100
0001
0000
0010
0100
1000
0100
0010
0001
,
0100
0000
0001
1000
0100
0000
0010
0000
0001
0000
1000
0100
0010
0000
0001
0000
,
0100
0000
0001
0000
0010
0000
0012
0000
0000
0000
1003
0000
0001
0100
1000
0100
,
0010
0000
1000
0001
0100
0000
0010
0000
1000
0000
0001
1000
0100
0000
0010
0000
,
0001
0000
0010
0000
0110
0000
0100
1000
0001
0000
0100
0001
1000
0010
1000
0100
,
0010
0000
0001
0100
0000
0010
0100
0000
0001
0000
0010
0100
1000
0000
0001
0000
,
1000
0000
0010
0100
0000
0001
1000
0000
0100
0000
0010
0001
1000
0000
0010
0000
,
0100
0000
0001
0010
0000
0100
1000
0000
0001
0000
0100
0001
1000
0000
0010
0000
,
1000
0000
0100
0010
0000
0001
0100
0000
0010
1000
0000
1000
0100
0000
1000
0000
,
0010
0000
1000
0100
0000
0010
0100
0000
1000
0000
0010
0100
0001
0000
1000
0000
,
0001
0000
0010
0100
0000
1000
0001
0000
0100
0000
0010
1000
0001
0000
0010
0000
,
0100
0000
1000
0010
0000
0100
0001
0000
1000
0000
0100
1000
0001
0000
0010
0000
,
0001
0000
0100
0000
0110
0000
0010
1000
0100
0000
0010
0001
0100
0000
0001
0000
,
1001
0000
1000
0010
0000
0100
0002
0000
0000
0013
1000
0010
0100
0000
1000
0000
,
0001
0000
0100
1000
0000
0100
0020
0000
0000
1030
0100
0001
0100
0000
0010
0000
,
0001
0000
0010
0100
0000
1000
0020
0000
0000
0031
0010
0100
0001
0000
1000
0000
,
0001
0000
0010
0000
0110
0000
0100
1000
0001
0000
0100
0001
1000
0000
0010
0000
,
1000
0000
0001
0010
0000
0100
2000
0000
0000
3010
0001
0010
0100
0000
0001
0000
,
1000
0000
0100
0001
0000
0100
0020
0000
0000
0031
0100
1000
0100
0000
0010
0000
,
2000
0000
3100
0002
0000
0203
0000
0310
,
0001
0000
0100
0020
0000
0000
1030
0000
0100
0010
0000
0010
0001
0000
1000
0000
,
1001
0000
0001
0100
0000
0100
1000
0000
0100
0000
0010
1000
0001
0000
0010
0000
,
0100
0000
1000
0010
0000
0010
0001
0000
0010
0000
0100
0001
0010
0000
0100
0000
,
1000
0000
0001
0100
0000
1000
0100
0000
0010
0000
1000
0010
0100
0000
0001
0000
,
0010
0000
0100
1000
0000
0010
1000
0000
0001
0010
0000
0001
0100
0000
0001
0000
,
1001
0000
1000
0100
0000
0100
0001
0000
0100
0000
0010
0001
1000
0000
0010
0000
,
0100
0000
0001
0010
0000
0010
1000
0000
0010
0000
0100
1000
0010
0000
0100
0000
,
0001
0000
1000
0100
0000
0001
0100
0000
0010
0000
0001
0010
0100
0000
1000
0000
,
0010
0000
1000
0000
1100
0000
0100
0010
0001
0000
0100
0010
1000
0000
0010
0000
,
0110
0000
0100
0001
0000
1000
0100
0000
0001
0000
0100
0010
0001
0000
1000
0000
,
0010
0000
0100
0001
0000
0010
1000
0000
0010
0000
0100
1000
0001
0000
0100
0000
,
0010
0000
1000
0100
0000
0001
0100
0000
0010
0000
0001
0100
1000
0000
0100
0000
,
0010
0000
1000
0001
0000
1000
0010
0000
0100
0001
0000
1000
0100
0000
0010
0000
,
0110
0000
0100
1000
0000
0001
0100
0000
1000
0000
0100
0010
1000
0000
0001
0000
,
0010
0000
0100
1000
0000
0010
0001
0000
0010
0000
0100
0001
1000
0000
0100
0000
,
0010
0000
0001
0100
0000
1000
0100
0000
0010
0000
1000
0100
0001
0000
0100
0000
,
1000
0000
0010
0000
0110
0000
0100
0001
0010
0000
0100
1000
0010
0000
1000
0000
,
1100
0200
0000
0302
0000
0203
0000
0000
,
0310
0020
0000
0032
0000
0203
0000
0000
,
0310
0020
0000
0032
0000
0023
0000
0000
,
0130
0200
0000
0302
0000
2000
0000
3003
,
0001
0010
0000
0100
1000
0001
0000
0100
0001
0000
0010
0001
0000
0001
1000
0000
,
1100
0000
0100
0000
0001
0000
0100
0010
0000
0100
1000
0010
0100
0010
1000
0010
,
0100
0001
0000
1000
0100
0010
0000
0001
0100
0000
1000
0100
0000
0010
1000
0000
,
0001
0000
0001
0000
0011
0000
0000
0010
0100
0000
0000
0100
1000
0000
0001
0000
,
1000
0010
0000
0001
0010
0100
0000
0100
0001
0000
0010
1000
0000
0010
0100
0000
,
1000
0000
1000
0000
1001
0000
0001
0200
0000
0000
1300
0000
0100
0001
0010
0100
,
1000
0100
0000
0010
0001
0100
0000
0010
1000
0000
0010
0100
0000
0001
0010
0000
,
0100
0000
0100
0000
0110
0000
0010
0001
1000
0000
0010
1000
0001
0100
0010
0100
,
0001
0010
0000
0100
1000
0010
0000
0100
0001
0000
0010
1000
0000
0010
0100
0000
,
1000
0000
1000
0000
1001
0000
0001
0100
0000
0010
1000
0100
0010
0001
0010
0100
,
1000
0010
0000
0100
0001
0010
0000
0100
1000
0000
0010
0001
0000
0010
0100
0000
,
0001
0000
0001
0000
1001
0000
1000
0100
0010
0001
0100
1000
0100
0010
1000
0100
,
0010
0000
0000
0000
;

//--------------- dance-double - RaverAce ----------------
#NOTEDATA:;
#STEPSTYPE:dance-double;
#DESCRIPTION:RaverAce;
#DIFFICULTY:Easy;
#METER:7;
#RADARVALUES:0.299378,0.428964,0.272358,0.060524,0,277,241,36,8,0,0,0,0,0,0.299378,0.428964,0.272358,0.060524,0,277,241,36,8,0,0,0,0,0;
#CHARTNAME:;
#CHARTSTYLE:;
#CREDIT:RaverAce;
#NOTES:
00000000
00000000
00000000
00000000
,
00000000
00000000
00000000
00000000
,
00000000
00000000
00000000
00000000
,
00000000
00000000
00000000
00000000
,
00000000
00000000
00000000
00000000
,
10000000
00000000
00000000
00000000
,
00010000
00000000
00000000
00000000
,
01000000
00000000
00000000
00000000
,
00001000
00010000
00001000
00010000
,
00011000
00000000
00001000
00000000
,
00100000
00000000
00001000
00000000
,
00010000
00000000
00000100
00000000
,
00000010
00000001
00000100
00000010
,
00001000
00000000
00000100
00000000
,
00010000
00000000
00001000
00000000
,
00100000
00000000
01000000
00000000
,
10000000
00100000
01000000
00010000
,
10010000
00000000
10000000
00000000
,
00100000
00000000
01000000
00001000
,
00010000
00000000
00000100
00000000
,
00000010
00000001
00000100
00000010
,
00001000
00000000
00000001
00000000
,
00000010
00000000
00000100
00010000
,
00001000
00000000
01000000
00000000
,
00100000
10000000
01000000
00100000
,
00110000
00000000
00010000
01000000
,
00100000
00000000
00100000
01000000
,
00001000
00000000
00010000
00000000
,
00001000
00010000
00000100
00001000
,
00000010
00000000
00001000
00000100
,
00000010
00000000
00000010
00000100
,
00010000
00000000
00001000
00000000
,
00010000
00001000
00100000
00001000
,
00011000
00010000
00000100
00001000
,
00000010
00000100
00000001
00000010
,
00000110
00000100
00001000
00000001
,
00000100
00000010
00010000
00001000
,
00011000
00001000
01000000
00010000
,
00100000
01000000
10000000
00100000
,
01100000
01000000
00010000
10000000
,
01000000
00110000
10010000
11000000
,
10010000
00000000
00010000
00000000
,
01000000
00000000
00001000
00000000
,
00010000
00000000
00000100
00000000
,
00000010
00000001
00000100
00000010
,
00000100
00000000
00000001
00000000
,
00001000
00000000
00000100
00000000
,
00000020
00000000
00000230
00000000
,
00002300
00000000
00000000
00003002
00000000
00000000
00000103
00000000
,
00000110
00000010
00001000
00000100
,
00010000
00001000
00100000
01000000
,
10000000
00010000
01000000
10000000
,
01000000
00100000
10000000
01000000
,
01100000
00100000
00010000
01000000
,
00001000
00010000
00000010
00000100
,
00000001
00001000
00000100
00000001
,
00000100
00001100
00010100
00011000
,
01010000
01000000
00100000
10000000
,
01000000
00010000
00001000
00000100
,
00000110
00000010
00001000
00000001
,
00000010
00000100
00001000
00000100
,
00001100
00000100
00000010
00000001
,
00000100
00001000
00010000
01000000
,
01100000
00100000
00010000
10000000
,
00100000
10100000
11000000
01100000
,
00120000
00000000
00000000
00000000
,
02030000
00000000
00000000
00000000
,
03002000
00000000
00000000
00000000
,
00023000
00000000
00000000
00000000
,
00030100
00000010
00000001
00000100
,
00000010
00001000
00000100
00010000
,
00001000
00100000
01000000
10000000
,
00100000
01100000
01001000
00011000
,
00010100
00000100
00000010
00000001
,
00000100
00001000
00010000
01000000
,
10000000
00100000
01000000
00010000
,
10000000
11000000
00110000
00011000
,
01001000
01000000
00100000
10000000
,
01000000
00010000
00001000
00000100
,
00000001
00000010
00000100
00001000
,
00000001
00000101
00001010
00011000
,
01010000
00000000
00000000
00000000
;

//--------------- dance-double - RaverAce ----------------
#NOTEDATA:;
#STEPSTYPE:dance-double;
#DESCRIPTION:RaverAce;
#DIFFICULTY:Medium;
#METER:13;
#RADARVALUES:0.601997,0.612805,0.45393,0.370709,0.147527,557,497,60,49,0,0,0,0,0,0.601997,0.612805,0.45393,0.370709,0.147527,557,497,60,49,0,0,0,0,0;
#CHARTNAME:;
#CHARTSTYLE:;
#CREDIT:RaverAce;
#NOTES:
00000000
00000000
00000000
00000000
,
00000000
00000000
00000000
00000000
,
00000000
00000000
00000000
00000000
,
00000000
00000000
00000000
00000000
,
00000000
00000000
00000000
00000000
,
00000001
00000002
00000000
00000203
00000000
00000320
00000000
00000000
,
00010030
00020000
00000000
00032000
00000000
00203000
00000000
00000000
,
01300000
02000000
00000000
23000000
00000000
30200000
00000000
01300000
,
00010000
00010000
10000000
00000000
00010000
00000000
10010000
00000000
,
11000000
00000000
01000000
00100000
00000000
00010000
01000000
00000000
,
00100000
00000000
01000000
00001000
00000000
00010000
00000100
00000000
,
00000010
00000000
00000001
00000100
00000000
00000010
00001000
00000000
,
00000001
00000011
00001100
00001001
,
00000101
00000000
00000100
00000010
00000000
00001000
00000100
00000000
,
00000010
00000000
00000100
00010000
00000000
00001000
01000000
00000000
,
00100000
00000000
10000000
01000000
00000000
00100000
00010000
00000000
,
10000000
10100000
01010000
10010000
,
01001000
00000000
00001000
00002000
00000000
00013000
00000100
00010000
,
00001000
00000000
00100000
01000000
00000000
01000000
00100000
00010000
,
01000000
00000000
00100000
10000000
00000000
00100000
01000000
00010000
,
00100000
00001000
00011000
00000000
00001100
00000000
00011000
00000000
,
00010100
00000000
00010000
00020000
00000000
00031000
01000000
00001000
,
00010000
00000000
00000010
00000100
00000000
00000100
00000010
00001000
,
00000100
00000000
00000010
00000001
00000000
00000010
00000100
00001000
,
00000010
00010000
00011000
00000000
01010000
00000000
00011000
00000000
,
00001100
00000000
00000100
00000000
00000010
00000000
00000001
00000000
00000000
00000000
00000100
00000000
00000010
00001000
00000001
00000000
,
00000010
00000000
00000100
00000000
00010000
00000000
00002000
00000000
00000000
00000000
01003000
00000000
00100000
10000000
00010000
00000000
,
01000000
00100000
10000000
01000000
00100000
00010000
01000000
00100000
,
10000000
01000000
00100000
00000000
00110000
00000000
00010100
00000000
,
00000100
00000010
00000001
00000100
00000010
00001000
00000100
00000010
,
00000001
00000000
00000100
00000000
00000010
00000000
00020000
00000000
00000000
00000000
00030100
00000000
00010000
00001000
00010000
00000000
,
00001000
01000000
00100000
10000000
01000000
00100000
00010000
10000000
,
00100000
10000000
11000000
00000000
00110000
00000000
00011000
00000000
,
00001100
00000100
00000010
00000001
00000100
00000010
00001000
00000010
,
00000100
00000001
00001000
00000100
00010000
00001000
00010000
00000000
,
00001000
00100000
01000000
10000000
00100000
01000000
00010000
10000000
,
02000000
00000000
00000000
03020000
00000000
00000000
02030000
00000000
00000000
03100000
00000000
00010000
10000000
00000000
00010000
00000000
,
01010000
01000000
00100000
10000000
01000000
00100000
00010000
00100000
,
01000000
10000000
00010000
01000000
00001000
00010000
00001000
00000000
,
00010000
00000010
00000100
00000001
00000010
00000100
00001000
00000001
,
00000100
00000010
00000110
00000000
00001010
00000000
00001100
00000000
,
00010100
00010000
00001000
02000000
00000000
03100000
10000000
01000000
,
00010000
01000000
00100000
00020000
00000000
01030000
00001000
00010000
,
00000100
00001000
00000010
00000200
00000000
00000301
00000010
00000100
,
00010000
00010000
00011000
00000000
00110000
00000000
10010000
00000000
,
01001000
00001000
00010000
00000200
00000000
00000310
00000001
00000100
,
00001000
00000100
00000010
00002000
00000000
00003100
00010000
00001000
,
02000000
00000000
03100000
20000000
00000000
32000000
00000000
03010000
,
02000000
00000000
00000000
03200000
00000000
00000000
00302000
00000000
00000000
00023000
00000000
00000000
00030100
00000000
00010000
00000000
,
00011000
00001000
00100000
01000000
10000000
00010000
01000000
00100000
,
10000000
01000000
00100000
00001000
00010000
00000100
00000010
00000000
,
00000011
00000001
00000100
00001000
00000100
00000010
00001000
00000100
,
00020000
00000000
00000000
00032000
00000000
00000000
00203000
00000000
00000000
01300000
00000000
00100000
00010000
00000000
00001000
00000000
,
00011000
00010000
00000010
00000100
00000001
00001000
00000100
00000010
,
00000001
00000100
00000010
00010000
00001000
01000000
00100000
00000000
,
10100000
10000000
01000000
00010000
01000000
00100000
00010000
01000000
,
00001000
00001000
00011000
00000000
00001100
00000000
00011000
00000000
,
00110000
00100000
01000000
10000000
00010000
01000000
00001000
00010000
,
00000100
00000001
00000100
00000010
00000001
00001000
00000100
00000000
,
00001100
00001000
00000100
00010000
00001000
00100000
01000000
10000000
,
00020000
00000000
00000000
02030000
00000000
00000000
03002000
00000000
00000000
00013000
00000000
00010000
00000010
00000000
00001000
00000000
,
00001010
00000010
00000100
00000001
00001000
00000100
00010000
00001000
,
01000000
10000000
01000000
00100000
10000000
00010000
01000000
00000000
,
01010000
00010000
01000000
00001000
00010000
00000010
00000100
00000001
,
00000010
00000010
00000110
00000000
00001100
00000000
00011000
00000000
,
00001100
00000200
00000000
00000320
00000000
00000032
00000000
00000000
,
00000103
00000200
00000000
00002300
00000000
00003200
00000000
00000000
,
00000310
00000020
00000000
00020030
00000000
00032000
00000000
00000000
,
00103000
00200000
00000000
02300000
00000000
20000000
00000000
33000000
,
10010000
00000000
00010000
00000000
01000000
00000000
00100000
00000000
10000000
00000000
01000000
00100000
00000000
00001000
00010000
00000000
,
00000100
00000000
00001000
00000000
00000010
00000000
00000100
00000020
00000000
00000000
00001030
00000000
00000001
00000000
00000010
00000000
,
00000110
00000000
00000100
00000000
00001000
00000000
00000010
00000000
00000100
00000000
00000001
00000100
00000000
00000010
00010000
00000000
,
00001000
00000000
00001000
00000000
00011000
00000000
00000000
00000000
00110000
00000000
00000000
00000000
01010000
00000000
00000000
01000000
,
00001000
00010000
00000000
00000000
00010000
00000100
00000000
00000000
00000100
00000000
00000010
00000001
00000000
00001000
00000010
00000000
,
00000100
00000000
00000001
00000000
00000010
00000000
00000100
00002000
00000000
00000000
00003010
00000000
00010000
00000000
00000100
00000000
,
00001000
00000100
00000000
00000000
00010000
00001000
00000000
00000000
00100000
00000000
01000000
10000000
00000000
00010000
01000000
00000000
,
00100000
00000000
01000000
00000000
01100000
00000000
00000000
00000000
01001000
00000000
00000000
00000000
00011000
00000000
00000000
00001000
,
00010000
00001000
00000000
00000000
00001000
01000000
00000000
00000000
01000000
00000000
00100000
10000000
00000000
00010000
00100000
00000000
,
01000000
00000000
10000000
00000000
00100000
00000000
01000000
00020000
00000000
00000000
00130000
00000000
00001000
00000000
01000000
00000000
,
00010000
01000000
00000000
00000000
00001000
00010000
00000000
00000000
00000010
00000000
00000100
00000001
00000000
00001000
00000100
00000000
,
00000010
00000100
00000110
00000000
00010100
00000000
00011000
00000000
,
00110000
00000000
00000000
00000000
;

//--------------- dance-double - RaverAce ----------------
#NOTEDATA:;
#STEPSTYPE:dance-double;
#DESCRIPTION:RaverAce;
#DIFFICULTY:Hard;
#METER:16;
#RADARVALUES:0.781408,0.796647,0.249661,0.295054,0.783029,723,690,33,39,0,0,0,0,0,0.781408,0.796647,0.249661,0.295054,0.783029,723,690,33,39,0,0,0,0,0;
#CHARTNAME:;
#CHARTSTYLE:;
#CREDIT:RaverAce;
#NOTES:
00000000
00000000
00000000
00000000
,
00000000
00000000
00000000
00000000
,
00000000
00000000
00000000
00000000
,
00000000
00000000
00000000
00000000
,
00000000
00000000
00000000
00000000
,
10000000
20000000
00000000
32000000
00000000
03020000
00000000
00000000
,
01030000
02000000
00000000
03200000
00000000
00302000
00000000
00000000
,
00013000
00020000
00000000
00030200
00000000
00002300
00000000
00003001
,
00000100
00000000
00000100
00000000
00000101
00000000
00000000
00000000
00001001
00000000
00000000
00001000
00000010
00000000
00000000
00000000
,
00000101
00000000
00000001
00000000
00000010
00000000
00000100
00000000
00000000
00010000
00000100
00000000
00010000
00000000
00001000
00000000
,
00100000
00000000
00010000
00000000
01000000
00000000
00100000
00000000
00000000
10000000
01000000
00000000
00100000
00000000
00010000
00000000
,
10010000
00000000
10000000
00100000
00000000
00000000
01100000
00000000
00000000
01000000
00010000
00000000
00100000
00000000
00001000
00000000
,
00010000
00000000
00010000
00000000
00011000
00000000
00000000
00001000
00100000
00000000
00000000
00100000
01000000
00000000
00000000
00000000
,
11000000
00000000
10000000
00000000
00100000
00000000
01000000
00000000
00000000
00001000
01000000
00000000
00001000
00000000
00010000
00000000
,
00000010
00000000
00001000
00000000
00000100
00000000
00000010
00000000
00000000
00000001
00000100
00000000
00000010
00000000
00001000
00000000
,
00001001
00000000
00000001
00000010
00000000
00000000
00000110
00000000
00000000
00000100
00001000
00000000
00000010
00000000
00010000
00000000
,
00001000
00000000
00001000
00000000
00011000
00000000
00000000
00010000
00000010
00000000
00000000
00000010
00000100
00000000
00000010
00000000
,
00001010
00000000
00001000
00000100
00000000
00000010
00000200
00000000
00000000
00000000
00010300
00001000
00100000
00000000
01000000
00000000
,
10000000
00000000
00100000
01000000
00000000
00100000
20000000
00000000
00000000
00000000
30100000
01000000
00010000
00000000
01000000
00000000
,
00001000
00000000
00010000
00001000
00000000
00100000
02000000
00000000
00000000
00000000
03100000
00001000
00010000
00000000
00001000
00000000
,
00010000
00000000
00000100
00000000
00001100
00000000
00000000
00001000
00000100
00000000
00000000
00000100
00010000
00000000
00001000
00000000
,
00100000
00000000
00010000
01000000
00000000
00100000
02000000
00000000
00000000
00000000
03001000
00010000
00000010
00000000
00000100
00000000
,
00000001
00000000
00000010
00000100
00000000
00000010
00000002
00000000
00000000
00000000
00000013
00000100
00001000
00000000
00000100
00000000
,
00010000
00000000
00001000
00010000
00000000
00000010
00000200
00000000
00000000
00000000
00000310
00010000
00001000
00000000
00010000
00000000
,
00001000
00000000
01000000
00000000
01010000
00000000
00000000
00010000
01000000
00000000
00000000
01000000
00001000
00000000
00010000
00000000
,
00011000
00000000
00001000
00000000
00100000
00000000
02000000
00000000
00000000
00000000
13000000
00000000
00100000
10000000
01000000
00100000
,
00010000
00000000
00100000
00000000
00001000
00000000
00020000
00000000
00000000
00000000
00030100
00000000
00001000
00000100
00000010
00000001
,
00000100
00000000
00000010
00001000
00000001
00000000
00000100
00000000
00000010
00000000
00001000
00000001
00000100
00000000
00000010
00000000
,
00001000
00000000
00000100
00000000
00001100
00000000
00000000
00000100
00010000
00000000
00000000
00001000
00100000
01000000
10000000
00100000
,
01000000
00000000
00010000
10000000
01000000
00000000
00100000
00000000
00010000
00000000
10000000
01000000
00100000
00000000
00010000
00000000
,
10000000
00000000
00100000
00000000
01000000
00000000
01020000
00000000
00000000
00000000
10030000
00000000
01000000
00100000
00010000
00001000
,
00010000
00000000
00000100
00001000
00000100
00000000
00010000
00000000
00001000
00000000
01000000
00010000
01000000
00000000
00001000
00000000
,
00010000
00000000
00010000
00000000
00011000
00000000
00001000
00100000
00001000
00000000
01000000
00100000
01000000
00000000
00100000
00000000
,
10010000
00000000
00010000
01000000
00000000
00100000
10000000
00000000
01000000
00000000
00100000
00001000
00010000
00000000
00000100
00000000
,
00001000
00000000
00000100
00000010
00000000
00000010
00000001
00000000
00000100
00000000
00000010
00001000
00000001
00000000
00000010
00000000
,
00000100
00000000
00010000
00000100
00010000
00000000
00001000
00000000
00100000
00000000
01000000
10000000
00100000
00000000
01000000
00000000
,
00010000
00000000
10000000
01000000
00000000
01000000
00100000
00000000
00001000
00010000
00000000
00000100
00001000
00000000
00000001
00000000
,
00001001
00000000
00001000
00000100
00000000
00000010
00000001
00000000
00000100
00000000
00000010
00010000
00001000
00000000
01000000
00000000
,
00010000
00000000
01000000
00100000
00000000
00100000
10000000
00000000
01000000
00000000
00100000
00010000
10000000
00000000
00100000
00000000
,
01000000
00000000
00001000
01000000
00001000
00000000
00010000
00000000
00000010
00000000
00000100
00000001
00000010
00000000
00000100
00000000
,
00001000
00000000
00000001
00000000
00000101
00000000
00000100
00000010
00010000
00000000
00001000
00100000
00010000
00000000
10000000
00000000
,
10100000
00000000
00100000
01000000
00000000
00001000
00020000
00000000
00000000
00000000
00031000
00010000
00000100
00000000
00001000
00000000
,
00000010
00000000
00000100
00000001
00000000
00000010
00000200
00000000
00000000
00000000
00000310
00000001
00001000
00000000
00000100
00000000
,
00010000
00000000
00001000
00100000
00000000
00010000
02000000
00000000
00000000
00000000
03100000
10000000
01000000
00000000
00100000
00000000
,
00010000
00000000
01000000
00100000
00000000
01000000
00001000
00000000
00010000
00000010
00000000
00000010
00000100
00000000
00000001
00000000
,
00000011
00000000
00000010
00000100
00000000
00010000
00002000
00000000
00000000
00000000
00013000
00001000
01000000
00000000
00010000
00000000
,
00100000
00000000
01000000
10000000
00000000
00100000
02000000
00000000
00000000
00000000
03100000
10000000
00010000
00000000
01000000
00000000
,
00200000
00000000
10300000
02000000
00000000
03020000
00000000
01030000
,
00100000
00000000
00001000
00020000
00000000
00000000
00030100
00000000
00001000
00000010
00000000
00000010
00000100
00000000
00000001
00000000
,
00001001
00000000
00001000
00000100
00000000
00000001
00000100
00000000
00000010
00000000
00000001
00001000
00000100
00000000
00010000
00000000
,
00001000
00000000
00100000
00010000
00000000
01000000
00010000
00000000
01000000
00000000
00100000
10000000
01000000
00000000
00100000
00000000
,
01000000
00000000
10000000
01000000
00000000
00100000
00010000
00000000
10000000
00000000
00100000
01000000
00001000
00000000
00010000
00000000
,
00000100
00000000
00000010
00000001
00000000
00000100
00000010
00000000
00010000
00001000
00000000
00100000
01000000
00000000
10000000
00000000
,
10010000
00000000
00010000
01000000
00000000
10000000
01000000
00000000
00100000
00000000
10000000
00010000
01000000
00000000
00001000
00000000
,
00010000
00000000
00000010
00001000
00000000
00000100
00001000
00000000
00000100
00000000
00000010
00000001
00000100
00000000
00000010
00000000
,
00000100
00000000
00000001
00000100
00000000
00000010
00001000
00000000
00000001
00000000
00000010
00000100
00010000
00000000
00001000
00000000
,
01000000
00000000
00100000
00000000
10100000
00000000
10000000
01000000
00100000
00000000
00001000
00010000
00000100
00000000
00000010
00000000
,
00000110
00000000
00000100
00001000
00000000
00000001
00000100
00000000
00000010
00000000
00010000
00001000
00100000
00000000
01000000
00000000
,
10000000
00000000
00100000
01000000
00000000
00010000
10000000
00000000
01000000
00000000
00100000
00001000
00010000
00000000
00000100
00000000
,
00010000
00000000
00000010
00001000
00000000
00000001
00000010
00000000
00000100
00000000
00010000
00001000
00100000
00000000
01000000
00000000
,
10000000
00000000
00100000
01000000
00000000
00001000
00010000
00000000
00001000
00100000
00000000
01000000
10000000
00000000
00100000
00000000
,
01100000
00000000
01000000
00010000
00000000
10000000
01000000
00000000
00100000
00000000
00001000
00010000
00000010
00000000
00000100
00000000
,
00000001
00000000
00000010
00000100
00000000
00001000
00000001
00000000
00000100
00000000
00000010
00010000
00001000
00000000
01000000
00000000
,
00001000
00000000
00100000
00010000
00000000
10000000
00100000
00000000
01000000
00000000
00001000
00010000
00000010
00000000
00000100
00000000
,
00000001
00000000
00001000
00000000
00001100
00000000
00000100
00001000
00000001
00000000
00000100
00000001
00001000
00000000
00000100
00000000
,
00010100
00020000
00000000
00032000
00000000
02003000
00000000
00000000
,
13000000
20000000
00000000
32000000
00000000
03002000
00000000
00000000
,
00013000
00020000
00000000
00030200
00000000
00000302
00000000
00000000
,
00000103
00000200
00000000
00020300
00000000
00002000
00000000
00033000
,
00010000
00000100
00000000
00001000
00000100
00000010
00000000
00000001
00000100
00000000
00000010
00001000
00000000
00000100
00010000
00000000
,
00001000
00000000
00100000
00000000
00110000
00000000
00010000
01000000
00000000
00100000
10000000
01000000
00100000
00010000
01000000
00001000
,
00010000
00000100
00000000
00000100
00010000
00001000
00000000
00001000
00100000
00000000
01000000
00100000
00000000
00001000
00010000
00000000
,
00000100
00000000
00000100
00000000
00001100
00000000
00000000
00001000
00000001
00000000
00000000
00000001
00000100
00000000
00000010
00000000
,
00000100
00000001
00000000
00001000
00000100
00010000
00000000
00001000
00100000
00000000
01000000
10000000
00000000
00100000
01000000
00000000
,
00010000
00000000
10000000
01000000
00010000
00000000
00001000
00010000
00000000
00000100
00001000
00000100
00000010
00000100
00001000
00000100
,
00000010
00000001
00000000
00000100
00000010
00001000
00000000
00000100
00010000
00000000
00001000
00100000
00000000
00100000
01000000
00000000
,
10000000
00000000
00100000
00000000
10100000
00000000
10000000
00010000
01000000
00000000
00010000
10000000
01000000
00000000
00100000
00000000
,
01000000
10000000
00000000
00010000
01000000
00001000
00000000
00010000
00000010
00000000
00000100
00000001
00000000
00000010
00000100
00000000
,
00001000
00000000
00000001
00000100
00001000
00000000
00010000
00001000
00000000
01000000
00010000
01000000
00100000
01000000
00010000
01000000
,
00100000
10000000
00000000
01000000
00100000
00010000
00000000
01000000
00001000
00000000
00010000
00000010
00000000
00000010
00000100
00000000
,
00000001
00000000
00000010
00000000
00000011
00000000
00000001
00000100
00000010
00010000
00001000
00100000
01000000
10000000
00100000
01000000
,
00001000
00000000
00000000
00000000
;
