#TITLE:COUNTERMEASURES;
#SUBTITLE:;
#ARTIST:dj VERTICAI;
#TITLETRANSLIT:;
#SUBTITLETRANSLIT:;
#ARTISTTRANSLIT:;
#GENRE:;
#CREDIT:;
#BANNER:COUNTERMEASURES.png;
#BACKGROUND:COUNTERMEASURES-bg.png;
#LYRICSPATH:;
#CDTITLE:;
#MUSIC:COUNTERMEASURES.ogg;
#OFFSET:-0.035935;
#SAMPLESTART:18.035025;
#SAMPLELENGTH:15.000000;
#SELECTABLE:YES;
#BPMS:0.000000=240.000000
,64.000000=120.000000
,68.000000=240.000000
,317.000000=120.000000
,321.000000=240.000000
;
#STOPS:181.500000=0.250000,
183.500000=0.250000,
185.500000=0.250000,
188.500000=0.125000,
189.000000=0.125000,
189.500000=0.125000,
190.000000=0.125000,
251.000000=0.500000,
434.500000=0.250000,
436.500000=0.250000,
438.500000=0.250000,
440.500000=0.250000,
442.500000=0.250000,
445.500000=0.125000,
446.000000=0.125000,
446.500000=0.125000,
447.000000=0.125000,
447.500000=0.125000,
448.000000=0.125000
;
#BGCHANGES:;
#KEYSOUNDS:;
#ATTACKS:;

//---------------dance-single - ----------------
#NOTES:
     dance-single:
     :
     Hard:
     17:
     0.949155,1.015068,0.549572,0.090228,0.397825,810.000000,743.000000,67.000000,11.000000,0.000000,0.000000,0.949155,1.015068,0.549572,0.090228,0.397825,810.000000,743.000000,67.000000,11.000000,0.000000,0.000000:
// measure 0
0000
0000
0000
0000
,  // measure 1
0000
0000
0000
0000
,  // measure 2
0000
0000
0000
0000
,  // measure 3
0000
0000
0000
0000
,  // measure 4
1001
0000
0000
0000
,  // measure 5
0000
0000
0000
0010
,  // measure 6
1001
0000
0000
0000
,  // measure 7
0000
1100
0000
0110
0000
0011
0000
0001
,  // measure 8
1000
1000
0010
0010
,  // measure 9
0100
0000
0100
0000
0001
0000
0001
1000
,  // measure 10
0001
0001
0010
0010
,  // measure 11
0100
0000
0100
0000
1000
0100
1000
0001
,  // measure 12
0010
0000
0100
1100
0000
1000
0010
0000
,  // measure 13
0100
0000
0000
0101
0000
0000
0000
0000
0000
0001
0000
0000
0100
0000
0000
0000
0010
0000
0000
0000
0100
0000
0000
0000
,  // measure 14
2002
0000
0000
3003
0000
0000
1000
0000
0100
0000
0001
0000
,  // measure 15
0100
1000
0010
1000
0001
0100
0010
1000
,  // measure 16
0200
0000
0000
0000
0300
0000
0000
0000
0100
1000
0001
1000
0100
0010
0001
0000
,  // measure 17
0001
0100
0010
0100
0000
0100
1000
0100
,  // measure 18
0000
0100
0010
0100
0001
1000
0100
0100
,  // measure 19
1000
0100
0010
0100
0000
0100
0001
0100
,  // measure 20
0000
0100
0010
0100
1000
0010
0100
0001
,  // measure 21
1000
0010
0100
0010
0000
0010
0001
0010
,  // measure 22
0000
0010
0100
0010
1000
0001
0010
0010
,  // measure 23
0001
0010
0100
0010
0000
0010
1000
0010
,  // measure 24
0100
1000
0001
0100
0001
1000
0100
1000
,  // measure 25
0010
0101
0010
1100
,  // measure 26
0010
0101
1100
0101
,  // measure 27
0001
0100
0010
0100
0001
0100
1000
0100
,  // measure 28
0001
0010
0100
0010
0001
0010
1000
0010
,  // measure 29
0001
0100
0010
1000
0100
1000
0010
0100
,  // measure 30
0001
0010
0100
1000
0010
1000
0100
0010
,  // measure 31
0001
0001
0100
0010
1000
1000
0100
0010
,  // measure 32
0100
0010
0100
0000
0000
0000
1000
0001
1000
0000
0000
0000
0010
0000
0100
0000
,  // measure 33
0010
1000
0010
0100
0000
0101
0000
1010
,  // measure 34
0000
0010
1000
0001
0000
0001
1001
0000
,  // measure 35
0001
0010
0100
0010
0000
0011
0000
1100
,  // measure 36
0000
0000
0000
0100
0000
0000
1000
0000
0000
0001
0000
0000
0010
0000
0000
0000
0100
0000
0000
0000
0100
0000
0000
0000
,  // measure 37
1000
0100
0010
0100
0000
1100
0000
0101
,  // measure 38
0000
0001
0100
0010
0000
1000
1001
0000
,  // measure 39
0001
1000
0010
0100
0000
0100
0001
0010
,  // measure 40
0000
0000
0000
0010
0000
0000
0100
0000
0000
1000
0000
0000
0001
0000
0100
0000
0001
0000
1000
0000
0100
0000
1000
0000
,  // measure 41
0001
1000
0010
1010
0000
0101
0000
0011
,  // measure 42
0000
0001
0010
1000
0000
0010
0100
0000
,  // measure 43
0010
0001
0100
0101
0000
1100
0000
1010
,  // measure 44
0000
0000
0000
0010
0000
0000
1000
0000
0000
0100
0000
0000
0010
0000
0000
0000
0100
0000
0000
0000
0100
0000
0000
0000
,  // measure 45
0010
0001
1000
0010
0010
1000
0001
0010
,  // measure 46
0100
1000
0001
0100
0100
0001
1000
0100
,  // measure 47
0000
1000
1010
1001
1100
1000
0001
0100
,  // measure 48
0010
1000
0100
0010
1000
0010
0100
0001
,  // measure 49
1000
0010
0001
1000
0010
0100
0001
0010
,  // measure 50
0100
0001
1000
0010
0100
1000
0001
0100
,  // measure 51
0010
0000
0000
1000
0000
0000
0010
0000
0000
0100
0000
0000
0001
0000
0000
1000
0000
0000
0010
0000
0100
0000
0001
0000
,  // measure 52
0100
0000
0000
0010
0000
0000
1000
0000
0000
0001
0000
0000
0100
0000
0000
0100
0000
0000
0010
0000
1000
0000
0001
0000
,  // measure 53
1000
0000
0000
0010
0000
0000
1000
0000
0000
0100
0000
0000
0010
0000
0000
0001
0000
0000
0010
0000
0100
0000
1000
0000
,  // measure 54
0100
0000
0000
0010
0000
0000
0001
0000
1000
0000
0001
0000
0100
0000
0000
0010
0000
0000
1000
0000
0010
0000
1000
0000
,  // measure 55
0001
0000
1000
0000
0100
0000
0010
0000
0100
0000
0010
0000
0001
0000
0000
1000
0000
0000
0001
0000
0000
0100
0000
0000
,  // measure 56
0010
0000
0100
0000
0001
0000
0100
0010
0100
0000
0001
0000
1000
0000
0100
0000
,  // measure 57
0010
0000
0100
0000
1000
0100
1000
0100
1000
0000
0001
0000
0100
0000
0010
0000
,  // measure 58
0100
0000
0001
0000
1000
0000
0100
0010
0100
0000
1000
0000
0001
0000
0100
0000
,  // measure 59
0010
0000
0100
0000
0001
0100
0001
0100
0001
0000
1000
0000
0200
0000
0300
0000
,  // measure 60
0000
0000
0000
0000
0000
0000
0100
0000
0000
1000
0000
0000
0001
0000
0000
0000
0000
0000
0000
0000
0010
0000
0000
0000
0000
0000
0000
0000
0100
0000
0000
0000
0000
0000
0000
0000
1000
0000
0000
0000
0000
0000
0000
0000
0100
0000
0000
0000
,  // measure 61
0000
0000
0010
0000
0000
0000
0001
0000
0000
0000
1000
0000
0000
0000
0010
0000
0000
0000
0100
0000
0000
0100
0000
0000
,  // measure 62
0001
1000
0000
1000
0001
0020
0000
0000
,  // measure 63
0030
0000
0000
0000
0000
0000
0010
0000
0100
0000
0001
0000
0100
0000
0000
0010
0000
0000
0100
0000
1000
0000
0010
0000
,  // measure 64
0100
0000
0000
1000
0000
0000
0001
0000
0010
0000
0100
0000
0001
0000
0010
0000
0100
0000
1000
0000
0000
0100
0000
0000
,  // measure 65
0010
0000
0000
0100
0000
0000
1000
0000
0010
0000
0100
0000
0001
0000
0000
0010
0000
0000
0100
0000
1000
0000
0001
0000
,  // measure 66
0100
0000
0000
0001
0000
0000
0010
0000
0100
0000
1000
0000
0010
0000
0100
0000
0001
0000
0100
0000
0000
0010
0000
0000
,  // measure 67
1000
0000
0000
0001
0000
0000
0010
0000
0100
0000
1000
0000
0001
0000
0000
0100
0000
0000
0010
0000
0001
0000
0010
0000
,  // measure 68
0100
0000
0000
0001
0000
0000
0010
0000
0100
0000
1000
0000
0010
0000
1000
0000
0001
0000
0010
0000
0000
0100
0000
0000
,  // measure 69
1000
0000
0000
0100
0000
0000
0010
0000
0100
0000
0001
0000
0100
0000
0000
0010
0000
0000
0001
0000
0100
0000
0010
0000
,  // measure 70
1000
0000
0000
0010
0000
0000
0100
0000
0010
0000
1000
0000
0001
0000
1000
0000
0100
0000
0010
0000
0000
0100
0000
0000
,  // measure 71
0010
0100
2002
0000
0000
0000
0000
0000
,  // measure 72
0000
0000
0000
0000
,  // measure 73
0000
0000
3003
0000
1000
0100
1000
0001
,  // measure 74
1000
0100
1000
0001
0100
0001
1000
0001
,  // measure 75
0100
0010
0100
0000
0001
0101
0000
1000
,  // measure 76
1010
0000
1000
1100
0000
0001
0011
0000
,  // measure 77
0110
0000
0000
0000
0000
0000
1001
0000
0000
0000
0000
0000
0001
0000
0000
0100
0000
0000
1000
0000
0000
0000
0100
0000
,  // measure 78
0000
0010
0000
0110
0000
0000
1001
0000
0000
0001
0010
0100
,  // measure 79
1000
0000
0000
0000
0100
0000
0000
0000
0010
0000
0000
0000
0002
0000
0000
0000
0000
0000
0000
0000
0000
0000
0000
0000
0003
0000
0000
0000
0000
0000
0000
0000
0000
0000
0000
0000
0100
0000
0000
0001
0000
0000
1000
0000
0000
0001
0000
0000
,  // measure 80
0100
0010
1000
0000
0001
0000
0100
0000
0010
0000
1000
0000
0100
0000
1000
0000
,  // measure 81
0010
0100
0001
0010
0100
0010
0001
1000
,  // measure 82
0200
0000
1300
0100
0010
0001
0100
0001
,  // measure 83
0010
0100
1000
0010
0100
0001
1000
0001
,  // measure 84
1000
0001
0010
0100
0001
0100
0010
0001
,  // measure 85
1000
0010
0100
1000
0100
0010
1000
0001
,  // measure 86
0020
0000
0031
0100
1000
0001
0010
1000
,  // measure 87
0001
0000
0010
0000
0001
0100
0001
0000
0000
0000
1000
0100
1000
0000
0000
0000
,  // measure 88
0100
0010
0100
0000
0011
0000
0100
0000
,  // measure 89
1010
0100
0011
1010
,  // measure 90
0011
0000
0010
0001
0100
0001
1000
0100
,  // measure 91
1000
0010
1000
0010
0100
0001
0010
0001
,  // measure 92
1000
0010
0100
0001
0100
0010
0100
1000
,  // measure 93
0100
0001
0010
0001
0010
0100
0010
1000
,  // measure 94
0010
0001
1000
0100
1000
0001
1000
0010
,  // measure 95
0100
0000
0001
0000
0010
0001
1000
0000
0000
0000
0001
1000
0010
0000
0100
0000
,  // measure 96
0001
1000
0100
0010
0100
0110
0000
1100
,  // measure 97
0000
0011
0000
0010
0001
1000
0000
0001
,  // measure 98
0101
0000
0100
0010
0100
0110
0000
0101
,  // measure 99
0000
0000
0000
1010
0000
0000
0000
0000
0000
0010
0000
0000
1000
0000
0000
0001
0000
0000
0010
0000
0000
0000
0100
0000
,  // measure 100
0000
0000
0100
0000
0000
0000
1000
0000
0000
0010
0000
0000
0100
0000
0000
0110
0000
0000
0000
0000
0000
1010
0000
0000
,  // measure 101
0000
0011
0000
0010
0001
1000
0000
0100
,  // measure 102
1100
0000
1000
0001
0100
0010
0000
0010
,  // measure 103
1000
0000
0000
0001
0000
0000
0000
0000
0000
0001
0000
0000
0100
0000
0000
0010
0000
0000
1000
0000
0010
0000
1000
0000
,  // measure 104
0001
0000
0010
0000
0001
0000
1000
0000
0000
1000
0000
0000
0100
0000
0000
0110
0000
0000
0000
0000
0000
1001
0000
0000
,  // measure 105
0000
0011
0000
0001
0010
1000
0000
1000
,  // measure 106
0010
0000
0001
0001
0100
0110
0000
1001
,  // measure 107
0000
0000
0000
1010
0000
0000
0000
0000
0000
0010
0000
0000
0100
0000
0000
0001
0000
0000
0010
0000
0000
0000
0100
0000
,  // measure 108
0000
0000
0100
0000
0000
0000
0010
0000
0000
0001
0000
0000
0100
0000
0000
1000
0000
0000
1000
0000
0000
0100
0000
0000
,  // measure 109
0001
0010
0100
1000
0010
0001
0001
0010
,  // measure 110
1000
0100
0100
0010
0001
1000
1000
0001
,  // measure 111
0100
0010
0000
1010
1001
0101
1100
0110
,  // measure 112
0011
0010
0200
0000
0300
0000
0000
0000
;

//---------------dance-single - ----------------
#NOTES:
     dance-single:
     :
     Medium:
     14:
     0.612849,1.015068,0.155849,0.418331,0.090228,523.000000,504.000000,19.000000,51.000000,0.000000,0.000000,0.612849,1.015068,0.155849,0.418331,0.090228,523.000000,504.000000,19.000000,51.000000,0.000000,0.000000:
0000
0000
0000
0000
,
0000
0000
0000
0000
,
0000
0000
0000
0000
,
0000
0000
0000
0000
,
1001
0000
0000
0000
,
0000
0000
0000
0100
,
1001
0000
0000
0000
,
0000
1000
0000
0100
0000
0010
0000
0001
,
1000
0010
0100
0010
,
1000
0000
0010
0000
0100
0000
0010
1000
,
0001
0010
0100
0010
,
0001
0000
0010
0000
0100
0000
0010
0001
,
1000
0000
1000
0100
0000
1000
0001
0000
,
0100
0000
0000
0001
0000
0000
0000
0000
0000
0001
0000
0000
0100
0000
0000
0000
0010
0000
0000
0000
0100
0000
0000
0000
,
0002
0000
0000
0003
0000
0000
1000
0000
0100
0000
0010
0000
,
0001
0000
0010
0100
0000
0100
1000
0001
,
0200
0000
0300
0000
0200
0302
2003
3020
,
1030
0000
1000
0001
0000
0100
0000
1000
,
0000
0100
0000
0001
0000
0001
1000
0000
,
0001
0000
0001
0010
0000
1000
0000
0010
,
0000
0000
0000
0001
0000
0000
0000
0000
0000
1000
0000
0000
0010
0000
0000
0000
0010
0000
0000
0000
0100
0000
0000
0000
,
0001
0000
0001
1000
0000
0100
0000
0001
,
0000
0100
0000
1000
0000
1000
0001
0000
,
1000
0000
1000
0010
0000
0001
0000
0010
,
1000
0000
0100
1000
0000
0001
0100
0000
,
0002
0203
0320
0230
,
0302
0023
0230
2300
,
3100
0010
0000
0100
0000
1000
0000
0001
,
0000
0100
0000
0010
0000
0100
0000
0001
,
0000
0010
0001
0010
0000
0001
0100
0001
,
0000
1000
0100
1000
0000
0010
1000
0010
,
0100
0001
1000
0100
,
0010
0000
0100
0100
0000
0010
0010
0000
,
0100
0000
1000
0100
0000
0010
0000
0100
,
0000
1000
0000
0100
0000
0010
0001
0000
,
0100
0000
0001
0100
0000
0010
0000
0100
,
0000
0000
0000
0001
0000
0000
0100
0000
0000
0000
0000
0000
0010
0000
0000
0000
0100
0000
0000
0000
0010
0000
0000
0000
,
1000
0000
0001
0010
0000
0100
0000
0010
,
0000
0001
0000
0010
0000
0100
1000
0000
,
0001
0000
1000
0010
0000
0100
0000
0010
,
0000
1000
0000
0001
0010
0000
0110
0000
,
0100
0000
1000
0010
0000
0001
0000
0010
,
0000
1000
0000
0001
0000
0010
0001
0000
,
0100
0000
0001
0010
0000
1000
0000
0010
,
0000
0000
0000
0010
0000
0000
0001
0000
0000
0000
0000
0000
0010
0000
0000
0000
0100
0000
0000
0000
0010
0000
0000
0000
,
0001
0000
0001
0010
0010
0000
0010
0100
,
0100
0000
0100
1000
1000
0000
1000
0010
,
0000
0100
0100
0100
0100
0001
1000
0000
,
0100
0010
0100
1000
,
0100
0010
0001
1000
,
0100
0010
0001
1000
,
0010
0100
0001
0002
,
0203
0320
0230
0302
,
0203
0320
2030
3002
,
0023
0230
0320
0230
,
2300
3002
0203
0301
,
0001
0000
1000
0100
1000
0000
0010
0000
,
0010
0100
0000
0100
0001
0000
1000
0000
,
1000
0000
0001
0100
0001
0000
0010
0000
,
0010
0100
0000
0100
1000
0001
0100
0000
,
0000
0000
0000
0100
0000
0000
0001
0000
0000
0000
0100
0000
0000
0000
0010
0000
0000
0000
1000
0000
0000
0000
0100
0000
,
0000
0010
0000
0001
0000
0010
0000
0100
0000
1000
0000
0000
,
1000
0001
0000
0100
0000
0020
0000
0000
,
0030
0100
0001
1000
,
0001
0000
0100
0000
0010
0000
1000
0001
,
1000
0100
1000
0001
,
1000
0000
0100
0000
0010
0000
0001
1000
,
0001
0100
0010
1000
,
0010
0000
0100
0000
0001
0000
1000
0100
,
1000
0100
0010
0001
,
0010
0000
0100
0000
1000
0000
0001
0100
,
0001
0100
0020
0000
0000
0000
0000
0000
,
0030
0020
2030
3002
,
0023
0230
0000
0000
,
0000
0000
0310
0000
0010
0000
0010
0100
,
0010
0100
1000
0000
1000
0100
0000
1000
,
0001
0000
0001
0100
0000
0100
0010
0000
,
0110
0000
0000
0000
0000
0000
0100
0000
0000
0000
0000
0000
0100
0000
0000
0001
0000
0000
0010
0000
0000
0000
0100
0000
,
0000
0000
1000
0000
0000
0000
0001
0000
0000
0000
0000
0000
1001
0000
0000
0000
0000
0000
0001
0000
0000
0010
0000
0000
,
1000
0010
0200
0000
0300
0000
0200
2300
,
3002
0023
0031
0000
0001
1000
0000
0100
,
0000
0001
0000
0100
0000
1000
0000
1000
,
0001
0000
1000
0000
1000
0010
0000
0001
,
0000
0010
0000
1000
0000
0001
0000
0010
,
0100
0010
0001
0000
1000
0001
0000
0100
,
0000
1000
0000
0100
0000
0001
0000
0001
,
1000
0000
0001
0000
0001
0010
0000
1000
,
0000
0010
0001
0000
0100
0001
0000
1000
,
0100
2000
3200
0320
,
0032
0203
0320
2030
,
3002
0000
0103
0010
0000
0100
0000
0001
,
0000
1000
0000
0100
0000
0010
0000
0100
,
0000
1000
0000
1010
0000
0110
0000
0101
,
0000
1001
0000
1100
0000
0110
0000
0011
,
0000
1001
0000
1000
0001
0010
0100
0000
,
0010
0000
0100
0000
1000
0001
0000
0001
,
0100
0010
0100
0000
0001
0100
0000
0010
,
0000
0100
0000
0001
0000
0100
0000
0010
,
1000
0000
0100
0000
1000
0100
0000
0010
,
0000
0000
0000
0100
0000
0000
0000
0000
0000
1000
0000
0000
0100
0000
0000
0000
0000
0000
0010
0000
0000
0000
0100
0000
,
0000
0000
0010
0000
0000
0000
0001
0000
0000
0000
0000
0000
1000
0000
0000
0010
0000
0000
0000
0000
0000
0100
0000
0000
,
0000
0010
0000
1000
0000
0010
0000
0100
,
0001
0000
1000
0000
0001
0010
0000
0100
,
0000
0010
0000
0001
0000
1000
0010
0100
,
0010
0000
0100
0000
0001
0010
0000
1000
,
0000
0010
0000
0001
0000
1000
0000
0010
,
1000
0000
0100
0000
1000
0010
0000
0001
,
0000
0000
0000
0010
0000
0000
0000
0000
0000
0010
0000
0000
1000
0000
0000
0000
0000
0000
0010
0000
0000
0000
0100
0000
,
0000
0000
0010
0000
0000
0000
1000
0000
0000
0000
0000
0000
1000
0000
0000
0010
0000
0000
0010
0000
0000
0000
0000
0000
,
0010
0100
0100
0000
0100
0001
0001
0000
,
0001
0010
0010
0001
1000
0010
0010
1000
,
0100
1000
0000
0101
1001
1100
1001
0101
,
1001
1000
0200
0000
0300
0000
0000
0000
;

//---------------dance-single - ----------------
#NOTES:
     dance-single:
     :
     Easy:
     9:
     0.426534,0.553674,0.090228,0.385521,0.000000,364.000000,353.000000,11.000000,47.000000,0.000000,0.000000,0.426534,0.553674,0.090228,0.385521,0.000000,364.000000,353.000000,11.000000,47.000000,0.000000,0.000000:
0000
0000
0000
0000
,
0000
0000
0000
0000
,
0000
0000
0000
0000
,
0000
0000
0000
0000
,
1001
0000
0000
0000
,
0000
0000
0000
0000
,
1001
0000
0000
0000
,
0000
1000
0000
0001
0000
1000
0000
0001
,
0100
0000
0001
0000
,
0100
0000
0001
0000
,
1000
0000
0100
0000
,
1000
0000
0100
0000
,
0010
0000
0000
0001
0000
0000
1000
0000
,
0000
0010
0000
0000
0200
0000
0000
0000
,
0310
0000
0110
0000
,
1001
0000
2000
3200
,
0302
0000
0003
0000
0001
0100
2000
3000
,
1000
0100
1000
0001
,
1000
0100
1000
0001
,
0010
0001
1000
0001
,
0010
0001
2000
3000
,
0001
0100
0001
1000
,
0001
0100
0001
1000
,
0010
1000
0001
1000
,
0010
0010
0020
0030
,
1000
0100
0010
0001
,
0010
0100
1000
0100
,
0010
0010
0001
0001
,
1000
1000
0010
0010
,
1000
0010
0100
0001
,
0100
0010
1000
0010
,
0100
0001
1000
0100
,
0010
0000
0000
0010
0000
0000
0110
0000
,
0100
0000
0100
0000
0000
1000
0000
1000
,
0000
0001
0001
0100
,
0010
0000
0010
0000
0000
1000
0000
1000
,
0000
0001
0020
0030
,
0001
0000
0001
0000
0000
0100
0000
0100
,
0000
0010
0100
0010
,
1000
0000
1000
0000
0000
0100
0000
0100
,
0000
0010
0100
0100
,
1000
0000
0010
0000
0000
0100
0000
0010
,
0000
0010
1000
1000
,
0001
0000
0010
0000
0000
0100
0000
0010
,
0000
0100
0200
0300
,
2000
0000
0000
3100
0200
0000
0000
0310
,
0020
0000
0000
0031
0002
0000
0000
1003
,
0000
0001
0001
0001
0001
1000
0100
0000
,
1000
0010
0100
0001
,
0010
0100
1000
0010
,
1000
0001
0010
0001
,
1000
0010
0100
0010
,
1000
0100
0010
0001
,
0100
0010
1000
0100
,
0010
0001
0100
1000
,
0100
0001
1000
0100
,
0010
0001
0001
1000
,
0010
0010
0100
0001
,
0001
1000
0100
0100
,
0010
0001
1000
0010
,
0000
0101
0000
1100
,
0000
1001
0000
0100
,
0000
0100
0000
0100
0000
0020
0000
0000
,
0030
2000
0000
3200
,
0000
0302
0000
0203
,
0000
2300
0000
3020
,
0000
0032
0000
0023
,
0000
2030
0000
3200
,
0000
0320
0000
0032
,
0000
0203
0000
0320
,
0000
2030
0000
3002
,
0000
0023
0000
0000
,
0000
0000
0000
0000
,
0000
0030
0000
0000
,
0000
0000
0000
0000
,
0000
0000
0001
0000
0000
0101
0000
0000
,
1000
0000
0000
1100
0000
0000
0100
0000
,
0010
0100
1000
0002
,
0003
1000
1000
0002
,
0203
0000
2300
0000
3000
0000
1000
0100
,
0002
0003
1000
0000
0010
0000
1000
0000
,
0001
1000
0100
1000
,
0001
0100
0001
1000
,
0001
0010
0001
2000
,
3000
0001
0100
0010
,
1000
0001
0100
0001
,
1000
0100
1000
0001
,
0010
0100
0100
0200
,
0300
1000
0001
0010
,
0100
0010
0001
1000
,
0100
0010
0010
0001
,
0001
1000
1000
0010
,
0010
1000
0001
0100
,
0010
0100
0001
1000
,
0010
0100
0001
1000
,
0100
0000
0010
0000
0000
0100
0000
0000
,
1001
0000
0001
0000
0001
0000
0000
1000
,
0000
1000
0000
0000
0010
0000
0010
0000
,
0100
0000
0001
0000
0001
0000
0000
1000
,
0000
1000
0000
0000
0100
0000
0020
0000
,
0030
0000
0100
0000
0100
0000
0000
1000
,
0000
1000
0000
0000
0010
0000
0100
0000
,
0001
0000
0100
0000
0100
0000
0000
0010
,
0000
0010
0000
0000
1000
0000
0001
0000
,
0100
0000
0001
0000
0010
0000
0000
0100
,
0000
0010
0000
0000
0010
0000
0100
0000
,
1000
0000
1000
0000
0010
0000
0000
0100
,
0000
0010
0000
0000
0100
0000
0002
0000
,
0003
0000
2000
0000
0000
3010
0020
0000
,
0000
0130
0200
0000
0000
0301
0002
0000
,
0000
0013
0020
0000
0000
0130
0200
0000
,
0000
1300
0000
0001
0001
1000
1000
0001
,
0001
1000
0200
0000
0300
0000
0000
0000
;

//---------------dance-single - ----------------
#NOTES:
     dance-single:
     :
     Beginner:
     5:
     0.242562,0.460369,0.098431,0.090228,0.000000,207.000000,195.000000,12.000000,11.000000,0.000000,0.000000,0.242562,0.460369,0.098431,0.090228,0.000000,207.000000,195.000000,12.000000,11.000000,0.000000,0.000000:
0000
0000
0000
0000
,
0000
0000
0000
0000
,
0000
0000
0000
0000
,
0000
0000
0000
0000
,
1001
0000
0000
0000
,
0000
0000
0000
0000
,
1001
0000
0000
0000
,
0000
0000
0000
0000
,
1000
0000
0000
0000
,
1000
0000
1000
0000
,
0001
0000
0000
0000
,
0001
0000
0001
0000
,
1000
0000
0000
1000
0000
0000
0001
0000
,
0000
0001
0000
0000
1001
0000
0000
0000
,
0001
0000
0100
0000
,
0010
0000
1000
0000
,
0002
0000
0000
0000
0000
0000
0000
0003
,
1000
0000
0100
0000
,
1000
0000
0100
0000
,
1000
0000
0001
0000
,
1000
0000
0001
0000
,
0100
0000
0001
0000
,
0100
0000
0001
0000
,
1000
0000
0001
0000
,
1000
0000
0001
0000
,
1000
0000
0010
0000
,
1000
0000
0010
0000
,
1000
0000
0001
0000
,
1000
0000
0001
0000
,
0010
0000
0001
0000
,
0010
0000
0001
0000
,
0010
0000
0000
0000
,
0100
0000
0000
0000
,
1000
0000
0000
0000
0000
0000
0000
1000
,
0000
0000
0001
0000
,
0100
0000
0000
0000
0000
0000
0000
0100
,
0000
0000
0001
0000
,
0010
0000
0000
0000
0000
0000
0000
0010
,
0000
0000
0001
0000
,
1000
0000
0000
0000
0000
0000
0000
1000
,
0000
0000
0001
1000
,
0001
0000
0000
0000
0000
0000
0000
0001
,
0000
0000
1000
0000
,
0100
0000
0000
0000
0000
0000
0000
0100
,
0000
0000
1000
0000
,
0001
0000
0001
0000
,
0001
0000
0001
0000
,
0000
1000
1000
1000
1000
0000
0001
0000
,
0000
0001
0000
0100
,
0000
0100
0000
0010
,
0000
0010
0000
1000
,
0000
1000
0000
0100
,
0000
0100
0000
0010
,
0000
0010
0000
0001
,
0000
0001
0000
1000
,
0000
1000
0000
0002
,
0003
0200
0300
0020
,
0030
2000
3000
0200
,
0300
0020
0030
0002
,
0003
0200
0300
0010
,
0000
0000
0000
0010
,
0000
0010
0000
1001
,
0000
1000
0000
0001
0000
1000
0000
0000
,
0000
0001
0000
0100
,
0000
0001
0000
0100
,
0000
1000
0000
0100
,
0000
1000
0000
0100
,
0000
0001
0000
0010
,
0000
0001
0000
0010
,
0000
1000
0000
0010
,
0000
1000
0000
0010
,
0000
0002
0000
0000
,
0000
0003
0000
0000
,
0000
0000
0000
0000
,
0000
0000
0000
0000
,
0000
1001
0000
0000
,
0110
0000
0000
1001
,
0000
1100
0000
0101
,
0000
0011
0000
1010
,
0000
0002
0000
0000
,
0000
0003
1000
0000
0000
0000
0010
0000
,
0000
1000
0000
0010
,
0000
1000
0000
0001
,
0000
1000
0000
0001
,
0000
0010
0000
0001
,
0000
0010
0000
0001
,
0000
1000
0000
0001
,
0000
1000
0000
0001
,
0000
1000
0000
0100
,
0000
1000
0000
0100
,
0000
1000
0000
0001
,
0000
1000
0000
0001
,
0000
0100
0000
0001
,
0000
0100
0000
0001
,
0000
1000
0000
0001
,
0000
1001
0000
0000
,
0000
1000
0000
0000
,
0000
1000
0000
0000
0000
0000
0001
0000
,
0000
0100
0000
0000
,
0000
0100
0000
0000
0000
0000
0001
0000
,
0000
0010
0000
0000
,
0000
0010
0000
0000
0000
0000
0001
0000
,
0000
1000
0000
0000
,
0000
1000
0000
0000
0000
0000
0001
0000
,
1000
0001
0000
0000
,
0000
0001
0000
0000
0000
0000
1000
0000
,
0000
0010
0000
0000
,
0000
0010
0000
0000
0000
0000
1000
0000
,
0000
0001
0000
1000
,
0000
0001
0000
1000
,
0000
0001
0000
1000
,
0000
0000
0000
0001
0001
0001
0001
0001
,
0001
1000
0100
0000
0000
0000
0000
0000
;
