#TITLE:Burning Inside;
#SUBTITLE:;
#ARTIST:Nhato;
#TITLETRANSLIT:;
#SUBTITLETRANSLIT:;
#ARTISTTRANSLIT:;
#GENRE:;
#CREDIT:;
#MUSIC:Nhato - Burning Inside.mp3;
#BANNER:;
#BACKGROUND:;
#CDTITLE:;
#SAMPLESTART:0.000;
#SAMPLELENGTH:0.000;
#SELECTABLE:YES;
#OFFSET:-0.055;
#BPMS:0.000=143.000;
#STOPS:;
#BGCHANGES:;
#FGCHANGES:;

//--------------- dance-single - ----------------
#NOTES:
     dance-single:
     :
     Easy:
     5:
     0,0,0,0,0:
0000
0000
0000
0000
,
0000
0000
0000
0000
,
0000
0000
0000
0000
,
0000
0000
0000
0000
,
0000
0000
0000
0000
,
2000
0000
3001
0000
,
0020
0000
0130
0000
,
2000
0000
3010
0000
,
0200
0000
0001
0301
,
2000
3000
0002
0003
,
0020
0030
0100
1000
,
0200
0300
0020
0030
,
0200
0300
1000
0001
,
0200
0300
0020
0030
,
2000
3000
0001
0010
,
0200
0300
0020
0030
,
0002
0000
1003
1001
,
0002
0013
0002
0103
,
0020
1030
0001
0100
,
2000
3100
0020
1030
,
0002
0013
0001
0010
,
2000
3010
0200
1300
,
0020
0130
0001
0100
,
2000
3100
0020
1030
,
0001
0001
1000
1000
,
0020
0100
0130
0002
,
1000
1003
0002
0023
,
0230
1000
1300
0002
,
0100
0103
0020
2030
,
3002
0010
0013
0200
,
1000
1300
0002
0203
,
0320
1000
0230
0302
,
0010
2003
3200
2300
,
3020
0000
0230
0000
,
0302
0000
0023
0100
,
0230
0000
0320
0000
,
0032
0000
2003
0010
,
3020
0000
0130
0100
,
0001
0000
1000
0100
,
0010
0000
0100
1000
,
0001
0000
1000
1000
,
0020
0000
0230
0000
,
0000
0000
0302
0003
,
2002
0000
3003
0000
2000
0000
0000
0010
,
0000
3020
0000
0000
0100
0000
0100
0000
,
2030
0100
0001
0010
,
3001
0001
1000
1000
,
0001
0100
1000
0100
,
0002
0000
2000
3003
,
0002
0100
1003
0100
,
0010
0100
1000
0001
,
0200
0010
0301
1000
,
0100
1000
0010
0010
,
2001
0100
3001
0100
,
0010
0100
0001
0020
,
0100
0031
1000
0010
,
0100
0010
2000
0010
,
3002
0100
0103
0010
,
1000
0001
0010
0001
,
0200
0010
0301
1000
,
0100
0010
0200
0010
,
2300
0010
3001
0100
,
0010
1000
0001
0020
,
0001
0130
1000
0001
,
0100
0010
2000
3001
,
0002
0103
2000
3100
,
0002
0103
2000
3100
,
0002
0023
2030
3020
,
0230
2300
3020
0230
,
0302
0003
0000
0000
;

//--------------- dance-single - ----------------
#NOTES:
     dance-single:
     :
     Medium:
     12:
     0,0,0,0,0:
0000
0000
0000
0000
,
0000
0000
0000
0000
,
0000
0000
0000
0000
,
0000
0000
0000
0000
,
0000
0000
0000
0000
,
1000
0020
0000
0000
0200
0000
0330
0000
,
0001
0020
0000
0000
0200
0000
0330
0000
,
1000
0200
0000
0000
0020
0000
0330
0000
,
0002
0000
0000
0000
,
1003
0000
0000
0001
0000
0010
0100
0000
1000
0000
0000
0010
0000
0100
0001
0000
,
1000
0000
0000
0001
0000
1000
0100
0000
0010
0000
0001
0000
0100
0000
1000
0000
,
0100
0000
0000
0010
0000
1000
0001
0000
0020
0000
0000
0130
0000
0010
0001
0000
,
2000
0000
0000
3010
0000
0100
0001
0000
2000
0000
0000
3001
0010
0000
0010
0000
,
0200
0000
0000
0310
0000
0001
1000
0000
0020
0000
0000
0130
0000
0001
0010
0000
,
0200
0000
0000
1300
0000
0001
0100
0000
0010
0000
1000
0000
0100
0000
0001
0000
,
0200
0000
0000
0310
0000
0001
0010
0000
0200
0000
0000
1300
0000
0010
1000
0000
,
0001
0000
0000
1000
0000
0000
0010
0000
0000
0000
0100
0000
0001
1000
0001
0000
,
0020
0000
0130
0000
1000
0010
0100
0000
,
0010
1000
0001
0000
1000
0100
0001
0100
,
1000
0000
0000
0100
0010
0000
0001
0000
1000
0000
0000
0010
0100
0000
0001
0000
,
1000
0000
0000
0001
0010
0000
0100
0000
1000
0000
0010
0000
0001
0000
0010
0000
,
1000
0000
0000
0001
0010
0000
0001
0000
1000
0000
0000
0100
0010
0000
0100
0000
,
1000
0000
0000
0010
0100
0000
0001
0000
1000
0000
0100
0000
0001
0000
0100
0000
,
1000
0000
0000
0001
0100
0000
0001
0000
0010
0000
0000
0100
1000
0000
0010
0000
,
0200
0000
0000
0000
0302
0000
0000
0000
1003
0000
0000
1000
0000
0000
1000
0000
,
0001
0010
0100
1000
0020
0000
0130
0001
,
0001
1000
0200
0000
1300
0100
0100
0001
,
0100
0010
0001
1000
0020
0000
0130
0001
,
0001
1000
0200
0000
1300
0010
0001
0010
,
1000
0100
0010
0001
0200
0000
0310
1000
,
1000
0001
0020
0000
0031
0100
0100
1000
,
0100
0001
1000
0100
0020
0000
0130
1000
,
2000
0000
0000
3001
0100
0000
0010
0000
0200
0000
0010
0000
0302
0000
0000
0000
,
1003
0100
1000
0100
0020
0000
0031
1000
,
1000
0010
0200
0000
0310
0100
0100
0001
,
0010
0100
0010
0100
2000
0000
3010
0100
,
0100
0001
0020
0000
0031
1000
0010
0010
,
0010
0000
0000
0000
1000
0010
0100
0002
,
0000
1003
0000
0000
1000
0100
0100
0010
,
0000
0001
1000
0000
0010
0100
0010
2000
,
0000
3001
0000
1000
0010
0010
0200
0000
,
0301
0000
0000
0000
1000
0001
1000
0002
,
0000
0013
0000
0000
0100
1000
0100
1000
,
0020
0000
0030
0000
2000
3020
0032
0023
,
0030
0200
0000
0301
0010
0100
0100
1000
,
0002
1000
1000
1000
,
1003
0001
0100
0000
0001
0010
0100
0000
,
0010
0001
1000
0010
0100
0001
1000
0100
,
0010
0100
0000
2000
0002
3003
0010
0010
,
2001
0000
3010
0000
0100
0001
0100
0002
,
0000
2000
0000
3003
1000
0010
0010
0100
,
0002
0000
0010
0000
1003
0010
1000
0020
,
0000
0200
0330
0010
1000
0001
0001
0010
,
0200
0000
1000
0000
0310
0001
1000
0002
,
0000
0200
0303
0000
0001
0010
0010
0001
,
0100
0010
2000
0000
3001
1000
0100
0020
,
0000
0200
0330
0010
0001
0100
1000
0100
,
0020
0000
0100
0000
1030
0100
0010
0002
,
0000
0020
0033
0000
0001
0010
0010
0100
,
2000
0000
0010
0000
3001
0100
0010
2000
,
0000
0200
3300
1000
0001
0100
0100
0010
,
2000
0000
0010
0000
3001
1000
0100
0020
,
0000
0200
0330
0000
1000
0001
0001
0100
,
0010
1000
0200
0000
0310
0100
1000
0002
,
0000
2000
3003
0001
1000
1000
0010
0100
,
0001
0001
0001
0010
0100
0100
0100
1000
,
0010
0010
0010
0100
0001
0001
0001
1000
,
0100
0100
0010
0010
0100
0100
1000
1000
,
0001
0010
1000
0010
0001
0100
1000
0100
,
0002
0003
0000
0000
;

//--------------- dance-single - ----------------
#NOTES:
     dance-single:
     :
     Hard:
     15:
     0,0,0,0,0:
0000
0000
0000
0000
,
0000
0000
0000
0000
,
0000
0000
0000
0000
,
0000
0000
0000
0000
,
0000
0000
0000
0000
,
1001
0002
0000
0000
0200
0000
0303
0000
,
1001
2000
0000
0000
0200
0000
3300
0000
,
1001
0020
0000
0000
0200
0000
0330
0000
,
1001
0000
0000
0000
1000
0000
0000
0000
0001
0100
0001
0100
0001
0000
0000
0000
,
1000
0000
0000
0001
0010
0000
0100
0000
0010
0000
0000
0001
0100
0000
0010
0000
,
1000
0000
0000
0001
0010
0000
0100
0000
0010
0000
0001
0000
0001
0000
0001
0000
,
1010
0000
0000
0001
1000
0010
0100
0000
0011
0000
0000
1000
0010
0100
0001
0000
,
1010
0000
0000
0001
0010
0100
1000
0000
0001
0000
1000
0100
1000
0000
0001
0000
,
1010
0000
0000
0010
0100
0001
1000
0000
0011
0000
0000
0010
0100
1000
0001
0000
,
1100
0000
0000
0100
1000
0010
0100
0000
0001
0000
0100
0000
1000
0000
0100
0000
,
1001
0000
0000
1000
0010
1000
0001
0000
0011
0000
0000
0001
1000
0001
0100
0000
,
0010
0000
1000
0100
0000
0010
0001
0000
1000
0000
0010
0100
0010
0100
0001
0000
,
0010
0000
0100
1000
0000
0001
0100
0000
0010
0000
0100
0001
0000
1000
0100
0000
,
0010
0000
0001
1000
0000
0010
0100
0000
0001
0000
0010
0000
1000
0000
0010
0000
,
0001
0000
1000
0100
0000
0010
0100
0000
1000
0000
0001
0100
0000
0010
0100
0000
,
0001
0000
1000
0010
0000
0100
0001
0000
1000
0000
0100
0001
0100
0000
1000
0000
,
1001
0000
0001
0100
0000
0001
0010
0000
0100
0000
1000
0010
0000
1000
0100
0000
,
0010
0000
0001
0100
0000
0010
1000
0000
0001
0000
0100
0000
1000
0000
0100
0000
,
0001
0000
1000
0100
0000
0010
0001
0000
1000
0000
0010
0100
0000
0001
1000
0000
,
0001
1000
0001
0000
0100
0001
0100
0000
0010
1000
0010
1000
0001
0010
0001
0010
,
0100
0000
0100
0000
1000
0000
0010
0000
0002
0000
0000
0000
0013
0000
1000
0001
,
1000
0000
0100
0000
0002
0000
0000
0000
0103
0000
0010
0001
0010
0000
0001
0000
,
1000
0000
1000
0000
0010
0000
0100
0000
2000
0000
0000
0000
3100
0000
0001
0010
,
0100
0010
2000
0000
3010
0001
0010
0100
,
1000
0000
0001
0000
0100
0000
0010
0000
0002
0000
0000
0000
0013
0000
1000
0001
,
1000
0000
0100
0000
0002
0000
0000
0000
0103
0000
0010
0001
1000
0000
0010
0000
,
1000
0000
0100
0000
0001
0000
1000
0000
0020
0000
0000
0000
0130
0000
1000
0001
,
0200
0000
0000
0310
1000
0000
0001
0000
0010
0100
1000
0000
1001
0000
0000
0001
,
0100
0000
0100
0000
0001
0000
0010
0000
1000
0000
0010
0000
0001
0000
1000
0010
,
1000
0000
0010
0000
0001
0000
0010
0000
0100
0000
0001
1000
0001
0000
1000
0000
,
0010
0000
0010
0000
1000
0000
0100
0000
0001
0000
0100
0000
0010
0000
0001
1000
,
0001
0000
0100
0000
1000
0000
0100
0000
0010
0000
1000
0001
1000
0001
1000
0001
,
1000
0000
0010
0000
0100
0001
1000
0100
,
0000
0000
0010
0000
0000
0000
0000
0000
0100
0000
1000
0001
1000
0000
0010
0000
,
0000
0100
0001
0000
1000
0000
0000
0000
0001
0000
0100
0000
0010
0000
1000
0000
,
0000
0000
0001
0000
0000
0000
1000
0000
0100
0010
0100
1000
0001
0000
1000
0000
,
1001
0000
0000
0000
1000
0010
0100
0001
,
0000
1000
0000
0000
0001
0010
0100
1000
,
0002
0000
0000
0000
2003
3200
0302
0203
,
0000
0000
2300
0000
0000
0000
3002
0000
0203
0000
0320
2030
3020
0030
2000
3000
,
1001
0001
0100
0010
,
1000
0100
0010
0010
0100
1000
0001
0001
,
1000
0010
0100
0001
1000
0100
0010
0001
1000
0010
0100
0001
1000
0100
0010
0001
,
1000
0000
0200
0000
0300
0000
2000
3020
2030
3000
0000
0000
0010
0000
0010
0000
,
1002
0000
0023
0000
0130
1000
0001
0200
,
0000
0000
0320
0000
0000
0000
0030
0000
1000
0000
0001
0010
0100
0000
0010
0000
,
0002
0000
0000
0000
1003
0010
1000
0002
,
0000
0000
0023
0000
0000
0000
0130
0000
1000
0000
0001
1000
0010
0000
0100
0000
,
0020
0000
1000
0000
1030
0100
0001
0200
,
0000
0000
2300
0000
0000
0000
3000
0000
0001
0000
1000
0100
0010
0000
0100
0000
,
1000
0010
0100
0000
0020
0000
0000
0000
0130
0000
0001
0000
1000
0000
0200
0000
,
0000
0000
0320
0000
0000
0000
0130
0000
1000
0001
0100
0010
1000
0000
0001
0000
,
0021
0000
0100
0000
0031
0100
1000
0100
,
0001
0000
1000
0000
0100
0000
0000
0000
0010
0000
0100
1000
0001
0000
0100
0000
,
0120
0000
1000
0000
0130
0001
0010
1000
,
0010
0000
0001
0000
1000
0000
0010
0000
0100
0000
0010
1000
0001
0000
1000
0000
,
1200
0000
0010
0000
1300
0010
0001
0010
,
1000
0000
0001
0000
0010
0000
0000
0000
0100
0000
1000
0001
0100
0000
0010
0000
,
0100
0001
1000
0000
0200
0000
0000
0000
0310
0000
0001
0000
1000
0000
0010
0000
,
0100
0000
0010
0000
1000
0000
0100
0000
1000
0001
0010
0100
1000
0000
0001
0000
,
1000
0010
1000
0010
0100
0000
1000
0000
0100
0001
0100
0001
0010
0000
1000
0000
,
0010
0001
1000
0001
0100
0000
1000
0000
0100
0010
1000
0001
0010
0000
1000
0000
,
0010
0001
0010
0001
1000
0010
1000
0010
0100
0001
0100
0001
1000
0100
1000
0100
,
1000
0010
0100
0001
1000
0010
0100
0001
1000
0100
0010
0001
1000
0100
0010
0001
,
2000
3000
0000
0000
;
