#VERSION:0.83;
#TITLE:Boys O'Clock;
#SUBTITLE:;
#ARTIST:technoplanet;
#TITLETRANSLIT:;
#SUBTITLETRANSLIT:;
#ARTISTTRANSLIT:;
#GENRE:;
#CREDIT:;
#MUSIC:Boys O'Clock.ogg;
#BANNER:Boys O'Clock-bn.png;
#BACKGROUND:Boys O'Clock-bg.png;
#CDTITLE:;
#SAMPLESTART:85.425;
#SAMPLELENGTH:15.000;
#SELECTABLE:YES;
#OFFSET:1.140;
#BPMS:0.000=131.000;
#STOPS:;
#TIMESIGNATURES:0.000=3=4;
#LASTSECONDHINT:127.577;
#BGCHANGES:1.410=Boys O'Clock.avi=1.000=0=0=0=StretchNoLoop====,
99999.000=-nosongbg-=1.000=0=0=0=StretchNoLoop====
;
#FGCHANGES:;

//--------------- dance-single - ----------------
#NOTEDATA:;
#STEPSTYPE:dance-single;
#DESCRIPTION:;
#DIFFICULTY:Beginner;
#METER:3;
#RADARVALUES:0,0,0,0,0;
#CREDIT:Talkion;
#NOTES:
0000
0000
0000
0000
,
0000
0000
0000
0000
,
0000
0000
0000
0000
,
0000
0000
0000
1000
,
0000
0000
0001
0000
,
0000
1000
0000
0000
,
1000
0000
0000
0001
,
0000
0000
1000
0000
,
0000
0001
0000
0000
,
0002
0000
0000
0003
0000
0000
1000
0000
,
0000
0000
0010
0000
,
0000
0100
0000
0000
,
0100
0000
0000
0001
,
0000
0000
0010
0000
,
0000
0100
0000
0000
,
0100
0000
0000
1000
,
0000
0000
1000
0000
,
0000
0001
0000
0000
,
0001
0000
0000
0100
,
0000
0000
0010
0000
,
0000
2000
0000
0000
,
3000
0000
0000
0001
,
0000
0001
0000
0000
0001
0000
0000
0000
,
0000
0010
0000
0000
,
0100
0000
0000
1000
,
0000
1000
0000
0000
1000
0000
0000
1000
,
0000
0000
0000
0000
,
1001
0000
0000
0001
,
0000
0000
0100
0000
,
0000
0010
0000
0000
,
1000
0000
0000
1000
0000
0000
0001
0000
,
0000
0000
0010
0000
,
0000
0000
0100
0000
0000
0100
0000
0000
,
0100
0000
0000
0100
0000
0000
2000
0000
,
0000
0000
0000
0000
,
3000
0002
0000
0000
,
0000
0000
0003
1000
,
0000
1000
0000
0000
1000
0000
1000
0000
,
1000
1000
1000
1000
,
2000
0000
0000
3000
,
0000
0000
0001
0000
,
0000
0001
0000
0000
,
1000
0000
0000
1000
,
0000
0000
0010
0000
,
0000
0100
0000
0000
,
0002
0000
0000
0000
,
0000
0000
0003
0000
,
0000
0000
1000
0000
0000
1000
0000
0000
,
1000
0000
0000
0100
,
0000
0000
0010
0000
,
0000
0000
0001
0000
0000
0001
0000
0000
,
0001
0000
0000
0001
0000
0000
0000
0000
,
0000
0000
1001
0000
,
0000
0000
1000
0000
0000
1000
0000
0000
,
0010
0000
0000
0010
0000
0000
0100
0000
,
0000
0100
0000
0000
0001
0000
0000
0001
,
0000
0000
1000
0000
0000
1000
0000
0000
,
1000
0000
0000
1000
0000
0000
0000
0000
,
0000
0000
1001
0000
,
0000
0001
0000
0000
,
0010
0000
0000
0100
,
0000
0000
0000
0000
1000
0000
0000
1000
,
0000
0001
0000
0000
,
0100
0000
0000
0010
,
0000
0010
0000
0000
0010
0000
0000
0010
,
0000
0000
0100
0000
0000
0100
0000
0000
,
0100
0000
0000
0100
0000
0000
0000
0000
,
0000
0220
0000
0000
0000
0000
0000
0000
,
0000
0000
0000
0000
0000
0330
0000
0000
,
0001
0000
0000
1000
0000
0000
0000
0000
;

//--------------- dance-single - ----------------
#NOTEDATA:;
#STEPSTYPE:dance-single;
#DESCRIPTION:;
#DIFFICULTY:Easy;
#METER:7;
#RADARVALUES:0,0,0,0,0;
#CREDIT:Talkion;
#NOTES:
0000
0000
0000
0000
,
0000
0000
0000
0000
,
0000
0000
0000
0000
,
0000
0000
0000
2000
,
0000
3000
0000
0000
0200
0000
0000
0300
,
0000
0000
0020
0000
0000
0030
0000
0000
,
0001
0000
0000
0001
0000
0000
2000
0000
,
0000
3000
0000
0000
0020
0000
0000
0030
,
0000
0100
0001
0100
,
0020
0000
0000
0030
0000
0000
2000
0000
,
0000
3001
0000
0000
2000
0000
0000
3100
,
0000
0000
2000
0000
0000
3001
0000
0000
,
0100
0000
0000
0100
0000
0000
0002
0000
,
0000
1003
0000
0000
0002
0000
0000
0013
,
0000
0001
1000
0001
,
0100
0010
0100
0001
,
0000
0001
0000
0000
2000
0000
0000
3000
,
0000
0000
0100
0000
0000
0100
0000
0000
,
0010
0000
0000
0010
0000
0000
0001
0000
,
0000
0001
0000
0000
1000
0000
0000
1000
,
0000
0000
0020
0000
0000
0230
0000
0000
,
0302
0000
0000
0000
0000
0003
1000
0000
,
1000
0100
0000
0100
0001
0000
0001
0100
,
0000
0100
2000
0000
0000
3002
0000
0000
,
0103
0000
0000
0100
0000
0000
0101
0000
,
0000
0101
0000
0000
1010
0000
0000
2020
,
0000
0000
3030
0000
0000
1001
0000
0000
,
0001
0000
0000
0001
0000
0000
0010
0000
,
0010
0100
0000
0000
0010
0000
0010
0001
,
0000
0000
1000
0000
0000
1000
0000
0000
,
0010
0000
0000
0010
0000
0000
0100
0000
,
0100
0001
0000
0000
0100
0000
0100
0010
,
0000
0000
1000
0000
0000
0001
0000
0000
,
0010
0000
0000
0100
0000
0000
1100
0000
,
0000
0000
0000
0000
,
0000
0011
0000
0000
,
0000
0000
0000
0001
,
0000
1000
0000
0000
0001
0000
1000
0000
,
0001
0000
1000
0001
1000
0001
1000
0001
,
2000
0000
0000
3000
,
0000
0000
0000
0000
0001
0000
0000
0001
,
0000
0000
2000
0000
0000
3000
0000
0000
,
0010
0000
0000
0010
0000
0000
0100
0000
,
0000
0100
0000
0000
0001
0000
0000
0001
,
0000
0000
1000
0000
0000
1000
0000
0000
,
0200
0000
0000
0320
0000
0000
0032
0000
,
0000
0000
0000
0003
0000
0000
0000
0000
,
0000
0000
1000
0000
1000
0010
0000
0010
,
0001
0000
0001
0010
0000
0010
2000
0000
,
0000
3002
0000
0000
0013
0000
0000
0010
,
0000
0000
0011
0000
0000
0011
0000
0000
,
1100
0000
0000
2200
0000
0000
3300
0000
,
0000
1001
0000
0000
0001
0000
0000
0001
,
0000
0000
0100
0000
0100
0010
0000
0010
,
1000
0000
1000
0001
0000
0001
0010
0000
,
0000
0010
0000
0000
0100
0000
0000
0100
,
0000
0000
1100
0000
0000
1100
0000
0000
,
0011
0000
0000
0022
0000
0000
0033
0000
,
0000
1001
0000
0000
1000
0000
0000
1000
,
0000
0000
0010
0000
0010
0100
0000
0000
,
0010
0000
0010
1000
0000
0000
0001
0000
,
0000
0001
0000
0000
0010
0000
0000
0010
,
0000
0000
0100
0000
0100
1000
0000
0000
,
0100
0000
0100
0010
0000
0000
0001
0000
,
0000
1000
0000
0000
0010
0000
0000
0100
,
0000
0000
0001
0000
0000
1000
0000
0000
,
0100
0000
0000
0010
0000
0000
0000
0000
,
0000
0022
0000
0000
0000
0000
0000
0000
,
0000
0000
0000
0000
0000
0033
0000
0000
,
0001
0000
0000
1000
0000
0000
0000
0000
;

//--------------- dance-single - ----------------
#NOTEDATA:;
#STEPSTYPE:dance-single;
#DESCRIPTION:;
#DIFFICULTY:Medium;
#METER:10;
#RADARVALUES:0,0,0,0,0;
#CREDIT:Talkion;
#NOTES:
0000
0000
0000
0000
,
0000
0000
0000
0000
,
0000
0000
0000
0000
,
0000
0000
0000
0000
0001
0010
0200
0000
,
0000
0000
0300
1000
0002
0000
0000
0000
,
0003
0100
0020
0000
0000
0000
0030
0000
,
1000
0010
0100
0002
0000
1003
0200
0000
,
0000
0000
0300
0010
0020
0000
0000
0030
,
0100
1000
0002
0003
0200
0300
0020
0030
,
2000
0000
0000
3000
0001
0010
0200
0000
,
0000
1300
0000
1000
0002
0000
0000
0103
,
0000
0100
0020
0000
0000
1030
0000
1000
,
0001
0010
0001
2000
0000
3010
0200
0000
,
0000
0301
0000
1000
2000
0000
0000
3100
,
0010
0001
2000
3000
0020
0030
0200
0300
,
0020
0030
2000
3000
0002
0003
0010
0100
,
0010
0002
0000
1003
0020
0000
0000
0030
,
0100
0001
1000
0100
1000
0002
0000
0103
,
0010
1000
0001
0010
0001
1000
0100
0010
,
0100
1000
0001
0100
0010
0100
0001
2000
,
0000
3100
0020
0000
0000
0032
0000
0000
,
1003
0010
1000
0010
1000
0020
0001
0000
,
0230
0001
0000
0320
0001
0000
0230
0001
,
0000
0310
2000
0000
0000
3002
0000
0000
,
0013
0100
1000
0001
0000
0000
0101
0000
,
0000
1001
0000
0000
1100
0000
0000
2002
,
0000
0000
3003
0000
0001
0100
0010
1000
,
0001
0010
0001
0010
0001
0010
0100
0000
,
0200
1000
0000
0000
0310
0000
0020
0001
,
0000
0000
0230
0000
0000
1300
0001
0100
,
0010
1000
0010
1000
0010
1000
0001
0000
,
0002
0010
0000
0000
1003
0000
2000
0010
,
0000
0000
3002
0000
0003
2200
0000
3300
,
0220
0000
0330
0022
0000
0033
2002
0000
,
0000
0000
0000
0000
,
3003
0220
0000
0000
,
0000
0000
0330
1001
,
0000
1001
0000
0000
0110
0000
0110
0000
,
0110
0000
0001
0100
0001
1000
0100
1000
,
0001
0100
0010
1000
0100
0010
0002
0000
,
0000
0000
0003
0000
1000
0100
1000
0002
,
0000
0203
0000
0300
,
0010
1000
0010
0200
0000
0000
0301
1000
,
0100
0010
0001
1000
0010
0100
0010
1000
,
0001
0010
0100
0010
0001
2000
0000
3010
,
0200
0000
0000
0302
0000
0000
1003
0100
,
1000
0100
1000
0100
0000
0000
0000
0000
,
0000
0000
1200
0000
0320
1000
0000
0230
,
1000
0000
0320
1000
0000
0130
2000
0000
,
0000
3002
0000
0000
0103
0010
1000
0001
,
0000
0000
0011
0000
0000
1001
0000
0000
,
1010
0000
0000
2002
0000
0000
3003
0000
,
0001
0010
0100
1000
0001
0100
0001
0100
,
0001
0100
0010
1000
0001
1000
0100
0010
,
2000
0000
3010
0200
0000
0310
0001
0000
,
1000
0100
1000
0001
0100
0010
1000
0001
,
0000
0000
0011
0000
0000
1001
0000
0000
,
1010
0000
0000
2002
0000
0000
3003
0000
,
0001
0010
0100
1000
0001
0100
0001
0100
,
0001
0100
0010
0000
0020
1000
0000
0000
,
0130
0000
0200
0001
0000
0000
0320
0000
,
0000
1030
0001
0010
0100
1000
0100
1000
,
0100
1000
0001
0000
0002
0100
0000
0000
,
1003
0000
2000
0100
0000
0000
3002
0000
,
0003
2020
0000
3030
0220
0000
0330
0202
,
0000
0303
2002
0000
3003
2200
0000
3300
,
0220
0000
0330
0022
0000
0033
0000
0000
,
0000
2002
0000
0000
0000
0000
0000
0000
,
0000
0000
0000
0000
0000
3003
0000
0000
,
1000
0010
0100
1000
0000
0000
0000
0000
;

//--------------- dance-single - ----------------
#NOTEDATA:;
#STEPSTYPE:dance-single;
#DESCRIPTION:;
#DIFFICULTY:Hard;
#METER:12;
#RADARVALUES:0,0,0,0,0;
#CREDIT:Talkion;
#NOTES:
0000
0000
0000
0000
,
0000
0000
0000
0000
,
0000
0000
0000
0000
,
0000
0000
0000
0000
0001
0010
0200
0000
,
0000
1000
0300
0010
0002
0000
0000
1000
,
0003
0100
0002
0000
0000
1000
0003
0010
,
0001
1000
0100
0020
0000
0031
2000
0000
,
0000
0000
0010
0000
3000
0000
0001
0100
0020
0000
0000
0000
0000
0000
1030
0000
,
0001
1000
0200
0300
0020
0030
0002
0003
,
2000
0000
0000
3010
0100
0001
2000
0000
,
0100
0100
3000
0001
0200
0000
0010
0010
,
0300
0001
2000
0000
0010
0010
3000
0001
,
0010
0100
1000
0002
0000
0103
0020
0000
,
1000
0000
1000
0000
0030
0000
0100
0010
2000
0000
0000
0000
0001
0000
3001
0000
,
0010
0100
2000
3000
0002
0003
0200
0300
,
0010
1000
0001
1000
0100
1000
0001
0100
,
0010
0100
0002
0000
0000
0000
1003
0000
0100
0010
0000
0010
0000
0010
0001
0000
,
1000
0010
0100
0000
0001
0000
0100
0010
1000
0000
0002
0000
0000
0000
0013
0000
,
0100
1000
0000
1000
0000
1000
0001
0000
0100
0000
0001
0000
1000
0000
0100
0000
,
0010
0000
0001
0000
0010
0000
0100
0000
1000
0001
0000
0001
0000
0001
0200
0000
,
0000
0310
1020
0000
0000
0230
0000
0000
,
0301
0000
0010
0000
0100
0000
1000
0000
0010
0000
0100
0000
0001
0000
1000
0100
,
0010
0000
0200
0000
0001
0000
0310
0000
0001
0000
1000
0010
0100
0000
0020
0000
,
0001
0000
0130
0000
0002
0000
0003
1000
0001
0000
0010
0000
0010
0000
0100
1000
,
0001
0001
0001
0100
0010
1000
1001
0000
,
0000
0011
0000
0000
1010
0000
0000
1001
,
0001
0000
0010
0000
1000
0000
0000
0000
0001
0000
0100
0000
0100
0000
1000
0001
,
0100
0100
0100
0010
1000
0001
0010
1000
,
0010
0002
0000
1003
0010
0001
0010
2000
,
0000
3100
0200
0000
0301
1000
0010
0001
,
0100
0100
0100
0010
1000
0001
0010
1000
,
0010
0002
0000
1003
0010
0001
0010
2000
,
0000
3001
0022
0000
0033
2200
0000
3300
,
2020
0000
3030
0202
0000
0303
2002
0000
,
0000
0000
0000
0000
0000
0000
3003
1000
,
0100
0010
0022
0000
0000
0000
0000
0000
,
0000
0000
0000
0000
0033
0000
0001
1000
0001
0000
0100
0000
0110
0000
0000
0000
,
0000
1001
0000
0000
1100
0000
0101
0000
,
1100
0000
1001
0001
0100
0010
1000
0100
,
0010
0001
0100
0010
1000
0100
0002
0000
,
0000
2003
3020
0031
1000
0001
0100
0020
,
0000
0130
0002
0000
0000
0003
1000
0001
,
0010
0100
0010
0002
0000
1003
0010
0100
,
0001
0010
0001
0100
0010
1000
0001
1000
,
0100
0010
0001
0010
0100
2000
0000
3001
,
0200
0000
0000
0320
0000
0000
1030
0100
,
0010
0001
0100
0010
1000
0100
0001
1000
,
0010
0000
0001
0000
1000
0000
0001
0100
0010
0000
0200
0000
1000
0000
0310
0000
,
1000
0000
0001
0010
0100
0000
0020
0000
1000
0000
0130
0000
2000
0000
3000
0001
,
1000
0000
0010
0000
0010
0000
0100
0001
1000
0000
1000
0000
1000
0000
0100
0000
,
0010
0001
1001
0000
0000
1010
0000
0000
,
0011
0000
0000
1001
1000
0010
0001
0000
,
1000
0000
0100
0000
0100
0000
0001
1000
0100
0000
0100
0000
0100
0000
0010
0000
,
0001
0000
1000
0000
0010
0000
0100
0000
0010
0000
1000
0001
0010
0001
1000
0000
,
0200
0000
0000
0000
0301
0000
0100
0000
0100
0000
0010
0001
1000
0000
0000
0010
,
0100
0010
1000
0000
0001
0000
0010
0100
1000
0000
1000
0000
1000
0000
0001
0000
,
0100
0001
1001
0000
0000
0110
0000
0000
,
1001
0000
1000
0100
0010
0100
0002
0000
0000
0000
1003
0000
0010
0000
0010
0000
,
0001
1000
0010
0000
0010
0000
1000
0001
0010
0000
0010
0000
0010
0000
0100
0000
,
1000
0001
0100
1000
0100
0002
0000
1003
,
0100
0001
0100
2000
0000
3010
0020
0000
,
0031
1000
0100
0001
0010
0010
0010
0100
,
1000
0001
0100
1000
0100
0002
0000
1003
,
0100
0001
0100
2000
0000
3001
0202
0000
,
0303
2020
0000
3030
1001
0001
0010
1000
,
0001
0100
2200
0000
3300
0022
0000
0033
,
0202
0000
0303
2020
0000
0000
3030
0000
,
0000
2002
0000
0000
0000
0000
0000
0000
,
0000
0000
0000
0000
0000
3003
0000
0000
,
0001
0010
1000
0001
0000
0000
0000
0000
;

//--------------- dance-single - ----------------
#NOTEDATA:;
#STEPSTYPE:dance-single;
#DESCRIPTION:;
#DIFFICULTY:Challenge;
#METER:16;
#RADARVALUES:0,0,0,0,0;
#CREDIT:Talkion;
#NOTES:
0000
0000
0000
0000
,
0000
0000
0000
0000
,
0000
0000
0000
0000
,
0000
0000
0000
0000
0001
0010
0200
1000
,
1000
0010
0300
0001
2000
0100
0100
0001
,
3000
1000
0002
0100
0100
1000
0003
0001
,
0010
0100
1000
0020
0000
0130
0002
1000
,
1000
0000
0010
0000
0003
0000
0001
0010
0200
0000
1000
0000
1000
0000
0310
0000
,
0001
1000
0020
0130
0002
0013
0200
1300
,
0002
0000
0000
0103
0010
1000
1001
0001
,
0010
0100
0010
0000
0001
0000
1000
0000
0010
0100
0010
0100
0001
1000
0100
0000
,
0010
0000
0010
0000
0001
0000
1000
0000
0010
0100
0010
0000
1000
0000
0001
0000
,
0010
0100
1000
0001
1000
0000
0020
0000
0000
0000
0130
0000
0010
0000
1000
0000
,
0001
0010
0001
0000
1000
0000
0100
0010
0001
1000
0001
1000
0010
0100
0001
0000
,
1000
0100
0020
0031
0200
0310
2000
3001
,
0010
0100
1000
0000
1000
0010
0100
0000
0100
0001
1000
0001
0010
0000
1000
0010
,
0100
0010
0002
0000
1000
0000
0103
0000
0010
0010
0000
0010
0000
0100
0001
0000
,
1000
0001
0010
0001
1000
0000
0100
0010
0100
0000
0001
0200
0010
0000
1300
0000
,
0001
0001
0000
0001
0000
0100
0010
0000
0100
0001
1000
0001
0010
0000
1000
0010
,
0100
0000
2000
0000
0001
0000
3010
0000
0100
0100
0000
0100
0000
0010
1000
0000
,
0001
0010
0100
0000
1200
0000
0000
0000
0000
0000
0320
0000
0000
0000
0000
0000
,
0031
1000
0010
0100
0001
0010
0100
1000
0010
0100
0001
0000
1001
0000
1000
0100
,
0001
0000
0201
0000
0010
0000
1300
0000
1001
0000
0001
0100
1000
0000
1200
0000
,
0010
0000
0301
0000
1001
0000
1000
0100
0010
0000
0110
0000
1001
0000
0001
0100
,
1000
0000
1100
0000
0110
0000
0102
0000
1000
0000
0013
0000
0110
0000
0001
0100
,
0010
0000
0110
0000
1000
0100
0010
0000
0110
0000
0001
0100
1000
0000
0110
0000
,
1000
0010
0100
0010
0001
0000
0000
0000
0010
1000
0100
0000
0100
0000
0010
0001
,
1001
0000
1010
0000
0101
0000
0100
0010
1000
0001
1000
0100
0010
0000
0010
0001
,
0200
0000
1000
0000
0010
0000
0301
0000
0100
0001
1000
0100
0020
0000
1000
0000
,
0100
0000
0031
0000
1002
0000
0010
0000
1003
0000
0100
0010
0001
1000
0010
0100
,
0101
0000
1010
0000
1001
0000
0001
0010
0100
1000
0001
0000
0010
0000
0010
0001
,
0200
0000
1000
0000
0010
0000
0301
0000
0100
0001
1000
0100
0020
0000
1000
0000
,
0100
0000
0031
0000
1001
0000
1000
0010
0100
0000
1001
0000
0001
0010
0100
0000
,
1001
0000
1000
0000
0010
0000
0100
0001
0100
0001
0100
0001
0020
0000
0000
0000
,
0000
0000
0000
0000
0000
0000
0030
0001
,
0100
0010
1020
0000
0000
0000
0000
0000
,
0000
0000
0000
0000
0030
0000
0100
0010
0100
0000
0001
0000
1000
0100
0010
1000
,
0010
0100
1000
0010
0100
1000
0100
0010
1000
0100
0010
0100
0001
0100
0010
0001
,
1000
0010
0100
0010
0001
1000
0100
0010
0100
0001
1000
0100
0010
1000
0001
0100
,
0010
0001
0100
0010
1000
0100
0010
0001
0100
0010
1000
0100
0002
0000
0000
0000
,
0000
0000
2003
0000
3020
0000
0031
0000
1000
0100
1000
0100
1000
0000
0002
0000
,
0000
0000
0103
0000
0020
0000
0000
0000
0000
0000
0030
0000
1000
0001
1000
0001
,
1000
0100
0010
0002
0000
0103
0010
0100
,
0001
0010
0100
1000
1001
0001
0100
0001
,
1000
0000
0100
0000
0010
0100
0000
0010
0100
1000
0001
0000
0100
0000
0010
0000
,
1020
0000
0000
0000
0000
0000
0230
0000
0000
0000
0000
0000
0301
1000
0100
0010
,
0001
0100
0010
1000
0100
0010
0001
0000
1000
0000
0100
0000
0001
0000
1000
0000
,
0010
0000
0001
0000
1001
0000
1000
0010
0001
0000
0021
0000
0100
0000
1030
0000
,
1001
0000
0001
0010
1000
0000
1020
0000
0100
0000
0031
0000
1001
0000
1000
0010
,
0100
0000
0110
0000
1001
0000
0001
0010
1000
0000
1010
0000
0110
0000
0012
0000
,
1000
0000
0103
0000
0110
0000
0001
0010
0100
0000
0110
0000
1000
0010
0100
0000
,
0110
0000
0001
0010
1000
0000
0110
0000
1000
0100
0010
0100
0001
0000
0000
0000
,
0100
1000
0010
0000
0010
0000
0100
0001
1001
0000
1100
0000
0011
0000
0010
0100
,
1000
0000
0000
0001
0000
0000
1000
0000
0000
0010
0000
0000
0100
0000
0000
0000
0000
0000
0001
0000
0000
0100
0000
0000
0010
0000
0000
1000
0000
0000
0001
0000
0010
0000
0001
0000
1000
0000
0010
0000
1000
0000
0001
0000
0010
0000
0100
0000
,
2000
0000
0000
0000
3010
0000
0110
0000
1001
0000
1000
0100
0010
0000
0000
0010
,
0001
0000
1000
0000
0001
0000
1000
0000
0000
0000
0000
0000
1010
0000
0000
0000
0000
0000
0010
0000
0000
0100
0000
0000
0101
0000
0000
0000
0000
0000
1010
0000
0000
0000
0000
0000
1000
0000
0000
0001
0000
0000
0010
0000
0000
0000
0000
0000
,
0110
0000
0100
1000
0001
0000
0100
0010
0001
0010
0100
0000
0001
0010
0100
0010
,
0001
1000
0001
0100
0010
1000
0001
0010
0001
2000
0000
0000
0000
0000
0000
3010
0000
0000
0100
0000
0000
0001
0000
0000
,
0010
0001
0100
0000
0100
0000
0010
1000
1001
0000
0011
0000
1100
0000
0100
0010
,
0001
1000
0001
0100
0010
0000
0010
1000
0200
0000
0001
0000
0010
0000
1300
0000
,
0100
1000
0001
0100
0020
0000
0001
0000
0100
0000
1030
0000
2001
0000
0010
0000
,
3001
0000
0100
0010
1000
0001
0010
0100
1100
0000
0011
0000
1001
0000
1000
0010
,
0100
0001
1000
0000
0010
0000
0010
1000
0200
0000
0001
0000
0010
0000
1300
0000
,
0100
1000
0001
0100
0020
0000
0001
0000
0100
0000
1030
0000
1001
0000
0001
0010
,
0100
0000
1001
0000
1000
0010
0100
0000
1001
0000
0001
0000
0010
0000
0100
1000
,
0100
1000
0100
1000
0020
0000
0000
0000
0030
0000
0102
0000
0000
0000
0003
0000
,
2100
0000
3000
1002
0000
0000
0203
0000
,
0000
0000
0310
1000
0001
1000
0100
1000
0010
1000
0001
1000
0100
1000
0010
1000
,
0001
1000
0100
1000
0010
1000
0001
1000
0100
1000
0010
0000
0000
0000
0000
0000
,
0001
0010
1000
0100
0010
1000
0001
0000
0000
0000
0000
0000
0000
0000
0000
0000
;
