#TITLE:Beginner's Sailing;
#SUBTITLE:;
#ARTIST:渡辺曜;
#TITLETRANSLIT:;
#SUBTITLETRANSLIT:;
#ARTISTTRANSLIT:Watanabe You;
#GENRE:;
#CREDIT:;
#BANNER:Beginner's Sailing.png;
#BACKGROUND:Beginner's Sailing-bg.png;
#LYRICSPATH:;
#CDTITLE:;
#MUSIC:Beginner's Sailing.ogg;
#OFFSET:-0.007000;
#SAMPLESTART:72.773003;
#SAMPLELENGTH:21.600000;
#SELECTABLE:YES;
#BPMS:0.000000=178.000000
;
#STOPS:
;
#BGCHANGES:;
#KEYSOUNDS:;
#ATTACKS:;

//---------------dance-single - ----------------
#NOTES:
     dance-single:
     :
     Challenge:
     15:
     0.772807,0.910100,0.629891,0.622480,0.300124,730.000000,645.000000,85.000000,84.000000,0.000000,0.000000,0.772807,0.910100,0.629891,0.622480,0.300124,730.000000,645.000000,85.000000,84.000000,0.000000,0.000000:
0000
0000
0000
0000
,
0000
0000
0000
0000
,
0000
0000
0000
0000
,
0000
0000
0000
0000
,
0000
0000
0000
0000
,
0000
0000
0000
0000
,
0002
0000
0000
0000
1003
0000
0001
0010
0100
0000
1000
0000
1001
0000
0000
0000
,
0001
0000
0001
0000
0100
0000
0020
0000
0000
1030
0001
0000
0100
0001
0100
0010
,
2000
0000
0000
0000
3001
0000
0001
0000
0010
0000
0000
0100
0010
0000
0110
0000
,
0000
0011
0001
1000
1010
1000
0001
0101
,
0001
0000
1000
0000
1100
0000
1000
0000
0001
0100
0001
0100
0010
1000
0010
1000
,
0002
0000
0000
0000
1003
0000
0001
0000
0010
0100
0010
0100
0020
0000
0000
0000
,
0230
0000
1300
0002
0000
0103
0010
2010
,
0000
0000
0000
0000
3010
0000
0100
0000
0101
0000
0000
0001
1000
0100
0010
0000
,
0001
1000
0010
0200
0000
0301
1000
1200
,
0000
0000
0000
0000
0310
0000
0001
1000
0100
0010
0100
0010
0001
1000
0001
1000
,
0010
1000
0001
0020
0000
0130
1000
1002
,
0000
0000
0000
0000
1003
0000
0010
0000
1000
0000
0100
0010
0001
1000
0001
0000
,
0201
0000
0000
0000
0310
0000
2000
0000
0000
3001
0010
0000
0100
0000
2000
0000
,
0000
3002
0000
0103
0001
1000
0200
0020
,
0000
0000
0000
0000
,
0000
0000
0330
1000
,
0002
0000
0103
0010
1000
0001
0010
0100
,
2000
0000
3001
2000
0000
3010
0100
0001
,
2000
0000
3100
0010
0001
1000
0010
0100
,
0002
0000
0000
0000
1003
0000
0002
0000
0000
0000
0103
0000
0010
0000
1000
0001
,
2000
0000
0010
0000
0001
0000
3100
0010
,
0002
0000
0010
0000
1000
0000
0103
0010
,
2000
0100
3002
0100
,
1003
0000
0000
0000
1100
0000
0000
0100
0010
0000
0001
0000
1000
0001
1000
0000
,
0000
0000
0010
0100
0001
0000
0100
0000
0010
0000
1000
0000
1001
0000
0000
0001
,
1000
0010
0100
2000
0000
3100
0010
2000
,
0000
3001
1001
0000
1000
0010
1010
0000
,
1000
0100
0010
2000
0000
3010
0001
1000
,
0020
0000
1030
0000
0001
0010
1000
0000
,
0020
0000
0000
0000
0031
0000
0000
0000
1000
0000
0010
0000
0001
0000
0010
0100
,
0010
0000
1010
0010
0110
0100
0001
2000
,
0000
0000
3100
0000
0010
0000
0001
1000
0010
0000
0100
0001
1000
0100
1000
0100
,
0020
0000
0100
0001
0032
0000
1003
0000
,
0010
0000
0000
0010
0000
0000
0010
0000
0100
0000
0001
0000
1000
0000
1002
0000
,
0000
0103
1000
0100
0001
1000
1100
0000
,
0100
0000
1000
0000
0001
0000
0100
0010
0100
0000
0010
0000
0110
0000
0000
0000
,
0001
0100
0010
0001
0010
0200
0000
0301
,
1000
0100
0010
1000
0010
0200
0000
1300
,
0002
0203
0320
2030
,
3001
0001
0010
0002
0000
1003
0010
0100
,
0001
0000
0101
1000
1100
0100
0110
0000
,
0011
0001
1010
0010
0110
1000
0001
2001
,
0000
3001
0101
1000
1100
0100
0110
0000
,
0010
0001
1000
0010
0100
0000
0020
0000
0000
0000
0130
0000
0110
0000
0000
0000
,
0000
0000
0010
0000
1000
0001
0000
0020
,
0000
0130
1000
0001
0100
0010
1000
1002
,
0000
0013
0100
1000
0010
0100
0010
0020
,
0000
1030
0001
0010
1000
0010
0001
0000
,
2000
0000
0000
0000
3001
0000
0010
0000
0100
0000
0000
0001
0100
0000
0010
0000
,
0002
0000
0000
0000
1003
0000
0010
0000
0100
0000
0000
1000
0100
0000
0010
0000
,
2000
0000
0000
0000
3001
0000
0010
0000
0100
0000
0000
0001
0100
0000
0010
0000
,
0001
0000
1000
0000
0020
0000
0000
0000
0130
0001
1000
0100
1000
0000
0200
0000
,
0000
0310
1001
0000
0000
0101
0001
1000
,
1100
0000
1000
0000
0010
0000
0210
0000
0000
0000
0301
0000
1000
0001
0010
0100
,
0020
0000
0130
1000
0001
0100
0010
0020
,
0000
0000
1030
0000
0001
0000
0010
0000
0100
1000
0100
1000
0001
0100
0010
1000
,
0002
0000
1003
0010
0001
0010
0110
0000
,
2000
0000
3001
0010
1000
0010
0110
0000
,
0002
0000
1003
0010
0001
0010
0110
0000
,
1000
0010
0100
0101
0000
1100
0000
1002
,
0000
0013
0100
0000
0010
1000
0010
0100
,
1000
0010
0100
0002
0000
1003
0010
1000
,
0100
0000
0010
0010
0001
0001
1000
1000
,
0020
0000
0000
0130
0001
1000
0100
0000
0010
0001
0010
0100
1000
0001
1000
0010
,
0100
0000
0001
1000
0100
0000
1100
0000
0000
0000
0101
0000
0000
0000
2001
0000
,
0000
0000
3100
0000
0010
0000
0000
0001
0010
0000
0001
0000
1000
0000
0010
0000
,
0100
0000
0001
1000
0100
0000
1100
0000
0000
0000
0101
0000
0000
0000
1002
0000
,
0000
0103
0010
2000
0000
3001
0010
0000
,
0200
0000
0000
0000
1300
0000
0001
0100
0010
0000
1000
0000
1001
0000
0000
0000
,
0001
0000
0001
0000
0010
0000
0200
0000
0000
0000
1300
0000
0001
0000
0100
0010
,
0200
0000
0000
0000
0301
0000
0000
1000
0100
0000
0010
0000
0110
0000
0100
0000
,
0000
1100
1000
0001
0101
0001
1000
1010
,
1000
0000
0001
0000
0011
0000
0001
0000
1000
0010
0100
0001
1000
0100
0010
0100
,
2000
0000
0000
0000
3001
0000
0100
0001
1000
0001
0020
0000
0000
0000
0000
0000
,
0230
0000
0000
0000
1300
0000
0001
0000
0100
0000
0100
0010
1000
0000
1020
0000
,
0000
0130
0001
1000
1100
0001
1100
0001
,
1000
0000
0010
0000
0100
0000
0001
0000
1000
0000
1000
0100
0010
0000
0012
0000
,
0000
0000
0000
0000
1003
0000
0001
0010
0100
0000
1000
0000
0001
0100
0010
1000
,
0020
0000
0000
0000
1030
0000
0010
0000
0100
0000
0100
0001
1000
0000
1200
0000
,
0000
0310
0001
1000
1010
0001
1010
0001
,
0100
0000
0001
0000
0010
0000
0100
0000
1000
0000
1000
0001
0100
0000
0102
0000
,
0000
0000
1003
0000
0100
0000
0000
1000
0001
0000
0010
0000
0100
1000
0001
0100
,
0010
0000
1010
1000
0011
0001
1001
0000
,
1010
0010
1001
0001
0101
1000
0101
1000
,
1001
0000
0011
1000
1010
0010
0110
0000
,
1001
0001
0011
1000
1010
0001
1010
0001
,
1001
0000
0101
1000
1100
0001
0011
0000
,
1100
0000
0001
0000
0101
0000
1000
0000
1010
0000
0010
0100
0001
1000
0100
0010
,
0200
0000
0310
0002
1000
1003
0010
0200
,
0000
0301
1000
0000
0001
0000
0020
0000
0000
0000
0200
0000
0000
0000
0000
0000
,
0000
0000
0000
0000
,
0330
0000
0000
0100
1000
0001
0100
0010
0001
0000
0010
0000
0100
0000
2002
0000
,
0000
3003
0000
0000
;

//---------------dance-double - ----------------
#NOTES:
     dance-double:
     :
     Challenge:
     16:
     0.723051,0.873696,0.281598,0.578018,0.274188,683.000000,645.000000,38.000000,78.000000,0.000000,0.000000,0.723051,0.873696,0.281598,0.578018,0.274188,683.000000,645.000000,38.000000,78.000000,0.000000,0.000000:
// measure 0
00000000
00000000
00000000
00000000
,  // measure 1
00000000
00000000
00000000
00000000
,  // measure 2
00000000
00000000
00000000
00000000
,  // measure 3
00000000
00000000
00000000
00000000
,  // measure 4
00000000
00000000
00000000
00000000
,  // measure 5
00000000
00000000
00000000
00000000
,  // measure 6
20000000
00000000
00000000
00000000
31000000
00000000
00100000
00010000
00100000
00000000
00001000
00000000
00010000
00000000
00000000
00000000
,  // measure 7
00000010
00000000
00001000
00000000
00000010
00000000
00000200
00000000
00000000
00000301
00001000
00000000
00000001
00000010
00000001
00000010
,  // measure 8
00000200
00000000
00000000
00000000
00010300
00000000
00001000
00000000
01000000
00000000
00000000
00100000
01000000
00000000
10010000
00000000
,  // measure 9
00000000
00010000
01000000
10000000
00010000
00100000
10000000
00100000
,  // measure 10
00010000
00001000
00000100
00000001
00001000
00000100
00000001
00000100
,  // measure 11
00002000
00000000
00000000
00000000
00003001
00000000
00000100
00000000
00001000
00010000
00001000
00010000
00002000
00000000
00000000
00000000
,  // measure 12
01003000
00100000
10000000
00010000
00000000
10000000
01000000
00020000
,  // measure 13
00000000
00000000
00031000
00000000
00000010
00000000
00000001
00000000
00001000
00000000
00000000
00000001
00000100
00000010
00001000
00000000
,  // measure 14
00000001
00000010
00000100
00000001
00000000
00001000
00000010
00000002
,  // measure 15
00000000
00000000
00001003
00000000
00000001
00000000
00000100
00000010
00010000
00001000
00010000
00001000
00100000
00010000
00100000
00010000
,  // measure 16
10000000
00010000
01000000
00100000
00000000
10000000
00100000
00020000
,  // measure 17
00000000
00000000
00031000
00000000
00100000
00000000
00001000
00000000
00010000
00000000
00000100
00000010
00000001
00001000
00000001
00000000
,  // measure 18
00000200
00000000
00000000
00000000
00001300
00000000
00010000
00000000
00000000
00100000
01000000
00000000
00010000
00000000
20000000
00000000
,  // measure 19
00000000
32000000
00000000
03010000
00001000
00000010
00002000
00020000
,  // measure 20
00000000
00000000
00000000
00000000
,  // measure 21
00000000
00000000
00033000
00001000
,  // measure 22
00021000
00000000
00130000
10000000
00100000
01000000
10000000
01000000
,  // measure 23
00020000
00000000
10030000
02000000
00000000
03020000
00000000
00032000
,  // measure 24
00000000
00003010
00000100
00001000
00000001
00000100
00001000
00000100
,  // measure 25
00000002
00000000
00000000
00000000
00001003
00000000
00000200
00000000
00000000
00000000
00000320
00000000
00000000
00000000
00001030
00010000
,  // measure 26
00002000
01000000
00010000
00100000
,  // measure 27
00023000
00000100
00001000
00000010
,  // measure 28
00032000
00000000
01003000
00100000
00020000
00000000
00030100
00000010
,  // measure 29
00002000
00000000
00000000
00000000
00013000
00000000
00000000
01000000
10000000
00000000
00010000
00000000
01000000
00100000
01000000
00000000
,  // measure 30
00000000
00000000
00010000
01000000
00100000
00000000
10000000
00000000
00100000
00000000
01000000
00000000
10010000
00000000
00000000
00010000
,  // measure 31
10000000
01000000
00100000
00002000
00000000
00013000
00000010
00000200
,  // measure 32
00000000
00000000
00000301
00000000
00001000
00000000
00000100
00000010
00000100
00000000
00001000
00000000
00001001
00000000
00000000
00000000
,  // measure 33
00000001
00000100
00001000
00020000
00000000
00030200
00000000
00010300
,  // measure 34
00011000
00000000
00001000
00010000
01000000
01000000
00100000
00000000
,  // measure 35
00001000
00000000
00000000
00000000
00010000
00000000
00001000
00000000
00000100
00000000
00000100
00000000
00000010
00000000
00010000
00000010
,  // measure 36
00010000
00000000
00011000
00000000
01001000
01000000
00100000
20000000
,  // measure 37
00000000
00000000
30010000
00000000
00100000
00000000
01000000
10000000
00010000
00000000
01000000
00001000
00010000
00001000
00010000
00000000
,  // measure 38
00012000
00000000
00003100
00000001
00002000
00000000
00003001
00000000
,  // measure 39
00000010
00000000
00000000
00000010
00000000
00000000
00000010
00000000
00001000
00000000
00010000
00000000
00000000
00000000
00012000
00000000
,  // measure 40
00000000
00000000
01003000
00000000
00010000
10000000
01000000
00000000
,  // measure 41
00010000
00000000
00001000
00000000
01000000
00000000
00100000
00010000
00100000
00000000
00010000
00000000
00011000
00000000
00000000
00000000
,  // measure 42
00001000
00000100
00000001
00001000
00000001
00000020
00000000
00001030
,  // measure 43
00010000
01000000
10000000
00010000
10000000
00200000
00000000
00310000
,  // measure 44
00002000
00003200
00020300
02030000
,  // measure 45
03001000
00010000
00000100
00000020
00000000
00000032
00000000
00001003
,  // measure 46
00001002
00000000
00000103
00001000
00000100
00000010
00010000
00001000
,  // measure 47
00010000
01000000
10000000
01000000
00010000
00001000
01000000
01200000
,  // measure 48
00000000
10300000
00010000
00100000
10000000
00100000
00010000
10000000
,  // measure 49
00100000
01000000
00001000
00010000
00001000
00000000
00020000
00000000
00000000
00000000
00030010
00000000
00000110
00000000
00000000
00000000
,  // measure 50
00000000
00000000
00000002
00000000
00000013
00001000
00000000
00020000
,  // measure 51
00000000
00030010
00001000
00000010
00010000
00001000
01000000
01020000
,  // measure 52
00000000
10030000
01000000
00010000
00001000
00000010
00000001
00001000
,  // measure 53
00000000
00000001
00001000
00000010
00000001
00000010
00001000
00000000
,  // measure 54
00000020
00000000
00000000
00000000
00010030
00000000
00001000
00000000
00010000
00000000
00000000
01000000
00010000
00000000
00001000
00000000
,  // measure 55
00200000
00000000
00000000
00000000
00301000
00000000
00010000
00000000
00001000
00000000
00000000
00000100
00001000
00000000
00010000
00000000
,  // measure 56
00000020
00000000
00000000
00000000
00010030
00000000
00001000
00000000
00010000
00000000
00000000
01000000
00010000
00000000
00001000
00000000
,  // measure 57
01000000
00000000
00010000
00000000
20000000
00000000
00000000
00000000
31000000
00100000
00010000
00100000
00001000
00000000
00100000
00000000
,  // measure 58
00000000
00001000
00021000
00000000
00030100
00000001
00001000
00000010
,  // measure 59
00000001
00000000
00001000
00000000
00000010
00000000
00000002
00000000
00000000
00000000
00000013
00000000
00001000
00000010
00010000
00001000
,  // measure 60
00020000
00000000
00031000
00101000
00000000
01100000
00000000
20010000
,  // measure 61
00000000
00000000
30100000
00000000
01000000
00000000
00001000
00000000
00010000
00000100
00010000
00000100
00001000
00000001
00001000
00000001
,  // measure 62
00000200
00000000
00001300
00010000
00100000
01000000
00010000
10000000
,  // measure 63
02000000
00000000
03010000
00001000
00000010
00000100
00001000
00000001
,  // measure 64
00000200
00000000
00000000
00000000
00001300
00000000
00010000
00000000
00100000
00000000
01000000
00000000
00010000
00000000
10000000
00010000
,  // measure 65
00100000
00000000
00001000
00101000
00000000
00011000
00000000
00010020
,  // measure 66
00000000
00000000
00000130
00000001
00001000
00000001
00000010
00001000
,  // measure 67
00000001
00000100
00001000
00000002
00000000
00000103
00001000
00010000
,  // measure 68
00002000
00000000
01003000
01000000
00100000
00100000
10000000
10000000
,  // measure 69
00020000
00000000
00000000
00130000
00001000
00010000
00001000
00000000
00010000
00000010
00010000
00000010
00001000
00000001
00000010
00000001
,  // measure 70
00001000
00000000
00000001
00000100
00000010
00000000
00010010
00000000
00000000
00000000
00011000
00000000
00000000
00000000
00201000
00000000
,  // measure 71
00000000
00000000
00310000
00000000
10000000
00000000
00000000
00010000
01000000
00000000
00100000
00000000
00010000
00000000
00100000
00000000
,  // measure 72
10000000
00000000
00010000
10000000
01000000
00000000
01100000
00000000
00000000
00000000
00101000
00000000
00000000
00000000
00012000
00000000
,  // measure 73
00000000
00003100
00000010
00020000
00000000
00030010
00001000
00000000
,  // measure 74
00000002
00000000
00000000
00000000
00000013
00000000
00000100
00001000
00000100
00000000
00010000
00000000
00001000
00000000
01000000
00010000
,  // measure 75
10000000
00000000
00010000
00000000
00100000
00000000
01000000
00000000
00000000
00000000
10000000
00000000
00010000
00000000
01000000
00001000
,  // measure 76
00020000
00000000
00000000
00000000
00030010
00000000
00000000
00000100
00000010
00000000
00001000
00000000
00001001
00000000
00000001
00000000
,  // measure 77
00000000
00001000
00000100
00000001
00001000
00000010
00000001
00000010
,  // measure 78
00001000
00000000
00010000
00000000
01000000
00000000
10000000
00010000
01000000
00000000
00100000
10000000
00010000
00100000
00001000
00010000
,  // measure 79
00002000
00000000
00000000
00000000
00013000
00000000
00000010
00001000
00000001
00001000
00000200
00000000
00000000
00000000
00000000
00000000
,  // measure 80
00000310
00000000
00000001
00000000
00001000
00000000
00000010
00000000
00000100
00000000
00000100
00001000
00010000
00000000
00002000
00000000
,  // measure 81
00000000
01003000
00010000
10000000
11000000
00000000
01001000
00000000
,  // measure 82
00001000
00000000
00010000
00000000
00000100
00000000
00000010
00000000
00000001
00000000
00000001
00001000
00000010
00000000
00000200
00000000
,  // measure 83
00000000
00000000
00001300
00000000
00010000
00000000
00001000
01000000
00010000
00000000
10000000
00000000
00010000
00100000
01000000
10000000
,  // measure 84
00010000
00000000
01000000
00000000
00001000
00000000
00010000
00000000
00000100
00000000
00000100
00001000
00000001
00000000
00000200
00000000
,  // measure 85
00000000
00000310
00010000
00001000
00101000
00000000
00010010
00000000
,  // measure 86
00000010
00000000
00010000
00000000
00001000
00000000
00100000
00000000
00001000
00000000
00001000
00010000
00100000
00000000
02000000
00000000
,  // measure 87
00000000
00000000
03010000
00000000
10000000
00000000
01000000
00000000
00010000
00000000
00001000
00000000
00100000
00001000
00010000
00000010
,  // measure 88
00010000
00000010
00001000
00000100
00000001
00000100
00001000
00000001
,  // measure 89
00000100
00010000
01000000
00100000
10000000
00010000
00001000
00010000
,  // measure 90
10010000
00000000
00010000
00100000
10000000
00100000
00010000
10000000
,  // measure 91
00100000
00001000
00000010
00000100
00000001
00001000
00010000
00001000
,  // measure 92
00001001
00000000
00001000
00000010
00000001
00000010
00001000
00000001
,  // measure 93
00000010
00001000
00100000
01000000
10000000
00010000
00001000
00010000
,  // measure 94
10010000
00000000
10000000
01000000
00010000
00011000
00000010
00001010
,  // measure 95
00000000
00001000
00000001
00000000
00000100
00000000
00002000
00000000
00000000
00000000
00020000
00000000
00000000
00000000
00000000
00000000
,  // measure 96
00000000
00000000
00000000
00000000
,  // measure 97
00033000
00000000
00000000
00000000
00001000
01000000
00100000
01000000
10000000
00000000
01000000
00000000
00100000
00000000
20020000
00000000
,  // measure 98
00000000
30030000
00000000
00000000
;

//---------------dance-single - ----------------
#NOTES:
     dance-single:
     :
     Hard:
     13:
     0.607659,0.655272,0.303830,0.711406,0.074105,574.000000,533.000000,41.000000,96.000000,0.000000,0.000000,0.607659,0.655272,0.303830,0.711406,0.074105,574.000000,533.000000,41.000000,96.000000,0.000000,0.000000:
0000
0000
0000
0000
,
0000
0000
0000
0000
,
0000
0000
0000
0000
,
0000
0000
0000
0000
,
0000
0000
0000
0000
,
0000
0000
0000
0000
,
0002
0000
0103
0010
2000
0000
3001
0010
,
1000
0010
0100
2000
0000
3001
0100
0010
,
2000
0000
0000
0100
0002
0000
3003
0000
,
0000
0001
0100
0100
0010
1000
1000
0100
,
0010
0010
0100
1000
0001
0100
1000
0100
,
0002
0000
1003
0010
0200
0000
0310
0000
,
1000
0000
0001
0011
0000
1100
0000
1002
,
0000
0000
0000
0000
0103
0000
0000
0000
0010
0000
0100
0010
0100
0000
0010
0000
,
1000
0001
0010
0110
0000
1100
0000
1002
,
0000
0000
0000
0000
0103
0000
0010
0000
1000
0001
1000
0000
0100
0000
0010
0000
,
0002
0000
1003
1010
0000
0101
0000
2001
,
0000
0000
0000
0000
3100
0000
0010
0001
0010
0000
0001
0000
1000
0000
0010
0000
,
0200
0000
0310
0002
0000
2003
0000
3200
,
0000
0302
0000
2003
0000
3200
0000
0020
,
0000
0000
0000
0000
,
0000
0000
0330
0001
,
2001
0000
0010
0000
3001
0010
0100
0000
,
2000
0000
3001
0200
0000
0010
0000
2300
,
0000
0000
3100
0000
0001
1000
0010
0000
,
2000
0000
3001
0020
0000
0100
0000
1030
,
0020
0000
1000
0001
,
0230
0000
0001
1000
,
0320
0000
0032
0000
,
1003
0000
0010
0000
0100
1000
0100
0002
,
0000
0000
1003
0100
1000
0000
0000
0000
0001
0000
0100
0000
0010
0000
0100
0000
,
1000
0100
0001
0200
0000
0320
0000
2030
,
0000
0000
3001
0000
1000
0100
0010
0100
,
0001
0100
1000
0002
0000
0203
0000
0310
,
2000
0000
0001
0000
3100
0010
0001
1000
,
0002
0000
0000
0000
1000
0000
0000
0000
0103
0000
0010
0000
1000
0000
0001
1000
,
0001
0000
1000
0100
0001
0100
1000
0002
,
0000
0000
0103
0000
0010
0000
1000
0001
1000
0000
0100
0000
0010
0000
0100
0000
,
0002
0000
0103
1000
0002
0000
0000
0103
,
0010
0000
0000
0010
0000
0000
0010
0000
1000
0000
0001
0000
0010
0000
0210
0000
,
0000
0000
1300
0000
0001
0100
0010
0100
,
2000
0000
3100
0002
0000
1000
0000
0000
,
0013
0100
0010
0010
1000
0020
0000
0000
,
0031
1000
0010
0010
0001
0020
0000
0000
,
0230
0001
0320
1000
,
0130
0001
1000
0200
0000
0301
1000
0010
,
0002
0000
0013
1000
0010
0100
1001
0000
,
0001
0010
1000
0010
0001
0010
0100
2000
,
0000
3001
0100
1000
0100
0010
1001
0000
,
0001
0100
0010
0200
0000
2300
0000
0000
,
3100
0000
0001
0000
2000
0100
0000
0001
,
0000
3010
0100
0010
1000
0000
0000
1002
,
0000
0000
0013
0000
0100
0001
0100
0020
,
0000
0000
0031
0000
1000
0001
0100
0000
,
0110
0000
0010
1000
0200
0000
0310
0000
,
0110
0000
0010
0001
0200
0000
0310
0000
,
0110
0000
0010
1000
0200
0000
0310
0000
,
0011
0000
1100
0000
1000
0001
0100
2000
,
0000
0000
3100
0000
0001
1000
1000
0100
,
0010
0000
0010
0000
0100
0000
0002
0000
0000
0000
0000
0000
0103
0000
0010
0100
,
0020
0000
0031
1001
0000
0110
0000
2001
,
0000
0000
0000
0000
3010
0000
0100
0001
0100
0000
0001
0000
2001
0000
0000
0000
,
3100
0000
0001
0100
0010
0100
1000
0001
,
0200
0000
1300
0100
0010
0100
0001
1000
,
0200
0000
0301
0100
0010
0100
1000
0001
,
0200
0000
0310
1010
0000
0101
0000
2001
,
0000
0000
3100
0000
1000
0001
0001
0100
,
0010
0010
0100
2000
0000
0000
3100
0001
,
2000
0000
3100
0100
0010
0010
0001
0001
,
2000
0000
0000
0000
3001
0100
0001
0000
0100
0000
0010
0000
1000
0001
1000
0001
,
2000
0000
3100
0010
0000
0110
0000
1002
,
0000
0000
0103
0000
0010
0000
0000
1000
0001
0000
0010
0000
0100
0000
0000
0000
,
0010
0001
1000
1001
0000
0101
0000
0210
,
0000
1000
0000
0320
0000
0000
1030
0000
,
0002
0000
0013
0100
2000
0000
3001
0100
,
1000
0100
0010
2000
0000
3001
0010
0100
,
2000
0000
0000
0000
3001
0000
0100
0000
0010
0000
0000
1000
0001
0000
1000
0000
,
0000
0001
0010
0010
0100
1000
1000
0001
,
0100
0100
0010
1000
0001
0010
1000
0010
,
0002
0000
0000
0000
1003
0000
0001
1000
0001
1000
0002
0000
0000
0000
0000
0000
,
0203
0000
0310
1000
0001
0010
0100
0002
,
0000
0103
1000
0001
0101
0000
1100
0000
,
1000
0001
0100
1000
0100
0010
1000
0002
,
0000
0000
1003
0000
0100
0000
0010
0001
0010
0000
0001
0000
1000
0001
1000
0000
,
0002
0000
0013
0100
1000
0001
0100
2000
,
0000
3100
0001
1000
1100
0000
0101
0000
,
0001
1000
0100
0001
0100
0010
0001
2000
,
0000
3001
0100
0010
0001
1000
0100
0001
,
2000
0000
3001
0010
1000
0010
0001
1000
,
0001
0100
1000
0100
0101
0001
1001
0000
,
0002
0000
1003
0100
0001
0100
1000
0001
,
1000
0010
0001
0010
1010
1000
1002
0000
,
0023
0000
0130
0010
1000
0010
0001
1000
,
0001
0100
1000
0100
0101
0001
1000
0100
,
0020
0000
0130
0001
1000
0010
0001
2000
,
0000
3001
0100
0020
0000
0200
0000
0000
,
0000
0000
0000
0000
,
0330
0000
0000
0000
0001
1000
0001
1000
0001
0000
0010
0000
0100
0000
2002
0000
,
0000
3003
0000
0000
;

//---------------dance-double - ----------------
#NOTES:
     dance-double:
     :
     Hard:
     14:
     0.601308,0.691676,0.222314,0.666943,0.070400,568.000000,538.000000,30.000000,90.000000,0.000000,0.000000,0.601308,0.691676,0.222314,0.666943,0.070400,568.000000,538.000000,30.000000,90.000000,0.000000,0.000000:
00000000
00000000
00000000
00000000
,
00000000
00000000
00000000
00000000
,
00000000
00000000
00000000
00000000
,
00000000
00000000
00000000
00000000
,
00000000
00000000
00000000
00000000
,
00000000
00000000
00000000
00000000
,
20000000
00000000
31000000
00100000
00020000
00000000
10030000
00000000
,
00100000
01000000
00001000
00020000
00000000
00030100
00000010
00000001
,
00002000
00000000
00003001
00000100
00000020
00000000
00010030
00001000
,
00000000
00010000
01000000
00010000
00001000
00100000
00001000
00010000
,
00000010
00010000
00001000
00000100
00001000
00010000
00100000
01000000
,
00020000
00000000
10030000
01000000
00200000
00000000
00310000
00000000
,
20000000
00000000
30010000
01010000
00000000
01001000
00000000
00021000
,
00000000
00000000
00000000
00000000
00030100
00000000
00000010
00000000
00000001
00000000
00000000
00000000
00001000
00000001
00001000
00000000
,
00000001
00000100
00000010
00010000
00000000
00010010
00000000
00012000
,
00000000
00000000
00000000
00000000
00103000
00000000
01000000
00000000
10000000
00010000
10000000
00000000
00100000
00000000
01000000
00000000
,
00002000
00000000
00013000
00010100
00000000
00000110
00000000
00001002
,
00000000
00000000
00000103
00000010
00000100
00001000
00010000
00000100
,
00020000
00000000
00031000
00200000
00000000
20300000
00000000
30020000
,
00000000
02030000
00000000
03200000
00000000
00302000
00000000
00020000
,
00000000
00000000
00000000
00000000
,
00000000
00000000
00033000
00001000
,
00020000
00100000
00031000
00010000
,
00000100
00000000
00000010
00000001
00000000
00001000
00000000
00000020
,
00000000
00000001
00000130
00000001
,
00001000
00000000
00000100
00000010
00000000
00001000
00000000
00010000
,
00002000
00000000
01000000
00010000
,
00203000
00000000
00310000
00000000
,
20000000
00010000
30200000
01000000
,
10300000
00000000
00000000
00000000
00010000
00000000
00000000
00100000
00001000
00000000
00010000
00000000
00000100
00000000
00002000
00000000
,
00000000
00000000
00003001
00000100
00000001
00000000
00000000
00000000
00001000
00000000
00000100
00000000
00000010
00000000
00001000
00000000
,
00010000
00000010
00001000
00000020
00000000
00020030
00000000
00032000
,
00000000
00000000
00103000
00000000
01000000
00010000
00001000
00100000
,
00020000
00000000
10030000
00200000
00000000
01000000
00000000
01300000
,
00020000
00000000
10030000
01000000
00010000
00001000
00000010
00000001
,
00002000
00000000
00003001
00000100
00001000
00010000
00100000
10000000
,
00010000
00000000
10010000
00000000
10000000
01000000
00000000
00020000
,
00000000
00000000
00031000
00000000
00100000
00000000
00001000
00000000
00010000
00000000
00000010
00001000
00000010
00000000
00000100
00000000
,
00002000
00000000
00003100
00000001
00002000
00000000
00000000
00003001
,
00000010
00000000
00000000
00000010
00000000
00000000
00000010
00000000
00000001
00000000
00001000
00000000
00000010
00000000
00000002
00000000
,
00000000
00000013
00001000
00000000
00000010
00010000
00001000
00100000
,
00020000
00000000
00000000
00000000
10030000
00000000
00100000
10000000
00100000
00000000
01000000
00000000
00010000
00000000
00000000
00000000
,
10000000
01000000
00100000
00100000
01000000
00020000
00000000
00000000
,
00031000
00000010
00000100
00000100
00000010
00000002
00000000
00000000
,
00002003
00003020
00000230
00002300
,
00013000
00100000
01000000
00020000
00000000
10030000
01000000
00010000
,
00002000
00000000
00013000
00100000
10000000
00100000
00010000
00000000
,
00001000
00000100
00000001
00000100
00001000
00010000
00001000
00012000
,
00000000
00000000
00013000
01000000
10000000
01000000
00010000
00000000
,
00001000
00000010
00000001
00002000
00000000
00000001
00000000
00000000
,
00003010
00000000
00000100
00000000
00001000
00020000
00000000
00100000
,
00000000
00030010
00010000
00001000
00100000
00010000
00100000
20000000
,
00000000
30100000
00010000
10000000
00100000
02000000
00000000
03001000
,
00000000
00010000
00001000
00010000
00100000
00010000
00001000
00000000
,
00011000
00000000
00001000
01000000
00200000
00000000
00310000
00000000
,
00011000
00000000
00010000
00000100
00000020
00000000
00001030
00000000
,
00011000
00000000
00001000
00100000
02000000
00000000
03010000
00000000
,
00011000
00000000
00010100
00000000
00000100
00000010
00000001
00002000
,
00000000
00003010
00000100
00000000
00001000
00010000
00100000
01000000
,
00001000
00010000
01000000
20000000
00000000
00000000
30010000
01000000
,
00100000
00000000
10000000
00020000
00000000
00230000
00000000
20300000
,
00000000
00000000
00000000
00000000
30100000
00000000
00001000
00000000
00010000
00001000
00010000
00000000
00001000
00000000
00000000
00000000
,
00000200
00000000
00000301
00001000
00000100
00000010
00001000
00000000
,
00020000
00000000
00031000
01000000
00100000
10000000
00010000
00000000
,
00200000
00000000
01300000
00010000
00001000
00100000
00001000
00000000
,
00010000
00100000
01000000
00002000
00000000
00013000
00000000
00012000
,
00000000
00003100
00000010
00000000
00010000
00001000
00000010
00000100
,
00010000
00001000
00000100
00000002
00000000
00000000
00001003
00000100
,
00000020
00000000
00001030
00001000
00010000
00010000
01000000
01000000
,
00200000
00000000
00000000
00000000
00310000
10000000
00010000
00000000
01000000
00000000
00001000
00000000
00010000
00001000
00010000
00001000
,
00020000
00000000
00030100
00000110
00000000
00000011
00000000
00002001
,
00000000
00000000
00000000
00000000
00003010
00000000
00000000
00000100
00000001
00000000
00001000
00000000
00000100
00000000
00000000
00000000
,
00010000
00001000
00100000
00020000
00000000
00230000
00000000
20300000
,
00000000
30100000
00010000
20000000
00000000
30100000
00010000
00000000
,
00002000
00000000
00000000
00000000
01003000
00000000
00010000
00000000
20000000
00000000
00000000
00000000
31000000
00000000
00100000
00010000
,
00100000
00001000
00010000
00000020
00000000
00000130
00000001
00001000
,
00000200
00000000
00000000
00000000
00000310
00000000
00001000
00000000
00010000
00000000
00000000
00001000
00010000
00000000
00001000
00000000
,
00000000
00010000
00100000
00010000
00001000
01000000
00001000
00010000
,
00000100
00010000
00001000
00000010
00001000
00010000
01000000
00100000
,
00020000
00000000
00000000
00000000
10030000
00000000
00010000
10000000
00010000
10000000
00020000
00000000
00000000
00000000
00000000
00000000
,
10030000
00100000
01000000
00100000
00010000
00100000
10000000
00020000
,
00000000
00130000
00001000
00010000
00010100
00000000
01001000
00000000
,
01000000
00001000
00010000
00001000
00000100
00001000
00010000
00000200
,
00000000
00000000
00000310
00000000
00000001
00000000
00001000
00000001
00001000
00000000
00000010
00000000
00000100
00000000
00001000
00000000
,
00010000
00001000
00100000
01000000
00010000
01000000
10000000
00020000
,
00000000
10030000
00100000
01000000
01001000
00000000
00011000
00000000
,
00001000
00010000
00000100
00000010
00001000
00000010
00000001
00002000
,
00000000
00003001
00000100
00000010
00010000
00001000
00010000
00000000
,
00001000
00010000
01000000
00100000
10000000
00100000
00010000
00000000
,
10000000
00100000
01000000
00100000
00110000
00000000
00011000
00000000
,
00010000
00001000
00000100
00000010
00000001
00000010
00001000
00000000
,
00000001
00000010
00000100
00000010
00001010
00000000
00011000
00000000
,
00001000
00010000
00100000
01000000
10000000
01000000
00010000
00000000
,
10000000
01000000
00100000
01000000
01010000
00000000
00011000
00010000
,
00000200
00000000
00000310
00000001
00001000
00000010
00000100
00002000
,
00000000
00013000
00100000
02000000
00000000
00200000
00000000
00000000
,
00000000
00000000
00000000
00000000
,
03300000
00000000
00000000
00000000
10000000
00010000
10000000
00010000
10000000
00000000
01000000
00000000
00010000
00000000
00022000
00000000
,
00000000
00033000
00000000
00000000
;

//---------------dance-single - ----------------
#NOTES:
     dance-single:
     :
     Medium:
     11:
     0.444629,0.580241,0.348293,0.326061,0.003705,420.000000,373.000000,47.000000,44.000000,0.000000,0.000000,0.444629,0.580241,0.348293,0.326061,0.003705,420.000000,373.000000,47.000000,44.000000,0.000000,0.000000:
0000
0000
0000
0000
,
0000
0000
0000
0000
,
0000
0000
0000
0000
,
0000
0000
0000
0000
,
0000
0000
0000
0000
,
0000
0000
0000
0000
,
0002
0000
1003
0100
,
0010
0000
0001
2000
0000
0000
3010
0000
,
0100
0000
0001
1000
0002
0000
0003
0000
,
0000
1000
0010
0000
0001
0010
0000
1000
,
0100
0000
0001
0100
1000
0000
0001
0000
,
0200
0000
0000
0310
,
1000
0000
0000
1010
0000
1010
0000
1020
,
0000
0000
0130
0000
0001
1000
0001
0000
,
0010
0000
0000
0011
0000
0011
0000
0012
,
0000
0000
1003
0000
0001
1000
0001
0010
,
0100
0000
0000
1100
0000
1100
0000
1200
,
0000
0000
0310
0000
0001
1000
0001
0100
,
0010
0000
1000
0010
0000
0100
0000
1000
,
0000
0100
0000
0001
0000
0020
0000
0200
,
0000
0000
0000
0000
,
0000
0000
0330
0001
,
2000
0000
3001
0100
,
0010
0000
0000
1000
0000
1000
0000
2000
,
0000
0000
3001
0010
,
0100
0000
0000
0010
0000
0010
0000
0010
,
0002
0000
1003
0010
,
0200
0000
0310
0000
,
2000
0000
3002
0000
,
1003
0000
0100
0000
0010
0001
0000
1000
,
0000
0000
1001
0000
0001
0100
0010
0000
,
0100
0000
0010
1000
0000
1000
0000
2000
,
0000
0000
3001
0000
1000
0100
0010
0000
,
0100
0000
0010
0001
0000
0001
0000
0000
,
2000
0010
3001
1000
,
0002
0010
1003
0001
,
0100
0000
0010
0000
1000
0001
0000
0001
,
0000
0010
0100
0010
0000
0000
0001
0000
,
2001
0000
3010
0000
,
0100
0000
0000
0100
0000
0000
0100
0000
0001
0000
0000
0000
0000
0000
2001
0000
,
0000
0000
3100
0000
0010
0001
1000
0000
,
0001
0000
0100
1000
0000
0100
0000
0000
,
0020
0000
1030
0000
0001
1000
0000
0000
,
0200
0000
0310
0000
0001
1000
0000
0000
,
0001
0100
1000
0010
,
0001
0000
1000
0100
0000
0100
0000
0010
,
0001
0011
1001
1001
,
1010
0000
1001
0000
1001
0000
0000
0110
,
0000
1001
0101
0101
,
0100
0001
0100
0010
0000
2000
0000
0000
,
3000
0000
0001
0000
0010
0100
0000
0010
,
0000
0001
1000
0002
0000
0000
0000
1003
,
0000
0000
0001
0000
0010
1000
0000
0010
,
0000
0000
0001
0000
1000
0001
0100
0000
,
0110
0000
0010
1000
0010
0000
1000
0000
,
1001
0000
0001
1000
0001
0000
1000
0000
,
1100
0000
0100
0010
0100
0000
0010
0000
,
0001
0000
0001
0000
1000
0010
0100
0010
,
0000
0000
0110
0000
0000
0100
0001
0000
,
0100
1000
0000
0200
0000
0000
0301
1000
,
0001
0000
0010
0100
0000
0100
0000
0200
,
0000
0000
1300
0000
0001
1000
0010
0000
,
1000
0000
1000
0100
0020
0000
0001
0000
,
0031
0000
0001
0100
0020
0000
1000
0000
,
1030
0000
1000
0010
0200
0000
0001
0000
,
0301
0000
0000
1001
0000
1001
0000
1001
,
0000
0000
2000
0000
0000
3010
0001
0000
,
0010
1000
0000
0020
0000
0000
0130
0001
,
1000
0000
0001
0010
0001
0010
0100
0000
,
1000
0001
0100
0000
0020
0000
1030
0001
,
0010
0000
0000
0110
0000
0110
0000
2100
,
0000
0000
3001
0000
0100
0001
1000
0000
,
0002
0000
0000
0103
0000
0100
0000
1000
,
0000
0100
0000
0002
0000
0000
1003
0000
,
0200
0000
0310
0001
,
1000
0010
0100
0020
0000
0000
1030
0000
,
0001
0000
1000
0001
2000
0000
3000
0000
,
0000
0001
0100
0000
1000
0100
0000
0001
,
0010
0000
1000
0010
0001
1000
0001
0000
,
2000
0000
0000
0000
0000
3010
0000
0000
,
0100
0000
0001
1000
0001
0010
0000
0200
,
0000
0000
0001
0310
,
0001
1000
0001
0100
0000
0010
0000
2000
,
0000
0000
3001
0000
1000
0001
0010
0000
,
0100
0000
1000
0001
0100
0001
0000
0200
,
0000
0000
1000
0310
,
1000
0001
1000
0100
0000
0010
0000
0002
,
0000
0000
1003
0000
0001
1000
0001
0000
,
1000
1100
0110
0110
,
0001
1000
1001
1001
,
0001
0101
0110
0110
,
1000
0001
1001
1001
,
1000
1100
0110
0110
,
0001
0000
1000
0000
1001
0000
0001
1000
,
0010
0000
0100
0001
0000
0100
0000
1000
,
0000
0100
0010
1000
0000
0002
0000
0000
,
0000
0000
0000
0000
,
0000
0000
0000
0000
1003
0100
0010
0110
;

//---------------dance-double - ----------------
#NOTES:
     dance-double:
     :
     Medium:
     11:
     0.448863,0.507711,0.185262,0.333472,0.003705,424.000000,399.000000,25.000000,45.000000,0.000000,0.000000,0.448863,0.507711,0.185262,0.333472,0.003705,424.000000,399.000000,25.000000,45.000000,0.000000,0.000000:
00000000
00000000
00000000
00000000
,
00000000
00000000
00000000
00000000
,
00000000
00000000
00000000
00000000
,
00000000
00000000
00000000
00000000
,
00000000
00000000
00000000
00000000
,
00000000
00000000
00000000
00000000
,
20000000
00000000
30010000
00100000
,
00001000
00000000
00010000
00000020
00000000
00000000
00000130
00000000
,
00000001
00000000
00001000
00000001
00002000
00000000
00003000
00000000
,
00000000
00000001
00000100
00000000
00001000
00010000
00000000
00100000
,
10000000
00000000
00010000
00100000
01000000
10000000
00010000
00000000
,
20000000
00000000
00000000
30010000
,
10000000
00000000
00000000
11000000
00000000
11000000
00000000
12000000
,
00000000
00000000
03010000
00000000
00001000
00010000
00001000
00000000
,
00010000
00000000
00000010
00001000
00000000
00001010
00000000
00002010
,
00000000
00000000
00003001
00000000
00000010
00000001
00001000
00000100
,
00010000
00000000
00000000
00011000
00000000
00011000
00000000
00021000
,
00000000
00000000
00130000
00000000
10000000
00010000
10000000
01000000
,
00100000
00000000
00010000
10000000
00000000
00100000
00000000
00010000
,
00000000
00001000
00000000
00000100
00000000
00000002
00000000
00002000
,
00000000
00000000
00000000
00000000
,
00000000
00000000
00003003
00000001
,
00002000
00000000
00000001
00003010
,
00000100
00000000
00001000
00010000
00000000
00010000
00000000
00020000
,
00000000
00000000
00100000
00031000
,
00100000
00000000
01000000
10000000
00000000
10000000
00000000
10000000
,
00020000
00000000
01030000
00100000
,
00020000
00000000
00030000
00000000
,
00002000
00000000
00003020
00000000
,
00000031
00000000
00001000
00000000
00000010
00000100
00000000
00000100
,
00000000
00000000
00001001
00000000
00000001
00001000
00000010
00000000
,
00000100
00000000
00001000
00010000
00000000
00010000
00000000
00020000
,
00000000
00000000
00130000
00000000
10000000
00010000
00100000
00000000
,
01000000
00000000
00010000
00001000
00000000
00001000
00000000
00001000
,
00000020
00000000
00000000
00000031
00001000
00000000
00000001
00000000
,
00000200
00000000
00000000
00001300
00010000
00000000
00000010
00000000
,
00000000
00000000
00010010
00000000
00010000
00001000
00000000
00020000
,
00000000
00130000
10000000
00010000
00000000
00000000
10000000
01000000
,
00020000
00000000
00031000
00000000
,
00000010
00000000
00000000
00000010
00000000
00000000
00000010
00000000
00000001
00000000
00001000
00000000
00000000
00000000
00001002
00000000
,
00000000
00000000
00000103
00000000
00000010
00010000
00001000
00000000
,
00020000
00000000
01030000
10000000
00000000
10000000
00000000
00000000
,
00010000
01000000
00100000
00000000
00010000
00002000
00000000
00000000
,
00003100
00000010
00010000
00000000
00001000
00020000
00000000
00000000
,
01030000
00100000
10000000
00100000
,
00001000
00000000
00010000
00001000
00000000
00001000
00000000
00010000
,
00002000
00000000
00003100
00000001
00000100
00000000
00001000
00000000
,
00010000
00001000
00010000
00001000
00100000
00010000
00000000
10010000
,
00000000
10000000
00100000
00010000
00100000
00000000
00010000
00000000
,
00001000
00010000
00001000
00000010
00000000
00000002
00000000
00000000
,
00000003
00000000
00001000
00000000
00000010
00000100
00000000
00001000
,
00000000
00010000
00001000
00020000
00000000
00000000
00000000
00031000
,
00000000
00000000
00010000
00000000
01000000
10000000
00000000
20000000
,
00000000
00000000
30010000
00000000
10000000
00010000
01000000
00000000
,
00100000
00000000
00010000
00001000
00010000
00000000
00001000
00000000
,
00000010
00000000
00001000
00010000
00001000
00000000
00010000
00000000
,
01000000
00000000
00010000
00001000
00010000
00000000
00001000
00000000
,
00000200
00000000
00000301
00000000
00001000
00000001
00001000
00000100
,
00000000
00000000
00000110
00000000
00000000
00000010
00000001
00000000
,
00000100
00001000
00000000
00020000
00000000
00000000
00031000
00000000
,
01000000
00000000
00010000
01000000
00000000
01000000
00000000
02000000
,
00000000
00000000
03100000
00000000
10000000
00010000
00100000
00000000
,
01000000
00000000
00010000
00001000
00010000
00000000
00001000
00000000
,
00000010
00000000
00001000
00010000
00001000
00000000
00010000
00000000
,
00100000
00000000
00010000
00001000
00010000
00000000
00001000
00000000
,
00000100
00000000
00000001
00001000
00000000
00001001
00000000
00001002
,
00000000
00000000
00000013
00000000
00001000
00010000
00000010
00000000
,
00000100
00001000
00000000
00020000
00000000
00000000
00130000
00000000
,
01000000
00000000
00010000
10000000
01000000
10000000
00010000
00000000
,
01000000
00000000
00100000
00000000
00010000
00001000
00010000
00000000
,
00001000
00000000
00000100
00000010
00000000
00000110
00000000
00000210
,
00000000
00000000
00000301
00000000
00001000
00000100
00010000
00000000
,
00001000
00000000
00100000
00010000
00000000
00010000
00000000
20000000
,
00000000
30100000
01000000
00200000
00000000
00000000
01300000
00000000
,
00020000
00000000
10030000
01000000
,
00100000
00001000
00010000
00002000
00000000
00000000
00003100
00000000
,
00000010
00000000
00001000
00000001
00000020
00000000
00000030
00000000
,
00000000
00001000
00010000
00000000
00000010
00001000
00000000
00010000
,
01000000
00000000
00100000
10000000
00010000
00100000
01000000
00000000
,
00200000
00000000
00000000
00000000
00000000
00310000
00000000
00000000
,
10000000
00000000
00100000
01000000
00100000
00010000
00000000
00002000
,
00000000
00103000
00011000
00011000
,
00010000
00000100
00001000
00000100
00000000
00000010
00000000
00000002
,
00000000
00000000
00001003
00000000
00000001
00001000
00000010
00000000
,
00000100
00000000
00001000
00010000
00001000
00100000
00000000
00002000
,
00000000
00013000
00011000
00011000
,
00001000
00100000
00010000
00100000
00000000
01000000
00000000
20000000
,
00000000
00000000
30010000
00000000
10000000
00010000
01000000
00000000
,
10010000
00000000
00010000
00000000
10000000
01000000
00010000
00000000
,
00001000
00010000
00001000
00010000
00000100
00000000
00000010
00000000
,
00001001
00000000
00001000
00000000
00000001
00000100
00001000
00000000
,
00010000
00001000
00010000
00001000
01000000
00000000
00100000
00000000
,
10010000
00000000
00010000
00000000
10000000
00100000
00010000
00000000
,
00001000
00010000
00001000
00010000
00000010
00000000
00001000
00000001
,
00000010
00000000
00000100
00000010
00000000
00001000
00000000
00010000
,
00000000
01000000
00100000
00010000
00000000
20000000
00000000
00000000
,
00000000
00000000
00000000
00000000
,
00000000
00000000
00000000
00000000
30010000
01000000
00100000
01100000
;

//---------------dance-single - ----------------
#NOTES:
     dance-single:
     :
     Easy:
     8:
     0.320768,0.398915,0.140799,0.251956,0.000000,303.000000,284.000000,19.000000,34.000000,0.000000,0.000000,0.320768,0.398915,0.140799,0.251956,0.000000,303.000000,284.000000,19.000000,34.000000,0.000000,0.000000:
0000
0000
0000
0000
,
0000
0000
0000
0000
,
0000
0000
0000
0000
,
0000
0000
0000
0000
,
0000
0000
0000
0000
,
0000
0000
0000
0000
,
0001
0000
1000
0100
,
0010
0000
0000
0010
0000
0000
0001
0000
,
2000
0000
3001
0000
,
0000
1000
0000
0000
0010
0000
0000
0001
,
0000
0100
1000
0001
,
0020
0000
0000
0030
,
0100
0000
0000
1000
0000
0001
0000
2000
,
0000
3010
0100
0100
,
0001
0000
0000
1000
0000
0001
0000
2000
,
0000
3001
0010
0010
,
0100
0000
0000
1000
0000
0001
0000
2000
,
0000
3001
0100
0100
,
0010
0000
0000
0001
0000
0010
0000
1000
,
0000
0001
0000
0010
0000
0100
0000
0020
,
0000
0000
0000
0000
,
0000
0000
0030
0001
,
2001
0000
0000
3010
,
0100
0000
0000
0001
0000
0001
0000
0002
,
0000
0000
0000
0103
,
0010
0000
0000
1000
0000
1000
0000
2000
,
0000
0000
0000
3001
,
0020
0000
0000
0030
,
0200
0000
2300
0000
,
3001
0000
0100
0000
0010
0000
0000
0100
,
0000
0110
1000
1000
,
0001
0000
0000
0010
0000
0100
0000
0020
,
0000
0031
1000
0001
,
0100
0000
0000
0010
0000
0100
0000
0000
,
0020
0000
1030
0001
,
0020
0000
0130
0000
,
0000
0000
1001
0000
1001
0000
0000
0002
,
0000
1003
0010
0100
,
0020
0000
0031
0000
,
0010
0000
1000
0000
0001
0000
0000
0020
,
0000
0000
1030
0000
,
0010
0000
0000
0001
0000
0001
0000
0000
,
1000
0000
0010
0000
0100
0010
0000
0000
,
1000
0000
0001
0000
0010
0001
0000
0000
,
1000
1000
0001
0001
,
0200
0000
0310
1000
,
0002
0000
1000
1000
,
0010
0000
0010
0000
1003
0000
0000
2000
,
0000
0000
0010
0010
,
3001
0000
0000
1000
0000
1000
0000
0000
,
0000
0000
0001
0000
0010
0000
0000
0100
,
0000
0100
0000
0010
0000
0000
0000
1001
,
0000
0000
1000
0000
0010
0100
0000
0100
,
0000
0001
1000
0100
,
0010
0001
1001
0000
,
1000
0010
0110
0000
,
0100
0001
1001
0000
,
1000
0000
0100
0000
0010
0000
0000
0010
,
0000
0000
1001
0000
0000
0001
0000
0000
,
0100
0000
0000
0020
0000
0000
0000
0000
,
1030
0010
0100
0010
,
0002
0000
0013
0010
,
1000
0010
0001
0001
,
0010
1000
0001
0001
,
0010
1000
0001
0001
,
0100
0000
0000
1000
0000
0001
0000
2001
,
0000
0000
0000
0000
0000
3010
0000
0000
,
0100
0000
0000
0002
0000
0000
0000
0000
,
1003
0100
0100
0100
,
0020
0000
0000
0000
0031
1000
0001
0000
,
1000
0000
0000
0010
0000
0110
0000
0110
,
0000
0001
1000
0100
,
0010
0000
0000
0001
0000
1001
0000
1001
,
0000
1000
0000
0020
0000
0000
0000
0000
,
0130
0000
0001
1000
,
0100
0000
0000
0100
0000
0000
0010
0100
,
0020
0000
0130
0000
,
0000
1000
0000
0000
0100
0000
0000
0001
,
0000
0010
1000
0001
,
0200
0000
0000
0000
0000
0310
0000
0000
,
1000
0000
0001
1000
0000
1000
0000
2000
,
0000
3000
1001
1001
,
0001
0000
1000
0001
0000
0001
0000
0002
,
0000
0000
0003
0000
0100
0010
0100
0000
,
0001
0000
0100
0010
0000
0010
0000
0020
,
0000
0030
0110
0110
,
0100
0000
0001
1000
0000
1000
0000
2000
,
0000
0000
3001
1000
,
0100
0010
0010
0010
,
0001
1000
0001
0000
0100
0000
0100
0000
,
0010
0010
0010
0010
,
1000
0001
1000
0000
0100
0000
0100
0000
,
0010
0010
0010
0010
,
0001
1000
0001
0000
0100
0000
0010
0000
,
0100
0000
0000
1000
0000
0100
0000
0001
,
0000
1000
0000
0100
0000
0020
0000
0000
,
0000
0000
0000
0000
,
0000
0000
0000
0000
0031
0000
0000
1001
;

//---------------dance-double - ----------------
#NOTES:
     dance-double:
     :
     Easy:
     9:
     0.327120,0.398915,0.088926,0.274188,0.000000,309.000000,297.000000,12.000000,37.000000,0.000000,0.000000,0.327120,0.398915,0.088926,0.274188,0.000000,309.000000,297.000000,12.000000,37.000000,0.000000,0.000000:
00000000
00000000
00000000
00000000
,
00000000
00000000
00000000
00000000
,
00000000
00000000
00000000
00000000
,
00000000
00000000
00000000
00000000
,
00000000
00000000
00000000
00000000
,
00000000
00000000
00000000
00000000
,
20000000
00000000
30010000
01000000
,
00001000
00000000
00000000
00001000
00000000
00000000
00010000
00000000
,
00000200
00000000
00000310
00000000
,
00000000
00000001
00000000
00000000
00000100
00000000
00000000
00010000
,
00000000
01000000
00100000
10000000
,
00020000
00000000
00000000
00030000
,
10000000
00000000
00000000
01000000
00000000
00010000
00000000
02000000
,
00000000
03010000
00001000
00000010
,
00000001
00000000
00000000
00000100
00000000
00001000
00000000
00000200
,
00000000
00001300
00010000
00100000
,
10000000
00000000
00000000
01000000
00000000
00010000
00000000
02000000
,
00000000
03010000
00001000
00000010
,
00000001
00000000
00000000
00001000
00000000
00000010
00000000
00000100
,
00000000
00001000
00000000
00010000
00000000
00100000
00000000
02000000
,
00000000
00000000
00000000
00000000
,
00000000
00000000
03000000
00000000
,
20010000
00000000
00000000
31000000
,
00010000
00000000
00000000
00001000
00000000
00001000
00000000
00002000
,
00000000
00000000
00000000
00013000
,
00001000
00000000
00000000
00000100
00000000
00000100
00000000
00000200
,
00000000
00000000
00000000
00000301
,
00000002
00000000
00000000
00000003
,
00002000
00000000
00003200
00000000
,
00010300
00000000
00001000
00000000
01000000
00000000
00000000
00100000
,
00000000
10010000
10000000
01000000
,
00010000
00000000
00000000
00000100
00000000
00000100
00000000
00000200
,
00000000
00000310
00000001
00001000
,
00000001
00000100
00001000
00010000
,
00200000
00000000
00310000
00001000
,
00000020
00000000
00001030
00010000
,
00100000
00000000
01000000
00000000
01000000
00000000
00000000
00020000
,
00000000
10030000
01000000
01000000
,
00020000
00000000
00031000
00000000
,
00000100
00000000
00000001
00000000
00001000
00000000
00000000
00001001
,
00000000
00000001
00001000
00000100
,
00000010
00000000
00000000
00001000
00000000
00001000
00000000
00000000
,
00010000
01000000
00100000
00001000
,
00010000
00001000
00000100
00000010
,
00010000
00010000
00001000
00001000
,
02000000
00000000
03100000
10000000
,
00020000
00000000
10000000
10000000
,
00100000
00000000
00100000
00000000
00031000
00000000
00000000
00002000
,
00000000
00000000
00000001
00000001
,
00000010
00000000
00000000
00013000
00000000
01000000
00000000
00000000
,
00000000
00000000
00100000
00000000
10000000
00000000
00000000
00010000
,
00000000
00010000
00000000
10000000
00000000
00000000
00000000
02000000
,
00000000
00000000
03010000
00000000
00001000
00000000
00000000
00000010
,
00000000
00000001
00001000
00000010
,
00000100
00001000
00010000
00010000
,
01000000
00010000
00001000
00001000
,
00000010
00001000
00010000
00010000
,
00100000
00000000
10000000
00000000
00010000
00000000
00000000
00100000
,
00000000
00000000
01100000
00000000
00000000
01000000
00000000
00000000
,
10000000
00000000
00000000
00020000
00000000
00000000
00130000
00000000
,
00001000
00010000
00000010
00000100
,
00001000
00000100
00000001
00000001
,
00001000
00000200
00000010
00010300
,
00001000
02000000
00100000
03001000
,
00010000
00000200
00000010
00010300
,
00001000
00000000
00000000
00011000
00000000
00011000
00000000
00011000
,
00000000
00000000
00001000
00000000
01000000
00100000
00000000
00000000
,
10000000
00000000
00000000
00020000
00000000
00000000
00130000
00000000
,
00001000
00010000
00010000
00010000
,
00002000
00000000
00000000
00000000
00003100
00000010
00000100
00000000
,
00000001
00000000
00000000
00001000
00000000
00001001
00000000
00001001
,
00000000
00000001
00000010
00000100
,
00000010
00000000
00000000
00001000
00000000
00011000
00000000
00011000
,
00000000
00010000
00000000
00002000
00000000
00000000
01003000
00000000
,
00020000
00000000
10030000
01000000
,
00100000
00000000
00000000
00100000
00000000
00000000
00001000
00010000
,
00002000
00000000
00013000
00000000
,
00000000
00001000
00000000
00000000
00000100
00000000
00000000
00000001
,
00000000
00000010
00001000
00100000
,
00020000
00000000
00000000
00000000
00000000
10030000
00000000
00000000
,
00010000
00000000
01000000
00100000
00000000
00100000
00000000
00200000
,
00000000
10300000
00010000
00001000
,
00000001
00000000
00000000
00001000
00000000
00001000
00000000
00002000
,
00000000
00003001
00000100
00000010
,
00010000
00000000
00000100
00001000
00000000
00001000
00000000
00002000
,
00000000
00003001
00001000
00010000
,
10000000
00000000
00000000
00010000
00000000
00010000
00000000
00020000
,
00000000
10030000
01000000
00100000
,
00001000
00010000
00010000
00010000
,
00001000
00000010
00001000
00000000
00010000
00000000
00010000
00000000
,
00001000
00001000
00001000
00001000
,
00010000
00100000
00010000
00000000
00001000
00000000
00001000
00000000
,
00010000
00010000
00010000
00010000
,
00001000
00000100
00001000
00000000
00010000
00000000
00010000
00000000
,
01000000
00000000
00000000
10000000
00000000
00010000
00000000
01000000
,
00000000
00100000
00000000
00010000
00000000
00002000
00000000
00000000
,
00000000
00000000
00000000
00000000
,
00000000
00000000
00000000
00000000
00013000
00000000
00000000
00011000
;

//---------------dance-single - ----------------
#NOTES:
     dance-single:
     :
     Beginner:
     5:
     0.220197,0.290120,0.051873,0.133389,0.000000,208.000000,201.000000,7.000000,18.000000,0.000000,0.000000,0.220197,0.290120,0.051873,0.133389,0.000000,208.000000,201.000000,7.000000,18.000000,0.000000,0.000000:
0000
0000
0000
0000
,
0000
0000
0000
0000
,
0000
0000
0000
0000
,
0000
0000
0000
0000
,
0000
0000
0000
0000
,
0000
0000
0000
0000
,
0001
0000
1000
0000
,
0100
0000
0010
0000
,
0001
0000
0001
0000
,
0000
1000
0000
0000
0001
0000
0000
1000
,
0000
0001
0001
0000
,
0200
0000
0000
0300
,
0010
0000
0000
0000
1000
0000
0000
0020
,
0000
0000
0130
0000
,
0001
0000
0000
0010
0000
0000
0000
0002
,
0000
0000
0103
0000
,
0010
0000
0000
0000
1000
0000
0000
0020
,
0000
0000
0130
0000
,
0001
0000
0000
0001
0000
0000
0000
1000
,
0000
0000
0000
0100
0000
0100
0000
0000
,
0000
0000
0000
0000
,
0000
0000
0000
0000
,
0010
0000
0001
0000
,
1000
0000
0010
0100
,
0010
0000
1000
0000
,
0001
0000
0010
0100
,
0020
0000
0030
0100
,
0200
0000
0300
0000
,
1000
0000
0001
0000
,
0100
0000
0010
0100
,
0010
0100
0000
0000
,
0001
0000
1000
0100
,
1000
0000
0001
0000
,
1000
0000
0001
0100
,
0002
0000
1003
0000
,
2000
0000
3001
0000
,
0001
0000
0100
0000
,
0010
0100
0010
0000
,
0002
0000
0000
0000
,
0013
0000
0000
0000
1000
0000
0000
0002
,
0000
0000
0000
0000
,
0013
0000
0100
0000
,
2000
0000
3001
0000
,
0002
0000
1003
0000
,
1000
0000
0010
0000
,
0100
0000
0001
0000
,
2000
0000
0000
0000
,
0000
0000
0000
0000
3000
0000
0000
0002
,
0000
0000
0000
0000
,
1003
0000
0010
0100
,
0002
0000
0000
0000
,
0000
0000
0000
0000
0003
0000
0000
1001
,
0000
0000
1000
0000
0100
0000
0000
0010
,
0000
0000
0001
1000
,
0001
0000
0001
0001
,
1000
0000
1000
1000
,
0001
0000
0001
0001
,
1000
0000
0010
0000
,
0100
0000
0000
0000
0000
0001
0000
0000
,
1000
0000
0000
0001
0000
0000
0000
0000
,
0100
0000
0000
0010
0000
0100
0000
0010
,
0000
0000
0100
0000
,
1001
0000
0001
0001
,
1000
0000
1000
1000
,
0100
0000
0100
0100
,
0010
0000
0000
0010
0000
0010
0000
0020
,
0000
0000
0030
0000
0000
0001
0000
0000
,
1000
0000
0000
0001
0000
0000
0000
0000
,
0100
0000
0010
0010
,
0010
0000
1000
0001
,
1000
0000
0000
0100
0000
0100
0000
0100
,
0000
0000
0010
0000
,
0001
0000
0000
1000
0000
1000
0000
1000
,
0000
0000
0000
0010
0000
0000
0000
0000
,
0100
0000
0001
0000
,
1000
0000
0000
0100
0000
0000
0000
0000
,
0010
0000
0001
0000
,
0000
1000
0000
0000
0001
0000
0000
1000
,
0000
0001
0001
0000
,
0200
0000
0000
0000
0000
0300
0000
0000
,
0010
0000
0000
0000
1000
0000
0000
0001
,
0000
0000
1001
1001
,
1000
0000
0000
0000
0001
0000
0000
0100
,
0000
0000
0010
0010
,
1000
0000
0000
0000
0001
0000
0000
0010
,
0000
0000
0110
0110
,
0100
0000
0000
0000
1000
0000
0000
0001
,
0000
0000
0100
0100
,
0010
0000
1000
0001
,
1000
0000
0100
0100
,
0100
0000
1000
0001
,
1000
0000
0010
0010
,
0010
0000
1000
0001
,
1000
0000
0100
0100
,
0100
0000
0000
0010
0000
0000
0000
0001
,
0000
1000
0000
0001
0000
2000
0000
0000
,
0000
0000
0000
0000
,
0000
0000
0000
0000
3000
0000
0000
1001
;
